Tags
Language
Tags

Supercharger - Goes Way Out! (1993)

Posted By: v3122
Supercharger - Goes Way Out! (1993)

Supercharger - Goes Way Out! (1993)
EAC | Flac(Image) + Cue + Log & MP3 CBR 320Kbps
Estrus Records, ESD127 | ~ 188 or 63 Mb | Artwork(jpg) -> 5.99 Mb
Garage Rock, Punk

Supercharger's Goes Way Out gained instant access into the trash rock pantheon. From the recorded in a kitchen sound and ringing guitar feedback sequels to the bratty singing and pissed-off lyrics, this album is like a guidebook on playing and recording minimalist punk rock. Starting out with a loud B-movie warning of alien invasion, the album assaults the senses with low-budget riffs and a 1950s rock sound that has a gutbucket level honesty proving this power trio's members are purists at heart. Cynical anger drips off the crudely tuned guitars and the subject matter of tunes like "You Irritate Me," "Buzz Off," "Bailin' Out," and "Get Out of My House" sounds like a domestic argument on COPS. The brilliance of Goes Way Out is its rhythmic intensity. Harnessing the snarl of the overdriven guitar sound, they throttle the songs by driving them with chunky poppy power chords. Opting for a mistakes-be-damned, balls-out approach, the energy level equals the volume on each track and covers many blemishes with raw enthusiasm. When Supercharger locks in on the song "Cindy Lou" with its pumping tempo, they are channeling a primal energy that fuels all great rock & roll performances. The one musical technique that Supercharger possesses on this release is the band is tight. The crisp togetherness easily sells their simplicity as a tough and spirited sound. Like the Ramones and the New York Dolls, they find freedom in their limitations, and Goes Way Out further champions the cause of the anti-musician's musician.

by Chris Larry, allmusic
Supercharger - Goes Way Out! (1993):

Supercharger - Goes Way Out! (1993)

Tracklist:

1 Super X (1:32)
2 No Sleep (2:17)
3 Way Out (2:19)
4 It's Alright (2:08)
5 Buzz Off (1:40)
6 You Irritate Me (2:45)
7 I Took A Ride (When You Said I'm Gone) (1:46)
8 Bailin' Out (2:10)
9 Knockout (1:26)
10 One Way Street (1:56)
11 Sick To Death (1:45)
12 Get Out Of My House (1:28)
13 Sissy Jerk (1:38)
14 Cindy Lou (1:39)

Exact Audio Copy V1.0 beta 4 from 7. December 2014

EAC extraction logfile from 7. February 2015, 16:52

Supercharger / Goes Way Out!

Used drive : HL-DT-STBD-RE WH12LS30 Adapter: 1 ID: 0

Read mode : Secure
Utilize accurate stream : Yes
Defeat audio cache : Yes
Make use of C2 pointers : No

Read offset correction : 667
Overread into Lead-In and Lead-Out : No
Fill up missing offset samples with silence : Yes
Delete leading and trailing silent blocks : No
Null samples used in CRC calculations : Yes
Used interface : Native Win32 interface for Win NT & 2000
Gap handling : Appended to previous track

Used output format : User Defined Encoder
Selected bitrate : 1024 kBit/s
Quality : High
Add ID3 tag : No
Command line compressor : C:\Program Files (x86)\Exact Audio Copy\FLAC\FLAC.EXE
Additional command line options : -6 -V -T "ARTIST=%artist%" -T "TITLE=%title%" -T "ALBUM=%albumtitle%" -T "DATE=%year%" -T "TRACKNUMBER=%tracknr%" -T "GENRE=%genre%" -T "COMMENT=%comment%" -T "BAND=%albuminterpret%" -T "ALBUMARTIST=%albuminterpret%" -T "COMPOSER=%composer%" %haslyrics%–tag-from-file=LYRICS="%lyricsfile%"%haslyrics% -T "DISCNUMBER=%cdnumber%" -T "TOTALDISCS=%totalcds%" -T "TOTALTRACKS=%numtracks%" %hascover%–picture="%coverfile%"%hascover% %source% -o %dest%


TOC of the extracted CD

Track | Start | Length | Start sector | End sector
––––––––––––––––––––––––––––-
1 | 0:00.00 | 1:32.60 | 0 | 6959
2 | 1:32.60 | 2:17.57 | 6960 | 17291
3 | 3:50.42 | 2:19.18 | 17292 | 27734
4 | 6:09.60 | 2:08.07 | 27735 | 37341
5 | 8:17.67 | 1:40.13 | 37342 | 44854
6 | 9:58.05 | 2:45.17 | 44855 | 57246
7 | 12:43.22 | 1:46.60 | 57247 | 65256
8 | 14:30.07 | 2:10.13 | 65257 | 75019
9 | 16:40.20 | 1:26.65 | 75020 | 81534
10 | 18:07.10 | 1:56.22 | 81535 | 90256
11 | 20:03.32 | 1:45.50 | 90257 | 98181
12 | 21:49.07 | 1:28.38 | 98182 | 104819
13 | 23:17.45 | 1:38.20 | 104820 | 112189
14 | 24:55.65 | 1:39.02 | 112190 | 119616


Track 1

Filename C:\Users\Smoky\Desktop\What.CD Projects\Supercharger - Goes Way Out! (1993) [FLAC]\01 - Super X.wav

Pre-gap length 0:00:02.00

Peak level 100.0 %
Extraction speed 1.0 X
Track quality 100.0 %
Test CRC 92E9F9CA
Copy CRC 92E9F9CA
Accurately ripped (confidence 2) [39A05F1A] (AR v2)
Copy OK

Track 2

Filename C:\Users\Smoky\Desktop\What.CD Projects\Supercharger - Goes Way Out! (1993) [FLAC]\02 - No Sleep.wav

Peak level 100.0 %
Extraction speed 0.9 X
Track quality 99.9 %
Test CRC 108120AA
Copy CRC 108120AA
Accurately ripped (confidence 2) [53A92BE6] (AR v2)
Copy OK

Track 3

Filename C:\Users\Smoky\Desktop\What.CD Projects\Supercharger - Goes Way Out! (1993) [FLAC]\03 - Way Out.wav

Peak level 100.0 %
Extraction speed 1.1 X
Track quality 100.0 %
Test CRC B49A9616
Copy CRC B49A9616
Accurately ripped (confidence 2) [289B70C6] (AR v2)
Copy OK

Track 4

Filename C:\Users\Smoky\Desktop\What.CD Projects\Supercharger - Goes Way Out! (1993) [FLAC]\04 - It's Alright.wav

Pre-gap length 0:00:00.46

Peak level 100.0 %
Extraction speed 1.1 X
Track quality 100.0 %
Test CRC 19987FAC
Copy CRC 19987FAC
Accurately ripped (confidence 2) [42325134] (AR v2)
Copy OK

Track 5

Filename C:\Users\Smoky\Desktop\What.CD Projects\Supercharger - Goes Way Out! (1993) [FLAC]\05 - Buzz Off.wav

Pre-gap length 0:00:01.40

Peak level 100.0 %
Extraction speed 1.1 X
Track quality 100.0 %
Test CRC 190D3222
Copy CRC 190D3222
Accurately ripped (confidence 2) [73702F84] (AR v2)
Copy OK

Track 6

Filename C:\Users\Smoky\Desktop\What.CD Projects\Supercharger - Goes Way Out! (1993) [FLAC]\06 - You Irritate Me.wav

Pre-gap length 0:00:00.66

Peak level 100.0 %
Extraction speed 1.3 X
Track quality 100.0 %
Test CRC 306BAFAA
Copy CRC 306BAFAA
Accurately ripped (confidence 2) [F4E437D4] (AR v2)
Copy OK

Track 7

Filename C:\Users\Smoky\Desktop\What.CD Projects\Supercharger - Goes Way Out! (1993) [FLAC]\07 - I Took A Ride (When You Said I'm Gone).wav

Pre-gap length 0:00:01.20

Peak level 100.0 %
Extraction speed 1.2 X
Track quality 100.0 %
Test CRC 38643BB5
Copy CRC 38643BB5
Accurately ripped (confidence 2) [EA3B2560] (AR v2)
Copy OK

Track 8

Filename C:\Users\Smoky\Desktop\What.CD Projects\Supercharger - Goes Way Out! (1993) [FLAC]\08 - Bailin' Out.wav

Pre-gap length 0:00:01.76

Peak level 100.0 %
Extraction speed 1.3 X
Track quality 100.0 %
Test CRC EF3A89E9
Copy CRC EF3A89E9
Accurately ripped (confidence 2) [7DE7F880] (AR v2)
Copy OK

Track 9

Filename C:\Users\Smoky\Desktop\What.CD Projects\Supercharger - Goes Way Out! (1993) [FLAC]\09 - Knockout.wav

Pre-gap length 0:00:00.57

Peak level 100.0 %
Extraction speed 1.2 X
Track quality 100.0 %
Test CRC 7C84DCA9
Copy CRC 7C84DCA9
Accurately ripped (confidence 2) [B5109EFD] (AR v2)
Copy OK

Track 10

Filename C:\Users\Smoky\Desktop\What.CD Projects\Supercharger - Goes Way Out! (1993) [FLAC]\10 - One Way Street.wav

Pre-gap length 0:00:00.93

Peak level 100.0 %
Extraction speed 1.3 X
Track quality 100.0 %
Test CRC D137A16A
Copy CRC D137A16A
Accurately ripped (confidence 2) [16EF5889] (AR v2)
Copy OK

Track 11

Filename C:\Users\Smoky\Desktop\What.CD Projects\Supercharger - Goes Way Out! (1993) [FLAC]\11 - Sick To Death.wav

Pre-gap length 0:00:00.81

Peak level 100.0 %
Extraction speed 1.3 X
Track quality 100.0 %
Test CRC 75394541
Copy CRC 75394541
Accurately ripped (confidence 2) [DDDB4FE3] (AR v2)
Copy OK

Track 12

Filename C:\Users\Smoky\Desktop\What.CD Projects\Supercharger - Goes Way Out! (1993) [FLAC]\12 - Get Out Of My House.wav

Pre-gap length 0:00:00.42

Peak level 100.0 %
Extraction speed 1.2 X
Track quality 100.0 %
Test CRC AECEC109
Copy CRC AECEC109
Accurately ripped (confidence 2) [45B3D87E] (AR v2)
Copy OK

Track 13

Filename C:\Users\Smoky\Desktop\What.CD Projects\Supercharger - Goes Way Out! (1993) [FLAC]\13 - Sissy Jerk.wav

Pre-gap length 0:00:00.64

Peak level 100.0 %
Extraction speed 1.0 X
Track quality 99.8 %
Test CRC E27FB9CF
Copy CRC E27FB9CF
Accurately ripped (confidence 2) [4EEE3715] (AR v2)
Copy OK

Track 14

Filename C:\Users\Smoky\Desktop\What.CD Projects\Supercharger - Goes Way Out! (1993) [FLAC]\14 - Cindy Lou.wav

Pre-gap length 0:00:00.57

Peak level 100.0 %
Extraction speed 1.3 X
Track quality 100.0 %
Test CRC CE006417
Copy CRC CE006417
Accurately ripped (confidence 2) [946EB1B3] (AR v2)
Copy OK


All tracks accurately ripped

No errors occurred

End of status report

–– CUETools DB Plugin V2.1.4

[CTDB TOCID: 6IkQXBMiU7a7GDiqu1.24blWp4w-] database access error: The remote name could not be resolved: 'db.cuetools.net'


==== Log checksum B8E32119C92141CE8D2FBEF3F08D1ECD6888EBAB947ABD9E1C605CA62D04E0F0 ====


[CUETools log; Date: 31.08.2021 22:23:21; Version: 2.1.4]
[AccurateRip ID: 000e5145-0097bd9e-ae063a0e] found.
Track [ CRC | V2 ] Status
01 [6650fcfd|39a05f1a] (0+2/2) Accurately ripped
02 [b22efb7d|53a92be6] (0+2/2) Accurately ripped
03 [49f1e4ca|289b70c6] (0+2/2) Accurately ripped
04 [d7c0b9d9|42325134] (0+2/2) Accurately ripped
05 [714bc830|73702f84] (0+2/2) Accurately ripped
06 [2091c436|f4e437d4] (0+2/2) Accurately ripped
07 [7f82b63d|ea3b2560] (0+2/2) Accurately ripped
08 [9e128b31|7de7f880] (0+2/2) Accurately ripped
09 [59f67e0f|b5109efd] (0+2/2) Accurately ripped
10 [327a0a65|16ef5889] (0+2/2) Accurately ripped
11 [2b8fd054|dddb4fe3] (0+2/2) Accurately ripped
12 [30517cc0|45b3d87e] (0+2/2) Accurately ripped
13 [65c8484d|4eee3715] (0+2/2) Accurately ripped
14 [0b7bbfb7|946eb1b3] (0+2/2) Accurately ripped

Track Peak [ CRC32 ] [W/O NULL] [ LOG ]
– 100,0 [A32B4D82] [0C00C4B9]
01 100,0 [92E9F9CA] [9D177C71] CRC32
02 100,0 [108120AA] [8BD096E9] CRC32
03 100,0 [B49A9616] [451236F1] CRC32
04 100,0 [19987FAC] [0B9F2C18] CRC32
05 100,0 [190D3222] [9B8BE76F] CRC32
06 100,0 [306BAFAA] [7809D47D] CRC32
07 100,0 [38643BB5] [BC94A7A9] CRC32
08 100,0 [EF3A89E9] [49DD2D97] CRC32
09 100,0 [7C84DCA9] [6F0F197B] CRC32
10 100,0 [D137A16A] [3362AC7B] CRC32
11 100,0 [75394541] [57ADA54C] CRC32
12 100,0 [AECEC109] [75A8BB43] CRC32
13 100,0 [E27FB9CF] [08202141] CRC32
14 100,0 [CE006417] [F315DB66] CRC32


Supercharger - Goes Way Out! (1993)

All thanks go to the original releaser

Supercharger in my Blog

Download Supercharger - Goes Way Out! (1993):