Subcategories

Supermax - Something In My Heart (1986)

Posted By: popsakov
Supermax - Something In My Heart (1986)

Supermax - Something In My Heart (1986)
EAC Rip | FLAC (Img) + Cue + Log ~ 407 Mb | MP3 CBR320 ~ 133 Mb
Full Scans ~ 109 Mb | 00:55:07 | RAR 5% Recovery
Pop Rock, Electronic, Synth-Pop, Funk, Reggae | GIG Records #GIG 333 133

Supermax was a project of Austrian musician and producer, Kurt Hauenstein, best known for "Lovemachine", a 1977 German #4 single, that peaked at #6 in Switzerland, #9 in Austria and #96 in US. The members of the band were Kurt Hauenstein, Hans Ochs (guitar), Ken Taylor (bass guitar), Lothar Krell (keyboards), Peter Koch (drums) and the singers Cee Cee Cobb and Jean Graham. Later, Bernadet Onore Eben and Jessica Hauenstein, the daughter of Kurt Hauenstein, joined the group as backing vocal singers. In 1981, Supermax toured as the first mixed-race band through South Africa. Despite warnings and death threats, Supermax finished the tour, but this made some countries refuse permits for entry, and consequently the group was black-listed by some political organizations.
Supermax - Something In My Heart (1986)


***************

Supermax - Something In My Heart (1986)

Track List:

01. Living In A World [0:06:05.04]
02. Going Back Home [0:05:00.27]
03. Hara Hara [0:05:52.07]
04. Scream Of A Butterfly [0:04:38.65]
05. I Want You [0:04:32.46]
06. Something In My Heart [0:04:28.04]
07. Dreadlock Generation [0:04:55.35]
08. 5 Past 4 [0:03:56.55]
09. Salongo [0:04:14.07]
10. Number One In My Heart (Bonus Track) [0:06:45.31]
11. We Are The People (Bonus Track) [0:04:38.72]

Exact Audio Copy V1.2 from 12. August 2016

EAC extraction logfile from 9. October 2016, 0:15

Supermax / Something In My Heart

Used drive : ATAPI iHAS124 D Adapter: 1 ID: 0

Read mode : Secure
Utilize accurate stream : Yes
Defeat audio cache : Yes
Make use of C2 pointers : No

Read offset correction : 6
Overread into Lead-In and Lead-Out : No
Fill up missing offset samples with silence : Yes
Delete leading and trailing silent blocks : No
Null samples used in CRC calculations : Yes
Used interface : Native Win32 interface for Win NT & 2000

Used output format : User Defined Encoder
Selected bitrate : 1024 kBit/s
Quality : High
Add ID3 tag : No
Command line compressor : C:\Program Files (x86)\Exact Audio Copy\FLAC\FLAC.EXE
Additional command line options : -6 -V -T "ARTIST=%artist%" -T "TITLE=%title%" -T "ALBUM=%albumtitle%" -T "DATE=%year%" -T "TRACKNUMBER=%tracknr%" -T "GENRE=%genre%" -T "COMMENT=%comment%" -T "BAND=%albuminterpret%" -T "ALBUMARTIST=%albuminterpret%" -T "COMPOSER=%composer%" %haslyrics%–tag-from-file=LYRICS="%lyricsfile%"%haslyrics% -T "DISCNUMBER=%cdnumber%" -T "TOTALDISCS=%totalcds%" -T "TOTALTRACKS=%numtracks%" %hascover%–picture="%coverfile%"%hascover% %source% -o %dest%


TOC of the extracted CD

Track | Start | Length | Start sector | End sector
––––––––––––––––––––––––––––-
1 | 0:00.00 | 6:05.04 | 0 | 27378
2 | 6:05.04 | 5:00.27 | 27379 | 49905
3 | 11:05.31 | 5:52.07 | 49906 | 76312
4 | 16:57.38 | 4:38.65 | 76313 | 97227
5 | 21:36.28 | 4:32.46 | 97228 | 117673
6 | 26:08.74 | 4:28.04 | 117674 | 137777
7 | 30:37.03 | 4:55.35 | 137778 | 159937
8 | 35:32.38 | 3:56.55 | 159938 | 177692
9 | 39:29.18 | 4:14.07 | 177693 | 196749
10 | 43:43.25 | 6:45.31 | 196750 | 227155
11 | 50:28.56 | 4:38.72 | 227156 | 248077


Range status and errors

Selected range

Filename C:\mm\Supermax\1986 - Something In My Heart [GIG 333 133]\Supermax - Something In My Heart.wav

Peak level 100.0 %
Extraction speed 3.4 X
Range quality 99.9 %
Test CRC 85F700E1
Copy CRC 85F700E1
Copy OK

No errors occurred


AccurateRip summary

Track 1 not present in database
Track 2 not present in database
Track 3 not present in database
Track 4 not present in database
Track 5 not present in database
Track 6 not present in database
Track 7 not present in database
Track 8 not present in database
Track 9 not present in database
Track 10 not present in database
Track 11 not present in database

None of the tracks are present in the AccurateRip database

End of status report

–– CUETools DB Plugin V2.1.6

[CTDB TOCID: DDxYugFcmqoO_dXLYx2WheCeb6k-] found
Submit result: DDxYugFcmqoO_dXLYx2WheCeb6k- has been confirmed
Track | CTDB Status
1 | (1/1) Accurately ripped
2 | (1/1) Accurately ripped
3 | (1/1) Accurately ripped
4 | (1/1) Accurately ripped
5 | (1/1) Accurately ripped
6 | (1/1) Accurately ripped
7 | (1/1) Accurately ripped
8 | (1/1) Accurately ripped
9 | (1/1) Accurately ripped
10 | (1/1) Accurately ripped
11 | (1/1) Accurately ripped

foobar2000 1.2.6 / Dynamic Range Meter 1.1.1
log date: 2016-10-18 00:38:42

––––––––––––––––––––––––––––––––––––––––
Analyzed: Supermax / Something In My Heart
––––––––––––––––––––––––––––––––––––––––

DR Peak RMS Duration Track
––––––––––––––––––––––––––––––––––––––––
DR9 -0.50 dB -12.85 dB 6:05 01-Living In A World
DR9 -0.50 dB -10.95 dB 5:00 02-Going Back Home
DR9 -0.50 dB -11.25 dB 5:52 03-Hara Hara
DR9 -0.50 dB -12.68 dB 4:39 04-Scream Of A Butterfly
DR10 -0.50 dB -11.29 dB 4:33 05-I Want You
DR10 -0.50 dB -12.77 dB 4:28 06-Something In My Heart
DR9 -0.50 dB -11.48 dB 4:55 07-Dreadlock Generation
DR8 -0.50 dB -10.09 dB 3:57 08-5 Past 4
DR9 -0.50 dB -11.18 dB 4:14 09-Salongo
DR11 0.00 dB -11.81 dB 6:45 10-Number One In My Heart (Bonus Track)
DR8 -0.01 dB -9.92 dB 4:39 11-We Are The People (Bonus Track)
––––––––––––––––––––––––––––––––––––––––

Number of tracks: 11
Official DR value: DR9

Samplerate: 44100 Hz
Channels: 2
Bits per sample: 16
Bitrate: 980 kbps
Codec: FLAC
================================================================================

[CUETools log; Date: 18.10.2016 0:38:04; Version: 2.1.5]
[CTDB TOCID: DDxYugFcmqoO_dXLYx2WheCeb6k-] found.
Track | CTDB Status
1 | (2/2) Accurately ripped
2 | (2/2) Accurately ripped
3 | (2/2) Accurately ripped
4 | (2/2) Accurately ripped
5 | (2/2) Accurately ripped
6 | (2/2) Accurately ripped
7 | (2/2) Accurately ripped
8 | (2/2) Accurately ripped
9 | (2/2) Accurately ripped
10 | (2/2) Accurately ripped
11 | (2/2) Accurately ripped
[AccurateRip ID: 00172175-00c62f5c-920ceb0b] disk not present in database.

Track Peak [ CRC32 ] [W/O NULL] [ LOG ]
– 100,0 [85F700E1] [DBA8F966] CRC32
01 94,4 [86FA4268] [965C035A]
02 94,4 [6F04F64E] [120C0A4C]
03 94,4 [774CA058] [54497DF3]
04 94,4 [B6C9E393] [006525E8]
05 94,4 [C95D9263] [D99A60FB]
06 94,4 [6A26C932] [B5B73042]
07 94,4 [CCC574C6] [A1353E2A]
08 94,4 [6FC63599] [7727C6A3]
09 94,4 [AEFA6179] [726DA4F9]
10 100,0 [C7DBC74B] [5F58CEF1]
11 99,9 [E74A9350] [0814751D]

Supermax - Something In My Heart (1986)


All thanks go to sergych

>>> Supermax in my Blog <<<

DOWNLOAD: