Subcategories

Susan Tedeschi - Back To The River (2008) [Re-Up]

Posted By: Designol
Susan Tedeschi - Back To The River (2008) [Re-Up]

Susan Tedeschi - Back To The River (2008)
EAC | FLAC | Image (Cue&Log) ~ 320 Mb | Mp3 (CBR320) ~ 121 Mb | Scans included | 00:44:29
Modern Electric Blues, Blues-Rock, Rhythm & Blues | Label: Verve | # B0011513-02

With a vibrant, versatile voice (sounding at times like an inspired mix of Janis Joplin and Bonnie Raitt) capable of adding subtle emotional shifts to slow-burning ballads or rocking out with the big boys, Susan Tedeschi burst on the scene at the close of the 1990s like a breath of fresh air in an era of prefab MTV teen idols. Like Raitt, Tedeschi works from a blues base, but she mixes in a strong sense of R&B and gospel, and with Back to the River, her second release for Verve Forecast, she shows that she's really starting to find herself as a songwriter, as well. Tedeschi wrote or co-wrote all but one of the 11 tracks here, and while one could still say these songs are based in her beloved blues, like Raitt, she has branched out from there to become a solid pop artist with a real and accessible vision, and the blues is just the engine under the hood. There are some wonderful moments here, including the big and funky title track, "Back to the River," which Tedeschi co-wrote with swamp pop master Tony Joe White, the sincere and solid "Learning the Hard Way," co-written with Gary Louris of the Jayhawks, and the impressive "Butterfly," which Tedeschi' co-wrote with her husband, Derek Trucks. The lone cover, a marvelous, horn-driven version of Allen Toussaint's "There's a Break in the Road" (originally recorded in 1969 by Betty Harris), fits seamlessly in with the newer material. Then there is Tedeschi's voice, which is a wonderful instrument, strong and hushed by turns, and she carries the full weight of the world's possibilities when she sings, ranging from wounded to determined, delicate to brash, always getting to the emotional center of the song. Tedeschi has already put out some great albums but as she continues to grow as a songwriter, her best work may still be in the future. Meanwhile, Back to the River will serve fans just fine.

Review by Steve Leggett, Allmusic.com

Susan Tedeschi - Back To The River (2008) [Re-Up]



Tracklist:

01. Talking About (4:23)
02. 700 Houses (4:38)
03. Back to the River (3:56)
04. Love Will (3:49)
05. Butterfly (4:09)
06. People (3:26)
07. Learning the Hard Way (4:39)
08. Revolutionize Your Soul (4:46)
09. True (3:21)
10. There's a Break in the Road (3:27)
11. Can't Sleep at Night (3:53)


Exact Audio Copy V0.99 prebeta 3 from 28. July 2007

Отчёт EAC об извлечении, выполненном 3. декабря 2008, 23:03

Susan Tedeschi / Back to the River

Дисковод: TOSHIBA CD/DVDW SD-R5372 Adapter: 0 ID: 1

Режим чтения : Достоверность
Использование точного потока : Да
Отключение кэша аудио : Да
Использование указателей C2 : Нет

Коррекция смещения при чтении : 704
Способность читать области Lead-in и Lead-out : Нет
Заполнение пропущенных сэмплов тишиной : Да
Удаление блоков с тишиной в начале и конце : Нет
При вычислениях CRC использовались нулевые сэмплы : Да
Интерфейс : Установленный внешний ASPI-интерфейс

Выходной формат : Внутренние WAV-операции
Формат сэмплов : 44.100 Гц; 16 бит; стерео


TOC извлечённого CD

Трек | Старт | Длительность | Начальный сектор | Конечный сектор
––––––––––––––––––––––––––––––––––-
1 | 0:00.00 | 4:23.24 | 0 | 19748
2 | 4:23.24 | 4:38.28 | 19749 | 40626
3 | 9:01.52 | 3:56.35 | 40627 | 58361
4 | 12:58.12 | 3:48.57 | 58362 | 75518
5 | 16:46.69 | 4:08.47 | 75519 | 94165
6 | 20:55.41 | 3:26.05 | 94166 | 109620
7 | 24:21.46 | 4:39.12 | 109621 | 130557
8 | 29:00.58 | 4:46.18 | 130558 | 152025
9 | 33:47.01 | 3:21.17 | 152026 | 167117
10 | 37:08.18 | 3:27.37 | 167118 | 182679
11 | 40:35.55 | 3:52.66 | 182680 | 200145


Характеристики диапазона извлечения и сообщения об ошибках

Выбранный диапазон

Имя файла Y:\_Lossless\Susan Tedeschi\2008. Back to the River\Susan Tedeschi - Back to the River (2008).wav

Пиковый уровень 100.0 %
Качество диапазона 100.0 %
CRC копии 22667B0D
Копирование… OK

Ошибок не произошло


AccurateRip: сводка

Трек 1 точное извлечение (доверие 2) [E74650B7]
Трек 2 точное извлечение (доверие 2) [AB8A9A1E]
Трек 3 точное извлечение (доверие 2) [51CBB56F]
Трек 4 точное извлечение (доверие 2) [C8E11C48]
Трек 5 точное извлечение (доверие 2) [BEF9795E]
Трек 6 точное извлечение (доверие 2) [6ECB964F]
Трек 7 точное извлечение (доверие 2) [C3E1383E]
Трек 8 точное извлечение (доверие 2) [011453BB]
Трек 9 точное извлечение (доверие 2) [BEF0CC89]
Трек 10 точное извлечение (доверие 2) [1DF3C29D]
Трек 11 точное извлечение (доверие 2) [DE8F01BE]

Все треки извлечены точно

Конец отчёта

[CUETools log; Date: 06.12.2017 23:19:30; Version: 2.1.4]
[CTDB TOCID: V18UziOsrWbUNTG5NntU6NClFtw-] found.
Track | CTDB Status
1 | (114/117) Accurately ripped
2 | (115/117) Accurately ripped
3 | (115/117) Accurately ripped
4 | (113/117) Accurately ripped
5 | (115/117) Accurately ripped
6 | (114/117) Accurately ripped
7 | (115/117) Accurately ripped
8 | (112/117) Accurately ripped
9 | (114/117) Accurately ripped
10 | (115/117) Accurately ripped
11 | (113/117) Accurately ripped
[AccurateRip ID: 0012c6ec-00a1bdc4-820a6c0b] found.
Track [ CRC | V2 ] Status
01 [e74650b7|efa382fe] (090+092/193) Accurately ripped
02 [ab8a9a1e|ec394f26] (090+092/193) Accurately ripped
03 [51cbb56f|4647762c] (089+092/192) Accurately ripped
04 [c8e11c48|64216b0d] (089+092/192) Accurately ripped
05 [bef9795e|5c7a477c] (090+092/193) Accurately ripped
06 [6ecb964f|cccfaf1e] (089+092/192) Accurately ripped
07 [c3e1383e|fea40f73] (090+092/193) Accurately ripped
08 [011453bb|92fb7495] (090+093/193) Accurately ripped
09 [bef0cc89|e263093e] (089+093/193) Accurately ripped
10 [1df3c29d|c3cc517e] (089+094/194) Accurately ripped
11 [de8f01be|6ad61b89] (085+092/188) Accurately ripped
Offsetted by -664:
01 [048fbfe2] (007/193) Accurately ripped
02 [01625de6] (007/193) Accurately ripped
03 [224e4d93] (007/192) Accurately ripped
04 [be3888fe] (007/192) Accurately ripped
05 [6619ae59] (007/193) Accurately ripped
06 [97fe9960] (007/192) Accurately ripped
07 [e81f9001] (007/193) Accurately ripped
08 [6eacb036] (006/193) Accurately ripped
09 [3fd4b5d3] (007/193) Accurately ripped
10 [ed8bfc16] (007/194) Accurately ripped
11 [bc6aba07] (007/188) Accurately ripped
Offsetted by -667:
01 [e4386d71] (000/193) No match (V2 was not tested)
02 [0075ddf3] (000/193) No match (V2 was not tested)
03 [fac87aa6] (000/192) No match (V2 was not tested)
04 [0cd32a7a] (000/192) No match (V2 was not tested)
05 [461c311d] (000/193) No match (V2 was not tested)
06 [10447b0a] (000/192) No match (V2 was not tested)
07 [f55116ed] (000/193) No match (V2 was not tested)
08 [fb0b9b43] (000/193) No match (V2 was not tested)
09 [1614532a] (000/193) No match (V2 was not tested)
10 [e64c0aa8] (000/194) No match (V2 was not tested)
11 [65d07e3f] (000/188) No match (V2 was not tested)

Track Peak [ CRC32 ] [W/O NULL] [ LOG ]
– 100,0 [22667B0D] [EC78B216] CRC32
01 100,0 [6A94A962] [958C4F06]
02 99,6 [B8D09DF4] [221AE861]
03 99,4 [6139CC06] [B904A1DA]
04 100,0 [5969CC35] [9890E321]
05 100,0 [8E30A59B] [28297AC1]
06 100,0 [149F232C] [9EC4F5FA]
07 100,0 [53487CFD] [5F61309B]
08 100,0 [6746CB89] [E2058237]
09 100,0 [977DB115] [FE572B8F]
10 100,0 [889ECB0B] [B9D3843D]
11 100,0 [0996869A] [F2835BCB]

foobar2000 1.2 / Dynamic Range Meter 1.1.1
log date: 2017-12-06 23:20:54

––––––––––––––––––––––––––––––––––––––––
Analyzed: Susan Tedeschi / Back to the River
––––––––––––––––––––––––––––––––––––––––

DR Peak RMS Duration Track
––––––––––––––––––––––––––––––––––––––––
DR7 0.00 dB -8.16 dB 4:23 01-Talking About
DR7 -0.03 dB -8.31 dB 4:38 02-700 Houses
DR8 -0.05 dB -8.96 dB 3:56 03-Back to the River
DR7 0.00 dB -9.21 dB 3:49 04-Love Will
DR6 0.00 dB -7.38 dB 4:09 05-Butterfly
DR7 0.00 dB -8.12 dB 3:26 06-People
DR7 0.00 dB -8.47 dB 4:39 07-Learning the Hard Way
DR7 0.00 dB -9.01 dB 4:46 08-Revolutionize Your Soul
DR7 0.00 dB -7.70 dB 3:21 09-True
DR8 0.00 dB -8.96 dB 3:27 10-There's a Break in the Road
DR7 0.00 dB -9.63 dB 3:53 11-Can't Sleep at Night
––––––––––––––––––––––––––––––––––––––––

Number of tracks: 11
Official DR value: DR7

Samplerate: 44100 Hz
Channels: 2
Bits per sample: 16
Bitrate: 944 kbps
Codec: FLAC
================================================================================

Susan Tedeschi - Back To The River (2008) [Re-Up]

Susan Tedeschi - Back To The River (2008) [Re-Up]