Subcategories

Sviatoslav Richter - Richter: The Authorised Recordings - Beethoven, Vol. 2 (1994)

Posted By: tirexiss
Sviatoslav Richter - Richter: The Authorised Recordings - Beethoven, Vol. 2 (1994)

Sviatoslav Richter - Richter: The Authorised Recordings - Beethoven, Vol. 2 (1995)
EAC | FLAC (image+.cue, log) | Covers Included | 02:10:49 | 571 MB
Genre: Classical | Label: Phillips | Catalog: 438 624-2

Richter's austere and transcendent rendition of Beethoven Sonatas has no comparison. Reiner Maria Rilke wrote apt analogy of Beethoven's towering achievement in Die Aufzeichnungen des Malte Laurids Brigge (The Notebooks of Malte Laurids Brigge) and the exactly same can be said about Richter's incomparable performances. Highly recommendable, alongside Richter's legendary Leipzig Recital Richter in Leipzig (1963).

Sviatoslav Richter - Richter: The Authorised Recordings - Beethoven, Vol. 2 (1994)

Track List:

CD 1:
01. Piano Sonata No. 18 in E flat major (-Hunt-), Op. 31-3- 1. Allegro [0:10:10.00]
02. Piano Sonata No. 18 in E flat major (-Hunt-), Op. 31-3- 2. Scherzo. Allegro vivace [0:05:13.00]
03. Piano Sonata No. 18 in E flat major (-Hunt-), Op. 31-3- 3. Menuetto. Moderato e grazioso [0:04:43.00]
04. Piano Sonata No. 18 in E flat major (-Hunt-), Op. 31-3- 4. Presto con fuoco [0:05:03.00]
05. Rondo for piano in C major, Op. 51-1 [0:05:30.00]
06. Rondo for piano in G major, Op. 51-2 [0:08:58.00]
07. Piano Sonata No. 28 in A major, Op. 101- 1. Etwas lebhaft und mit der innigsten Empfindung. Allegretto ma non troppo [0:04:30.00]
08. Piano Sonata No. 28 in A major, Op. 101- 2. Lebhaft, marschmäßig. Vivace alla marcia [0:05:52.00]
09. Piano Sonata No. 28 in A major, Op. 101- 3. Langsam und sehnsuchtsvoll. Adagio ma non troppo, con affetto [0:02:51.38]
10. Piano Sonata No. 28 in A major, Op. 101- 4. Geschwind, doch nicht zu sehr, und mit Entschlossenheit. Allegro [0:07:02.37]

CD 2:
01. Piano Trio in B flat major (-Archduke-), Op. 97- 1. Allegro moderato [0:14:00.00]
02. Piano Trio in B flat major (-Archduke-), Op. 97- 2. Scherzo. Allegro [0:07:25.00]
03. Piano Trio in B flat major (-Archduke-), Op. 97- 3. Andante cantabile, ma però con moto - Poco più adagio [0:13:05.00]
04. Piano Trio in B flat major (-Archduke-), Op. 97- 4. Allegro moderato [0:08:02.00]
05. Quintet for piano, oboe, clarinet, horn & bassoon in E flat major, Op. 16- 1. Grave - Allegro ma non troppo [0:16:09.00]
06. Quintet for piano, oboe, clarinet, horn & bassoon in E flat major, Op. 16- 2. Andante cantabile [0:05:59.00]
07. Quintet for piano, oboe, clarinet, horn & bassoon in E flat major, Op. 16- 3. Rondo. Allegro, ma non troppo [0:06:20.00]

Performers:
Sviatoslav Richter - piano
members of the Borodine Quartet
members of the Quintette Moraguès

Exact Audio Copy V1.0 beta 3 from 29. August 2011

EAC extraction logfile from 22. August 2012, 19:43

Sviatoslav Richter / Richter - The Authorised Recordings - Beethoven II (Disc 1)

Used drive : HL-DT-STDVDRAM GSA-H10A Adapter: 0 ID: 0

Read mode : Secure
Utilize accurate stream : Yes
Defeat audio cache : Yes
Make use of C2 pointers : No

Read offset correction : 667
Overread into Lead-In and Lead-Out : No
Fill up missing offset samples with silence : Yes
Delete leading and trailing silent blocks : No
Null samples used in CRC calculations : Yes
Used interface : Native Win32 interface for Win NT & 2000

Used output format : User Defined Encoder
Selected bitrate : 1024 kBit/s
Quality : High
Add ID3 tag : No
Command line compressor : C:\Program Files\Exact Audio Copy\Flac\flac.exe
Additional command line options : -8 -V -T "TITLE=%title%" -T "ARTIST=%artist%" -T "ALBUMARTIST=%albumartist%" -T "ALBUM=%albumtitle%" -T "DATE=%year%" -T "TRACKNUMBER=%tracknr%" -T "TRACKTOTAL=%numtracks%" -T "GENRE=%genre%" -T "COMMENT=%comment%" -T "PERFORMER=%albuminterpret%" -T "COMPOSER=%composer%" %source% -o %dest%


TOC of the extracted CD

Track | Start | Length | Start sector | End sector
––––––––––––––––––––––––––––-
1 | 0:00.32 | 10:10.00 | 32 | 45781
2 | 10:10.32 | 5:13.00 | 45782 | 69256
3 | 15:23.32 | 4:43.00 | 69257 | 90481
4 | 20:06.32 | 5:03.00 | 90482 | 113206
5 | 25:09.32 | 5:30.00 | 113207 | 137956
6 | 30:39.32 | 8:58.00 | 137957 | 178306
7 | 39:37.32 | 4:30.00 | 178307 | 198556
8 | 44:07.32 | 5:52.00 | 198557 | 224956
9 | 49:59.32 | 2:51.38 | 224957 | 237819
10 | 52:50.70 | 7:02.37 | 237820 | 269506


Range status and errors

Selected range

Filename F:\Ripped general\[1392] Richter - The Authorised Recordings - Beethoven II\cd1\Richter - The Authorised Recordings - Beethoven II (Disc 1).wav

Peak level 88.9 %
Extraction speed 7.4 X
Range quality 100.0 %
Test CRC B5E34205
Copy CRC B5E34205
Copy OK

No errors occurred


AccurateRip summary

Track 1 accurately ripped (confidence 8) [B26EA9F8] (AR v1)
Track 2 accurately ripped (confidence 8) [73EF417D] (AR v1)
Track 3 accurately ripped (confidence 8) [5BDB7E5F] (AR v1)
Track 4 accurately ripped (confidence 8) [61EFC77F] (AR v1)
Track 5 accurately ripped (confidence 7) [03885658] (AR v1)
Track 6 accurately ripped (confidence 8) [C83E5275] (AR v1)
Track 7 accurately ripped (confidence 8) [BDB5602D] (AR v1)
Track 8 accurately ripped (confidence 8) [4D8ED6A9] (AR v1)
Track 9 accurately ripped (confidence 8) [90156223] (AR v1)
Track 10 accurately ripped (confidence 8) [1EDBD9A2] (AR v1)

All tracks accurately ripped

End of status report

Exact Audio Copy V1.0 beta 3 from 29. August 2011

EAC extraction logfile from 22. August 2012, 21:13

Sviatoslav Richter / Richter - The Authorised Recordings - Beethoven II (Disc 2)

Used drive : HL-DT-STDVDRAM GSA-H10A Adapter: 0 ID: 0

Read mode : Secure
Utilize accurate stream : Yes
Defeat audio cache : Yes
Make use of C2 pointers : No

Read offset correction : 667
Overread into Lead-In and Lead-Out : No
Fill up missing offset samples with silence : Yes
Delete leading and trailing silent blocks : No
Null samples used in CRC calculations : Yes
Used interface : Native Win32 interface for Win NT & 2000

Used output format : User Defined Encoder
Selected bitrate : 1024 kBit/s
Quality : High
Add ID3 tag : No
Command line compressor : C:\Program Files\Exact Audio Copy\Flac\flac.exe
Additional command line options : -8 -V -T "TITLE=%title%" -T "ARTIST=%artist%" -T "ALBUMARTIST=%albumartist%" -T "ALBUM=%albumtitle%" -T "DATE=%year%" -T "TRACKNUMBER=%tracknr%" -T "TRACKTOTAL=%numtracks%" -T "GENRE=%genre%" -T "COMMENT=%comment%" -T "PERFORMER=%albuminterpret%" -T "COMPOSER=%composer%" %source% -o %dest%


TOC of the extracted CD

Track | Start | Length | Start sector | End sector
––––––––––––––––––––––––––––-
1 | 0:00.33 | 14:00.00 | 33 | 63032
2 | 14:00.33 | 7:25.00 | 63033 | 96407
3 | 21:25.33 | 13:05.00 | 96408 | 155282
4 | 34:30.33 | 8:02.00 | 155283 | 191432
5 | 42:32.33 | 16:09.00 | 191433 | 264107
6 | 58:41.33 | 5:59.00 | 264108 | 291032
7 | 64:40.33 | 6:20.00 | 291033 | 319532


Range status and errors

Selected range

Filename F:\Ripped general\[1392] Richter - The Authorised Recordings - Beethoven II\cd2\Richter - The Authorised Recordings - Beethoven II (Disc 2).wav

Peak level 96.4 %
Extraction speed 2.1 X
Range quality 100.0 %
Test CRC 8F3E1E4E
Copy CRC 8F3E1E4E
Copy OK

No errors occurred


AccurateRip summary

Track 1 accurately ripped (confidence 8) [B8269A17] (AR v1)
Track 2 accurately ripped (confidence 8) [FB92B73C] (AR v1)
Track 3 accurately ripped (confidence 8) [295A16D6] (AR v1)
Track 4 accurately ripped (confidence 8) [AD474989] (AR v1)
Track 5 accurately ripped (confidence 7) [8703E6E1] (AR v1)
Track 6 accurately ripped (confidence 7) [1EECB37E] (AR v1)
Track 7 accurately ripped (confidence 6) [E0E2954D] (AR v1)

All tracks accurately ripped

End of status report

Thanks to the Original ripper (unknown)!

Welcome to my blog!

Download: