Tags
Language
Tags
April 2024
Su Mo Tu We Th Fr Sa
31 1 2 3 4 5 6
7 8 9 10 11 12 13
14 15 16 17 18 19 20
21 22 23 24 25 26 27
28 29 30 1 2 3 4

Szymon Goldberg, Radu Lupu - Schubert: Works for Violin and Piano (1989)

Posted By: tirexiss
Szymon Goldberg, Radu Lupu - Schubert: Works for Violin and Piano (1989)

Szymon Goldberg, Radu Lupu - Schubert: Works for Violin and Piano (1989)
EAC | FLAC (image+.cue, log) | Covers Included | 69:15 | 312 MB
Genre: Classical | Label: Decca | Catalog: 425 539-2

Although these are unquestionably performances of impeccable musicality and taste, I found that Goldberg's tendency to underplay his part at times led to a little disappointment. In the A minor Sonatina of 1816, with its almost obsessional pathos, the two instrumentalists are models of classical purity, but the Pole is a bit static in the slow movement. Their hypersensitivity and immaculately polished use of tone are employed to keep the music within limited emotional confines. Goldberg's reticent way with the A major Sonata-Duo in particular makes the piece emerge as rather small-scale. The recorded balance between the two is relaxed and pleasing in these pieces.
By the time they came to record the Fantasia in C, Schubert's most notable work in this genre Goldberg was already 70, and there are a few highly uncharacteristic technical imperfections in his part. Lupu is much more to the fore in the balance here and definitely dominates the proceedings. Despite Goldberg's playing being on the careful side, this is in many ways a distinguished reading, with Lupu's magical piano tone being largely responsible for this.

Szymon Goldberg, Radu Lupu - Schubert: Works for Violin and Piano (1989)

Track List:

01. Sonata for violin & piano in A major (-Duo-), D. 574 (Op. posth. 162)- Allegro moderato [0:09:39.25]
02. Sonata for violin & piano in A major (-Duo-), D. 574 (Op. posth. 162)- Scherzo - Presto [0:04:01.68]
03. Sonata for violin & piano in A major (-Duo-), D. 574 (Op. posth. 162)- Andantino [0:03:45.30]
04. Sonata for violin & piano in A major (-Duo-), D. 574 (Op. posth. 162)- Allegro vivace [0:05:16.35]
05. Sonatina for violin & piano in A minor, D. 385 (Op. posth. 137-2)- Allegro moderato [0:06:51.17]
06. Sonatina for violin & piano in A minor, D. 385 (Op. posth. 137-2)- Andante [0:07:12.08]
07. Sonatina for violin & piano in A minor, D. 385 (Op. posth. 137-2)- Menuetto [0:02:18.00]
08. Sonatina for violin & piano in A minor, D. 385 (Op. posth. 137-2)- Allegro [0:04:43.17]
09. Fantasia for violin & piano in C major (-Sei mir gegrüsst!-), D. 934 (Op. posth. 159)- Andante moderato [0:03:30.05]
10. Fantasia for violin & piano in C major (-Sei mir gegrüsst!-), D. 934 (Op. posth. 159)- Allegretto [0:05:20.70]
11. Fantasia for violin & piano in C major (-Sei mir gegrüsst!-), D. 934 (Op. posth. 159)- Andantino [0:10:20.30]
12. Fantasia for violin & piano in C major (-Sei mir gegrüsst!-), D. 934 (Op. posth. 159)- Tempo primo - Allegro vivace - Allegretto - Presto [0:06:16.33]

Performers:
Szymon Goldberg - violin
Radu Lupu - piano

Exact Audio Copy V1.0 beta 3 from 29. August 2011

EAC extraction logfile from 21. May 2013, 18:16

Szymon Goldberg / Schubert - Works for Violin and Piano - Szymon Goldberg, Radu Lupu

Used drive : TSSTcorpCDDVDW SH-222BB Adapter: 2 ID: 1

Read mode : Secure
Utilize accurate stream : Yes
Defeat audio cache : Yes
Make use of C2 pointers : No

Read offset correction : 6
Overread into Lead-In and Lead-Out : No
Fill up missing offset samples with silence : Yes
Delete leading and trailing silent blocks : No
Null samples used in CRC calculations : Yes
Used interface : Native Win32 interface for Win NT & 2000

Used output format : User Defined Encoder
Selected bitrate : 1024 kBit/s
Quality : High
Add ID3 tag : No
Command line compressor : C:\Program Files\Exact Audio Copy\Flac\flac.exe
Additional command line options : -8 -V -T "TITLE=%title%" -T "ARTIST=%artist%" -T "ALBUMARTIST=%albumartist%" -T "ALBUM=%albumtitle%" -T "DATE=%year%" -T "TRACKNUMBER=%tracknr%" -T "TRACKTOTAL=%numtracks%" -T "GENRE=%genre%" -T "COMMENT=%comment%" -T "PERFORMER=%albuminterpret%" -T "COMPOSER=%composer%" %source% -o %dest%


TOC of the extracted CD

Track | Start | Length | Start sector | End sector
––––––––––––––––––––––––––––-
1 | 0:00.32 | 9:39.25 | 32 | 43481
2 | 9:39.57 | 4:01.68 | 43482 | 61624
3 | 13:41.50 | 3:45.30 | 61625 | 78529
4 | 17:27.05 | 5:16.35 | 78530 | 102264
5 | 22:43.40 | 6:51.17 | 102265 | 133106
6 | 29:34.57 | 7:12.08 | 133107 | 165514
7 | 36:46.65 | 2:18.00 | 165515 | 175864
8 | 39:04.65 | 4:43.17 | 175865 | 197106
9 | 43:48.07 | 3:30.05 | 197107 | 212861
10 | 47:18.12 | 5:20.70 | 212862 | 236931
11 | 52:39.07 | 10:20.30 | 236932 | 283461
12 | 62:59.37 | 6:16.33 | 283462 | 311694


Range status and errors

Selected range

Filename G:\Ripped general\[2113] Schubert – Works for Violin and Piano – Szymon Goldberg, Radu Lupu\Schubert - Works for Violin and Piano - Szymon Goldberg, Radu Lupu.wav

Peak level 96.4 %
Extraction speed 2.3 X
Range quality 100.0 %
Test CRC 72E408D7
Copy CRC 72E408D7
Copy OK

No errors occurred


AccurateRip summary

Track 1 accurately ripped (confidence 3) [0D1FD1D5] (AR v1)
Track 2 accurately ripped (confidence 4) [0F9DADD8] (AR v1)
Track 3 accurately ripped (confidence 4) [CC949A97] (AR v1)
Track 4 accurately ripped (confidence 3) [C2631318] (AR v1)
Track 5 accurately ripped (confidence 4) [E262F82A] (AR v1)
Track 6 accurately ripped (confidence 4) [74CD2E8C] (AR v1)
Track 7 accurately ripped (confidence 4) [5AA41F7C] (AR v1)
Track 8 accurately ripped (confidence 4) [A955B008] (AR v1)
Track 9 accurately ripped (confidence 4) [5B227A48] (AR v1)
Track 10 accurately ripped (confidence 4) [77E02721] (AR v1)
Track 11 accurately ripped (confidence 4) [41347733] (AR v1)
Track 12 accurately ripped (confidence 4) [EDA36E3D] (AR v1)

All tracks accurately ripped

End of status report

Thanks to the Original ripper (unknown)!

Welcome to my blog!

Download: