Tags
Language
Tags

T. Rex - The Albums Collection (2014) [10CD Box Set]

Posted By: v3122
T. Rex - The Albums Collection (2014) [10CD Box Set]

T. Rex - The Albums Collection (2014)
EAC | Flac(Image) + Cue + Log & MP3 CBR 320Kbps
10CD | Edsel Records, EDSB 4015 | ~ 2787 or 921 Mb | Scans(png) -> 344 Mb
Rock / Glam / Psychedelic Rock

All eight original T. Rex studio albums, plus two bonus CD of non-album tracks, in card wallets in a box, with a 16 page booklet. Recorded between 1970 and 1977, Marc Bolan’s best-known favourites are included, including “Get It On”, “Metal Guru”, “Telegram Sam”, “Children Of The Revolution” and “20th Century Boy” are included.

~ amazon
T. Rex - The Albums Collection (2014) [10CD Box Set]

T. Rex - The Albums Collection (2014):

T. Rex - The Albums Collection (2014) [10CD Box Set]

CD01: T. Rex (1970)
EAC | Flac(Image) + Cue + Log & MP3 CBR 320Kbps
Edsel Records, EDSB 4015-1 | ~ 263 or 88 Mb
Rock / Glam / Psychedelic Rock

Tyrannosaurus Rex's transformation from oracles of U.K. hippie culture to boogie-friendly rock stars began with the album A Beard of Stars, released in early 1970 when the band picked up electric instruments, and by the time the year was out, Marc Bolan had pared their name down to the more user-friendly T. Rex and dropped their first album with the new moniker. Oddly enough, while the songs on T. Rex bear a much stronger melodic and lyrical resemblance to what would make the band famous on Electric Warrior in 1971, the tone of the album is a bit more pastoral than A Beard of Stars; on most of the tunes, the electric guitars are more successfully integrated into the arrangements so they lack the jarring immediacy of "Elemental Children" or "Pavilions of the Sun," and Mickey Finn still wasn't using a full drum kit, so the tunes don't quite have the kick of a full-on rock band. But Bolan himself sounds like he's ready for his close-up, as his vocals – mannered yet quietly passionate and full of belief – suggest the glam hero he would soon become, and numbers like "Beltrane Walk," "Is It Love," and "Diamond Meadows" (with its wink-and-nudge refrain "Hey, let's do it like we're friends") are just a few paces away from the swaggering sound that would make him the U.K.'s biggest star. If Bolan was reaching for the big time with T. Rex, he also sounds like he was letting out the rock star that had always lurked within him, and there isn't a moment here that doesn't sound like he's singing from his heart and soul. T. Rex is the quiet before the storm of Electric Warrior, and it retains a loopy energy and easy charm that makes it one of Bolan's watershed works.

by Mark Deming, AMG
Tracklist:

01 The Children Of Rarn
02 Jewel
03 The Visit
04 Childe
05 The Time Of Love Is Now
06 Diamond Meadows
07 Root Of Star
08 Beltane Walk
09 Is It Love?
10 One Inch Rock
11 Summer Deep
12 Seagull Woman
13 Suneye
14 The Wizard
15 The Children Of Rarn (Reprise)

Exact Audio Copy V1.0 beta 3 from 29. August 2011

EAC extraction logfile from 7. November 2014, 11:16

T.Rex / T.Rex

Used drive : PLEXTOR BD-R PX-B950SA Adapter: 6 ID: 0

Read mode : Secure
Utilize accurate stream : Yes
Defeat audio cache : Yes
Make use of C2 pointers : No

Read offset correction : 6
Overread into Lead-In and Lead-Out : No
Fill up missing offset samples with silence : Yes
Delete leading and trailing silent blocks : No
Null samples used in CRC calculations : Yes
Used interface : Native Win32 interface for Win NT & 2000

Used output format : Internal WAV Routines
Sample format : 44.100 Hz; 16 Bit; Stereo


TOC of the extracted CD

Track | Start | Length | Start sector | End sector
––––––––––––––––––––––––––––-
1 | 0:00.00 | 0:52.54 | 0 | 3953
2 | 0:52.54 | 2:46.48 | 3954 | 16451
3 | 3:39.27 | 1:54.50 | 16452 | 25051
4 | 5:34.02 | 1:40.04 | 25052 | 32555
5 | 7:14.06 | 2:40.44 | 32556 | 44599
6 | 9:54.50 | 1:58.53 | 44600 | 53502
7 | 11:53.28 | 2:31.16 | 53503 | 64843
8 | 14:24.44 | 2:26.71 | 64844 | 75864
9 | 16:51.40 | 2:33.28 | 75865 | 87367
10 | 19:24.68 | 2:25.33 | 87368 | 98275
11 | 21:50.26 | 1:43.02 | 98276 | 106002
12 | 23:33.28 | 2:18.42 | 106003 | 116394
13 | 25:51.70 | 2:05.46 | 116395 | 125815
14 | 27:57.41 | 8:49.62 | 125816 | 165552
15 | 36:47.28 | 0:38.08 | 165553 | 168410


Range status and errors

Selected range

Filename C:\Users\Meijin\Desktop\ALLexxess\T. Rex\2014 The Albums Collection (10CD Box Set Edsel Records)\1970 T. Rex\T.Rex - T.Rex.wav

Peak level 99.9 %
Extraction speed 6.9 X
Range quality 100.0 %
Test CRC 86B17740
Copy CRC 86B17740
Copy OK

No errors occurred


AccurateRip summary

Track 1 not present in database
Track 2 not present in database
Track 3 not present in database
Track 4 not present in database
Track 5 not present in database
Track 6 not present in database
Track 7 not present in database
Track 8 not present in database
Track 9 not present in database
Track 10 not present in database
Track 11 not present in database
Track 12 not present in database
Track 13 not present in database
Track 14 not present in database
Track 15 not present in database

None of the tracks are present in the AccurateRip database

End of status report

foobar2000 1.2.9 / Dynamic Range Meter 1.1.1
log date: 2014-11-08 14:46:00

––––––––––––––––––––––––––––––––––––––––
Analyzed: T.Rex / T.Rex
––––––––––––––––––––––––––––––––––––––––

DR Peak RMS Duration Track
––––––––––––––––––––––––––––––––––––––––
DR10 -0.62 dB -13.15 dB 0:53 01-The Children Of Rarn
DR10 -0.01 dB -11.83 dB 2:47 02-Jewel
DR11 -0.01 dB -12.85 dB 1:55 03-The Visit
DR10 -0.01 dB -12.76 dB 1:40 04-Childe
DR13 -0.01 dB -15.23 dB 2:41 05-The Time Of Love Is Now
DR8 -0.01 dB -10.74 dB 1:59 06-Diamond Meadows
DR10 -0.01 dB -12.68 dB 2:31 07-Root Of Star
DR11 -0.01 dB -12.01 dB 2:27 08-Beltane Walk
DR11 -0.01 dB -12.89 dB 2:33 09-Is It Love?
DR10 -0.01 dB -12.11 dB 2:25 10-One Inch Rock
DR10 -0.01 dB -11.40 dB 1:43 11-Summer Deep
DR11 -0.01 dB -12.32 dB 2:19 12-Seagull Woman
DR11 -0.01 dB -13.26 dB 2:06 13-Suneye
DR9 -0.01 dB -11.52 dB 8:50 14-The Wizard
DR8 -0.01 dB -9.76 dB 0:38 15-The Children Of Rarn (Reprise)
––––––––––––––––––––––––––––––––––––––––

Number of tracks: 15
Official DR value: DR10

Samplerate: 44100 Hz
Channels: 2
Bits per sample: 16
Bitrate: 933 kbps
Codec: FLAC

[CUETools log; Date: 08.11.2014 14:50:49; Version: 2.1.4]
[CTDB TOCID: TpIWa1obGL_md8XOFE.smHKGmSY-] disk not present in database.
[AccurateRip ID: 00121388-00d33a95-b508c50f] disk not present in database.

Track Peak [ CRC32 ] [W/O NULL] [ LOG ]
– 99,9 [86B17740] [E076D0E4] CRC32
01 93,0 [F4D5A6E5] [0B01A310]
02 99,9 [FAA260C4] [FDE1BB69]
03 99,9 [BA3E0E65] [1A1E4B5C]
04 99,9 [292C53A0] [B6DAE874]
05 99,9 [D22BB68D] [45EC3BA9]
06 99,9 [D5EF70A6] [72973DE9]
07 99,9 [2313512B] [4D08AA1B]
08 99,9 [D2C01068] [FBA6F92A]
09 99,9 [E3AE7265] [2A9F10EA]
10 99,9 [B1731E97] [8F4578EF]
11 99,9 [EB4F9828] [C3623503]
12 99,9 [4CE12886] [A81E2278]
13 99,9 [7E82DCEA] [2135FA4A]
14 99,9 [E798CF56] [65640DCC]
15 99,9 [873F5A5B] [5C2E3FC2]

=============

T. Rex - The Albums Collection (2014) [10CD Box Set]

CD02: Electric Warrior (1971)
EAC | Flac(Image) + Cue + Log & MP3 CBR 320Kbps
Edsel Records, EDSB 4015-2 | ~ 268 or 93 Mb
Rock / Glam / Psychedelic Rock

The album that essentially kick-started the U.K. glam rock craze, Electric Warrior completes T. Rex's transformation from hippie folk-rockers into flamboyant avatars of trashy rock & roll. There are a few vestiges of those early days remaining in the acoustic-driven ballads, but Electric Warrior spends most of its time in a swinging, hip-shaking groove powered by Marc Bolan's warm electric guitar. The music recalls not just the catchy simplicity of early rock & roll, but also the implicit sexuality – except that here, Bolan gleefully hauls it to the surface, singing out loud what was once only communicated through the shimmying beat. He takes obvious delight in turning teenage bubblegum rock into campy sleaze, not to mention filling it with pseudo-psychedelic hippie poetry. In fact, Bolan sounds just as obsessed with the heavens as he does with sex, whether he's singing about spiritual mysticism or begging a flying saucer to take him away. It's all done with the same theatrical flair, but Tony Visconti's spacious, echoing production makes it surprisingly convincing. Still, the real reason Electric Warrior stands the test of time so well – despite its intended disposability – is that it revels so freely in its own absurdity and willful lack of substance. Not taking himself at all seriously, Bolan is free to pursue whatever silly wordplay, cosmic fantasies, or non sequitur imagery he feels like; his abandonment of any pretense to art becomes, ironically, a statement in itself. Bolan's lack of pomposity, back-to-basics songwriting, and elaborate theatrics went on to influence everything from hard rock to punk to new wave. But in the end, it's that sense of playfulness, combined with a raft of irresistible hooks, that keeps Electric Warrior such an infectious, invigorating listen today.

by Steve Huey, AMG
Tracklist:

01 Mambo Sun
02 Cosmic Dancer
03 Jeepster
04 Monolith
05 Lean Woman Blues
06 Get It On
07 Planet Queen
08 Girl
09 The Motivator
10 Life’s A Gas
11 Rip Off

Exact Audio Copy V1.0 beta 3 from 29. August 2011

EAC extraction logfile from 7. November 2014, 10:46

T. Rex / Electric Warrior

Used drive : PLEXTOR BD-R PX-B950SA Adapter: 6 ID: 0

Read mode : Secure
Utilize accurate stream : Yes
Defeat audio cache : Yes
Make use of C2 pointers : No

Read offset correction : 6
Overread into Lead-In and Lead-Out : No
Fill up missing offset samples with silence : Yes
Delete leading and trailing silent blocks : No
Null samples used in CRC calculations : Yes
Used interface : Native Win32 interface for Win NT & 2000

Used output format : Internal WAV Routines
Sample format : 44.100 Hz; 16 Bit; Stereo


TOC of the extracted CD

Track | Start | Length | Start sector | End sector
––––––––––––––––––––––––––––-
1 | 0:00.00 | 3:39.58 | 0 | 16482
2 | 3:39.58 | 4:28.54 | 16483 | 36636
3 | 8:08.37 | 4:10.34 | 36637 | 55420
4 | 12:18.71 | 3:47.28 | 55421 | 72473
5 | 16:06.24 | 3:00.39 | 72474 | 86012
6 | 19:06.63 | 4:25.27 | 86013 | 105914
7 | 23:32.15 | 3:12.01 | 105915 | 120315
8 | 26:44.16 | 2:31.32 | 120316 | 131672
9 | 29:15.48 | 3:58.47 | 131673 | 149569
10 | 33:14.20 | 2:23.54 | 149570 | 160348
11 | 35:37.74 | 3:41.44 | 160349 | 176967


Range status and errors

Selected range

Filename C:\Users\Meijin\Desktop\ALLexxess\T. Rex\2014 The Albums Collection (10CD Box Set Edsel Records)\1971 Electric Warrior\T. Rex - Electric Warrior.wav

Peak level 100.0 %
Extraction speed 7.0 X
Range quality 100.0 %
Test CRC DACC0ABA
Copy CRC DACC0ABA
Copy OK

No errors occurred


AccurateRip summary

Track 1 not present in database
Track 2 not present in database
Track 3 not present in database
Track 4 not present in database
Track 5 not present in database
Track 6 not present in database
Track 7 not present in database
Track 8 not present in database
Track 9 not present in database
Track 10 not present in database
Track 11 not present in database

None of the tracks are present in the AccurateRip database

End of status report

foobar2000 1.2.9 / Dynamic Range Meter 1.1.1
log date: 2014-11-08 14:46:41

––––––––––––––––––––––––––––––––––––––––
Analyzed: T. Rex / Electric Warrior
––––––––––––––––––––––––––––––––––––––––

DR Peak RMS Duration Track
––––––––––––––––––––––––––––––––––––––––
DR8 0.00 dB -8.88 dB 3:40 01-Mambo Sun
DR7 0.00 dB -9.23 dB 4:29 02-Cosmic Dancer
DR8 0.00 dB -8.91 dB 4:10 03-Jeepster
DR8 0.00 dB -9.35 dB 3:47 04-Monolith
DR8 0.00 dB -9.62 dB 3:01 05-Lean Woman Blues
DR7 0.00 dB -8.23 dB 4:25 06-Get It On
DR8 0.00 dB -8.90 dB 3:12 07-Planet Queen
DR9 0.00 dB -10.90 dB 2:31 08-Girl
DR9 0.00 dB -10.15 dB 3:59 09-The Motivator
DR8 0.00 dB -10.18 dB 2:24 10-Life's A Gas
DR7 0.00 dB -8.90 dB 3:42 11-Rip Off
––––––––––––––––––––––––––––––––––––––––

Number of tracks: 11
Official DR value: DR8

Samplerate: 44100 Hz
Channels: 2
Bits per sample: 16
Bitrate: 925 kbps
Codec: FLAC

foobar2000 1.2.9 / Dynamic Range Meter 1.1.1
log date: 2014-11-08 14:46:41

––––––––––––––––––––––––––––––––––––––––
Analyzed: T. Rex / Electric Warrior
––––––––––––––––––––––––––––––––––––––––

DR Peak RMS Duration Track
––––––––––––––––––––––––––––––––––––––––
DR8 0.00 dB -8.88 dB 3:40 01-Mambo Sun
DR7 0.00 dB -9.23 dB 4:29 02-Cosmic Dancer
DR8 0.00 dB -8.91 dB 4:10 03-Jeepster
DR8 0.00 dB -9.35 dB 3:47 04-Monolith
DR8 0.00 dB -9.62 dB 3:01 05-Lean Woman Blues
DR7 0.00 dB -8.23 dB 4:25 06-Get It On
DR8 0.00 dB -8.90 dB 3:12 07-Planet Queen
DR9 0.00 dB -10.90 dB 2:31 08-Girl
DR9 0.00 dB -10.15 dB 3:59 09-The Motivator
DR8 0.00 dB -10.18 dB 2:24 10-Life's A Gas
DR7 0.00 dB -8.90 dB 3:42 11-Rip Off
––––––––––––––––––––––––––––––––––––––––

Number of tracks: 11
Official DR value: DR8

Samplerate: 44100 Hz
Channels: 2
Bits per sample: 16
Bitrate: 925 kbps
Codec: FLAC

=============

T. Rex - The Albums Collection (2014) [10CD Box Set]

CD03: The Slider (1972)
EAC | Flac(Image) + Cue + Log & MP3 CBR 320Kbps
Edsel Records, EDSB 4015-3 | ~ 324 or 104 Mb
Rock / Glam / Psychedelic Rock

Buoyed by two U.K. number one singles in "Telegram Sam" and "Metal Guru," The Slider became T. Rex's most popular record on both sides of the Atlantic, despite the fact that it produced no hits in the U.S. The Slider essentially replicates all the virtues of Electric Warrior, crammed with effortless hooks and trashy fun. All of Bolan's signatures are here – mystical folk-tinged ballads, overt sexual come-ons crooned over sleazy, bopping boogies, loopy nonsense poetry, and a mastery of the three-minute pop song form. The main difference is that the trippy mix of Electric Warrior is replaced by a fuller, more immediate-sounding production. Bolan's guitar has a harder bite, the backing choruses are more up-front, and the arrangements are thicker-sounding, even introducing a string section on some cuts (both ballads and rockers). Even with the beefier production, T. Rex still doesn't sound nearly as heavy as many of the bands it influenced (and even a few of its glam contemporaries), but that's partly intentional – Bolan's love of a good groove takes precedence over fast tempos or high-volume crunch. Lyrically, Bolan's flair for the sublimely ridiculous is fully intact, but he has way too much style for The Slider to sound truly stupid, especially given the playful, knowing wink in his delivery. It's nearly impossible not to get caught up in the irresistible rush of melodies and cheery good times. Even if it treads largely the same ground as Electric Warrior, The Slider is flawlessly executed, and every bit the classic that its predecessor is.

by Steve Huey, AMG
Tracklist:

01 Metal Guru
02 Mystic Lady
03 Rock On
04 The Slider
05 Baby Boomerang
06 Spaceball Ricochet
07 Buick MacKane
08 Telegram Sam
09 Rabbit Fighter
10 Baby Strange
11 Ballrooms Of Mars
12 Chariot Choogle
13 Main Man

Exact Audio Copy V1.0 beta 3 from 29. August 2011

EAC extraction logfile from 7. November 2014, 10:25

T. Rex / The Slider

Used drive : PLEXTOR BD-R PX-B950SA Adapter: 6 ID: 0

Read mode : Secure
Utilize accurate stream : Yes
Defeat audio cache : Yes
Make use of C2 pointers : No

Read offset correction : 6
Overread into Lead-In and Lead-Out : No
Fill up missing offset samples with silence : Yes
Delete leading and trailing silent blocks : No
Null samples used in CRC calculations : Yes
Used interface : Native Win32 interface for Win NT & 2000

Used output format : Internal WAV Routines
Sample format : 44.100 Hz; 16 Bit; Stereo


TOC of the extracted CD

Track | Start | Length | Start sector | End sector
––––––––––––––––––––––––––––-
1 | 0:00.00 | 2:30.46 | 0 | 11295
2 | 2:30.46 | 3:14.36 | 11296 | 25881
3 | 5:45.07 | 3:26.53 | 25882 | 41384
4 | 9:11.60 | 3:23.37 | 41385 | 56646
5 | 12:35.22 | 2:17.01 | 56647 | 66922
6 | 14:52.23 | 3:36.62 | 66923 | 83184
7 | 18:29.10 | 3:32.68 | 83185 | 99152
8 | 22:02.03 | 3:46.22 | 99153 | 116124
9 | 25:48.25 | 3:56.53 | 116125 | 133877
10 | 29:45.03 | 3:06.60 | 133878 | 147887
11 | 32:51.63 | 4:08.34 | 147888 | 166521
12 | 37:00.22 | 2:45.58 | 166522 | 178954
13 | 39:46.05 | 4:16.29 | 178955 | 198183


Range status and errors

Selected range

Filename C:\Users\Meijin\Desktop\ALLexxess\T. Rex\2014 The Albums Collection (10CD Box Set Edsel Records)\1972 The Slider\T. Rex - The Slider.wav

Peak level 100.0 %
Extraction speed 7.2 X
Range quality 100.0 %
Test CRC 98A43033
Copy CRC 98A43033
Copy OK

No errors occurred


AccurateRip summary

Track 1 not present in database
Track 2 not present in database
Track 3 not present in database
Track 4 not present in database
Track 5 not present in database
Track 6 not present in database
Track 7 not present in database
Track 8 not present in database
Track 9 not present in database
Track 10 not present in database
Track 11 not present in database
Track 12 not present in database
Track 13 not present in database

None of the tracks are present in the AccurateRip database

End of status report

foobar2000 1.2.9 / Dynamic Range Meter 1.1.1
log date: 2014-11-08 14:47:06

––––––––––––––––––––––––––––––––––––––––
Analyzed: T. Rex / The Slider
––––––––––––––––––––––––––––––––––––––––

DR Peak RMS Duration Track
––––––––––––––––––––––––––––––––––––––––
DR7 -0.02 dB -8.48 dB 2:31 01-Metal Guru
DR10 0.00 dB -11.12 dB 3:14 02-Mystic Lady
DR9 0.00 dB -9.82 dB 3:27 03-Rock On
DR8 0.00 dB -9.66 dB 3:23 04-The Slider
DR9 0.00 dB -10.17 dB 2:17 05-Baby Boomerang
DR11 -0.13 dB -12.96 dB 3:37 06-Spaceball Richochet
DR7 -0.05 dB -8.17 dB 3:33 07-Buick Mackane
DR7 -0.09 dB -9.00 dB 3:46 08-Telegram Sam
DR9 -0.04 dB -10.69 dB 3:57 09-Rabbit Fighter
DR8 -0.01 dB -10.24 dB 3:07 10-Baby Strange
DR10 -0.03 dB -11.57 dB 4:08 11-Ballrooms Of Mars
DR7 -0.01 dB -8.59 dB 2:46 12-Chariot Choogle
DR10 -0.03 dB -11.32 dB 4:16 13-Main Man
––––––––––––––––––––––––––––––––––––––––

Number of tracks: 13
Official DR value: DR9

Samplerate: 44100 Hz
Channels: 2
Bits per sample: 16
Bitrate: 998 kbps
Codec: FLAC

[CUETools log; Date: 08.11.2014 14:51:14; Version: 2.1.4]
[CTDB TOCID: Zmtqf99MAuTw4bMif4hUrr.WDTc-] disk not present in database.
[AccurateRip ID: 00143bc7-00cd045f-ae0a520d] disk not present in database.

Track Peak [ CRC32 ] [W/O NULL] [ LOG ]
– 100,0 [98A43033] [99455921] CRC32
01 99,8 [41AB1B61] [1F49C5E7]
02 100,0 [47CEB972] [2551EF4D]
03 100,0 [F690F2D2] [CC309050]
04 100,0 [BA7B0880] [8C717A35]
05 100,0 [C322875A] [83D7684C]
06 98,5 [E7183561] [BE151615]
07 99,3 [E2A719BB] [57D23947]
08 98,9 [7B1ABC85] [767912AD]
09 99,5 [1D962DB3] [7BE6EBDF]
10 99,8 [D45D2931] [ADEFEF8D]
11 99,6 [E3893F23] [26601688]
12 99,9 [B3C2C490] [EFD6AF9A]
13 99,6 [BFFD1FE7] [6FD88771]

=============

T. Rex - The Albums Collection (2014) [10CD Box Set]

CD04: Tanx (1973)
EAC | Flac(Image) + Cue + Log & MP3 CBR 320Kbps
Edsel Records, EDSB 4015-4 | ~ 234 or 82 Mb
Rock / Glam / Psychedelic Rock

By 1973's Tanx, the T. Rex hit-making machine was beginning to show some wear and tear, but Marc Bolan still had more than a few winners up his sleeve. It was also admirable that Bolan was attempting to broaden the T. Rex sound – soulful backup singers and horns are heard throughout, a full two years before David Bowie used the same formula for his mega-seller Young Americans. However, Tanx did not contain any instantly recognizable hits, as their past couple of releases had, and the performances were not quite as vibrant, due to non-stop touring and drug use. Despite an era of transition looming on the horizon for the band, tracks such as "Rapids," "Highway Knees," "The Street & Babe Shadow," and "Born to Boogie" contain the expected classic T. Rex sound. The leadoff track, "Tenement Lady," is an interesting Beatlesque epic, while "Shock Rock" criticizes the early-'70s glam scene, which T. Rex played a prominent role in creating. Other highlights include one of Bolan's most gorgeous and heartfelt ballads, "Broken Hearted Blues," as well as the brief, explosive rocker "Country Honey." Tanx marked the close of what many consider T. Rex's golden era; unfortunately, the bandmembers would drift off one by one soon after, until Bolan was the only one remaining by the mid-'70s.

by Greg Prato, AMG
Tracklist:

01 Tenement Lady
02 Rapids
03 Mister Mister
04 Broken Hearted Blues
05 Shock Rock
06 Country Honey
07 Electric Slim And The Factory Hen
08 Mad Donna
09 Born To Boogie
10 Life Is Strange
11 The Street And Babe Shadow
12 Highway Knees
13 Left Hand Luke And The Beggar Boys

Exact Audio Copy V1.0 beta 3 from 29. August 2011

EAC extraction logfile from 7. November 2014, 8:48

T. Rex / Tanx

Used drive : PLEXTOR BD-R PX-B950SA Adapter: 6 ID: 0

Read mode : Secure
Utilize accurate stream : Yes
Defeat audio cache : Yes
Make use of C2 pointers : No

Read offset correction : 6
Overread into Lead-In and Lead-Out : No
Fill up missing offset samples with silence : Yes
Delete leading and trailing silent blocks : No
Null samples used in CRC calculations : Yes
Used interface : Native Win32 interface for Win NT & 2000

Used output format : Internal WAV Routines
Sample format : 44.100 Hz; 16 Bit; Stereo


TOC of the extracted CD

Track | Start | Length | Start sector | End sector
––––––––––––––––––––––––––––-
1 | 0:00.00 | 2:55.55 | 0 | 13179
2 | 2:55.55 | 2:49.00 | 13180 | 25854
3 | 5:44.55 | 3:30.12 | 25855 | 41616
4 | 9:14.67 | 2:03.00 | 41617 | 50841
5 | 11:17.67 | 1:43.38 | 50842 | 58604
6 | 13:01.30 | 1:47.42 | 58605 | 66671
7 | 14:48.72 | 3:04.35 | 66672 | 80506
8 | 17:53.32 | 2:16.54 | 80507 | 90760
9 | 20:10.11 | 2:04.26 | 90761 | 100086
10 | 22:14.37 | 2:30.27 | 100087 | 111363
11 | 24:44.64 | 2:18.02 | 111364 | 121715
12 | 27:02.66 | 2:34.35 | 121716 | 133300
13 | 29:37.26 | 5:18.47 | 133301 | 157197


Range status and errors

Selected range

Filename C:\Users\Meijin\Desktop\ALLexxess\T. Rex\2014 The Albums Collection (10CD Box Set Edsel Records)\1973 Tanx\T. Rex - Tanx.wav

Peak level 97.2 %
Extraction speed 6.8 X
Range quality 100.0 %
Test CRC 58140614
Copy CRC 58140614
Copy OK

No errors occurred


AccurateRip summary

Track 1 not present in database
Track 2 not present in database
Track 3 not present in database
Track 4 not present in database
Track 5 not present in database
Track 6 not present in database
Track 7 not present in database
Track 8 not present in database
Track 9 not present in database
Track 10 not present in database
Track 11 not present in database
Track 12 not present in database
Track 13 not present in database

None of the tracks are present in the AccurateRip database

End of status report

foobar2000 1.2.9 / Dynamic Range Meter 1.1.1
log date: 2014-11-08 14:47:33

––––––––––––––––––––––––––––––––––––––––
Analyzed: T. Rex / Tanx
––––––––––––––––––––––––––––––––––––––––

DR Peak RMS Duration Track
––––––––––––––––––––––––––––––––––––––––
DR5 -0.50 dB -6.99 dB 2:56 01-Tenement Lady
DR9 -0.27 dB -10.82 dB 2:49 02-Rapids
DR10 -0.27 dB -11.61 dB 3:30 03-Mister Mister
DR11 -1.10 dB -13.25 dB 2:03 04-Broken Hearted Blues
DR9 -0.31 dB -10.95 dB 1:44 05-Shock Rock
DR9 -0.36 dB -10.92 dB 1:48 06-Country Honey
DR10 -0.38 dB -12.66 dB 3:04 07-Electric Slim And The Factory Hen
DR8 -0.29 dB -9.80 dB 2:17 08-Mad Donna
DR10 -0.36 dB -11.41 dB 2:04 09-Born To Boogie
DR11 -0.34 dB -12.81 dB 2:30 10-Life Is Strange
DR10 -0.35 dB -11.75 dB 2:18 11-The Street And Babe Shadow
DR10 -0.24 dB -11.98 dB 2:34 12-Highway Knees
DR10 -0.35 dB -11.28 dB 5:19 13-Left Hand Luke And The Beggar Boys
––––––––––––––––––––––––––––––––––––––––

Number of tracks: 13
Official DR value: DR9

Samplerate: 44100 Hz
Channels: 2
Bits per sample: 16
Bitrate: 908 kbps
Codec: FLAC

[CUETools log; Date: 08.11.2014 14:51:29; Version: 2.1.4]
[CTDB TOCID: RREfvINVKZuIolH7J8MlNemhyP0-] disk not present in database.
[AccurateRip ID: 00100c39-009f0eba-bf082f0d] disk not present in database.

Track Peak [ CRC32 ] [W/O NULL] [ LOG ]
– 97,2 [58140614] [F14277F5] CRC32
01 94,4 [244F7860] [A78DBE78]
02 96,9 [EC9FE12C] [6B875CA7]
03 96,8 [6A721DB3] [0EF3927B]
04 88,1 [1682ADD8] [5226E9D2]
05 96,5 [8963B183] [987A28CD]
06 95,9 [84C06CE8] [952B53B4]
07 95,7 [F4379832] [A7833F16]
08 96,7 [901AEBF6] [D65A7964]
09 95,9 [8868D358] [A3C36714]
10 96,2 [F48954DC] [0A1BC169]
11 96,0 [56FD79B8] [F7E1093A]
12 97,2 [3E82CF73] [B37565B4]
13 96,0 [29EA69BF] [269039CA]

=============

T. Rex - The Albums Collection (2014) [10CD Box Set]

CD05: Zinc Alloy And The Hidden Riders Of Tomorrow (1974)
EAC | Flac(Image) + Cue + Log & MP3 CBR 320Kbps
Edsel Records, EDSB 4015-5 | ~ 331 or 109 Mb
Rock / Glam / Psychedelic Rock

By late 1973, Marc Bolan's star was waning fast. No longer gunning out those effortless classics which established him as the most important figure of the decade so far, he embarked instead on a voyage of musical discovery, which cast him so far adrift from the commercial pop mainstream that when his critics said he'd blown it, he didn't even bother answering them back. Or that's the way it appeared at the time, and today, too, it must be acknowledged that 1974's Zinc Alloy & the Hidden Riders of Tomorrow is not classic Bolan, even if one overlooks the transparency of its title. After all, hadn't Bowie already done the Fictional Someone & the Somethings from Somewhere routine? Indeed he had, as his fans kept remarking at the time, and when the knives began slashing Zinc Alloy to shreds, that was one of the fiercest wounds. Time, however, has healed almost all of them. Indeed, hindsight proves that, far from losing his muse, Bolan's biggest sin was losing his once-impeccable sense of occasion. The world wasn't ready for this latest T. Rex, and the fact that it wasn't interested in the old T. Rex either is just another object lesson in the fabled fickleness of pop fans. How faulty was Bolan's timing, though? As it transpired, he was out by no more than a year, maybe less than six months. The era of disco was coming, and with it the wholesale transformation of a wealth of rocking talents. But while David Bowie was barely dreaming of young Americans' fame, and Bryan Ferry was still road testing the pharmaceutical properties of l'amour, Bolan was up to his neck in American radio, pulling out an album which exceeded his assumed capabilities no less than it shot right over the heads of the kids who once bought all his hits. "The Groover," the spring 1973 single which many regarded as the first sign of Bolan's fall from grace, marked the birth of this new fascination, a simple but solid slab of funk-inflected rock which did, indeed, groove. (The track is one of five bonus tracks appended to the album's Edsel reissue). The yearning, heavily orchestrated hit "Teenage Dream" hit notwithstanding, the heart of Zinc Alloy, then, simply followed in "The Groover"'s footsteps, an abandoned romp through the R&B influences which Bolan had always acknowledged, but never truly explored – the solid James Brown drive of "The Avengers (Superbad)," "Interstellar Soul," "Liquid Gang," and the implausibly slight, but impressively groove-ridden "You've Got to Jive to Stay Alive." Into the same bag, one can also throw the period b-sides "Satisfaction Pony" and "Sitting Here" – both of which have also been added to the album. Deeply soul-soaked songs like these aren't simply a new direction. They are the very signposts which would soon be guiding so many other English rock talents down some very unfamiliar alleyways. Zinc Alloy was released in March, 1974. Bowie began rehearsing his Philly Dogs tour in July. Yet, even with such credentials to uphold it, this isn't quite Bolan's soul album. Those demons would be exorcised on a second record cut with singer Sister Pat Hall and elsewhere in his collaborations with girlfriend Gloria Jones. Besides, the production here was just a little too cautious to truly convince the wary listener. Neither can it be neatly categorized in the same fashion as, say, Bowie's Young Americans – Bolan looked across the spectrum for his influences, but he never once went to Philadelphia. Rather, it straddles that same pop/rock, funky R&B landscape as early Funkadelic, Sly Stone and Co., neither fish nor fowl, dead fish nor foul, but something somewhere in between. Approach it with caution. But get in there regardless.

by Dave Thompson, AMG
Tracklist:

01 Venus Loon
02 Sound Pit
03 Explosive Mouth
04 Galaxy
05 Change
06 Nameless Wildness
07 Teenage Dream
08 Liquid Gang
09 Carsmile Smith & The Old One
10 You Got To Jive To Stay Alive - Spanish Midnight
11 Interstellar Soul
12 Painless Persuasion v. The Meathawk Immaculate
13 The Avengers (Superbad)
14 The Leopards Featuring Gardenia & The Mighty Slug

Exact Audio Copy V1.0 beta 3 from 29. August 2011

EAC extraction logfile from 6. November 2014, 21:07

T. Rex / Zinc Allyoy

Used drive : PLEXTOR BD-R PX-B950SA Adapter: 6 ID: 0

Read mode : Secure
Utilize accurate stream : Yes
Defeat audio cache : Yes
Make use of C2 pointers : No

Read offset correction : 6
Overread into Lead-In and Lead-Out : No
Fill up missing offset samples with silence : Yes
Delete leading and trailing silent blocks : No
Null samples used in CRC calculations : Yes
Used interface : Native Win32 interface for Win NT & 2000

Used output format : Internal WAV Routines
Sample format : 44.100 Hz; 16 Bit; Stereo


TOC of the extracted CD

Track | Start | Length | Start sector | End sector
––––––––––––––––––––––––––––-
1 | 0:00.00 | 3:02.39 | 0 | 13688
2 | 3:02.39 | 2:51.14 | 13689 | 26527
3 | 5:53.53 | 2:26.69 | 26528 | 37546
4 | 8:20.47 | 1:49.55 | 37547 | 45776
5 | 10:10.27 | 2:49.47 | 45777 | 58498
6 | 12:59.74 | 3:06.44 | 58499 | 72492
7 | 16:06.43 | 5:48.41 | 72493 | 98633
8 | 21:55.09 | 3:19.03 | 98634 | 113561
9 | 25:14.12 | 3:17.03 | 113562 | 128339
10 | 28:31.15 | 2:37.67 | 128340 | 140181
11 | 31:09.07 | 3:27.49 | 140182 | 155755
12 | 34:36.56 | 3:28.27 | 155756 | 171382
13 | 38:05.08 | 4:31.32 | 171383 | 191739
14 | 42:36.40 | 3:40.05 | 191740 | 208244


Range status and errors

Selected range

Filename C:\Users\Meijin\Desktop\ALLexxess\T. Rex\2014 The Albums Collection (10CD Box Set Edsel Records)\1974 Zinc Alloy\T. Rex - Zinc Allyoy.wav

Peak level 99.4 %
Extraction speed 7.3 X
Range quality 100.0 %
Test CRC 45456168
Copy CRC 45456168
Copy OK

No errors occurred


AccurateRip summary

Track 1 not present in database
Track 2 not present in database
Track 3 not present in database
Track 4 not present in database
Track 5 not present in database
Track 6 not present in database
Track 7 not present in database
Track 8 not present in database
Track 9 not present in database
Track 10 not present in database
Track 11 not present in database
Track 12 not present in database
Track 13 not present in database
Track 14 not present in database

None of the tracks are present in the AccurateRip database

End of status report

foobar2000 1.2.9 / Dynamic Range Meter 1.1.1
log date: 2014-11-08 14:47:59

––––––––––––––––––––––––––––––––––––––––
Analyzed: T. Rex / Zinc Allyoy
––––––––––––––––––––––––––––––––––––––––

DR Peak RMS Duration Track
––––––––––––––––––––––––––––––––––––––––
DR10 -0.33 dB -10.88 dB 3:03 01-Venus Loon
DR9 -0.19 dB -10.82 dB 2:51 02-Sound Pit
DR11 -0.23 dB -13.04 dB 2:27 03-Explosive Mouth
DR10 -0.25 dB -11.85 dB 1:50 04-Galaxy
DR10 -0.09 dB -12.43 dB 2:50 05-Change
DR9 -0.05 dB -10.91 dB 3:07 06-Nameless Wilderness
DR9 -0.11 dB -10.77 dB 5:49 07-Teenage Dream
DR9 -0.18 dB -10.88 dB 3:19 08-Liquid Gang
DR10 -0.24 dB -11.70 dB 3:17 09-Carsmile Smith & The Old One
DR11 -0.10 dB -13.68 dB 2:38 10-You Got To Jive To Stay Alive - Spanish Midnight
DR10 -0.09 dB -11.31 dB 3:28 11-Interstellar Soul
DR10 -0.12 dB -11.40 dB 3:28 12-Painless Persuasion v. The Meathawk Immaculate
DR11 -0.20 dB -12.67 dB 4:31 13-The Avengers (Superbad)
DR10 -0.05 dB -12.11 dB 3:40 14-The Leopards Featuring Gardenia & The Mighty Slug
––––––––––––––––––––––––––––––––––––––––

Number of tracks: 14
Official DR value: DR10

Samplerate: 44100 Hz
Channels: 2
Bits per sample: 16
Bitrate: 968 kbps
Codec: FLAC

[CUETools log; Date: 08.11.2014 14:51:41; Version: 2.1.4]
[CTDB TOCID: q0HdJ8xvLjvzLOsFtpz7MhUmxjM-] disk not present in database.
[AccurateRip ID: 00165067-00f26713-c10ad80e] disk not present in database.

Track Peak [ CRC32 ] [W/O NULL] [ LOG ]
– 99,4 [45456168] [1E61B4FC] CRC32
01 96,2 [8C80F600] [FC45501D]
02 97,8 [DCC2EBBE] [52E69DB3]
03 97,4 [911B2773] [334A32F1]
04 97,1 [8A63B541] [CACF94B6]
05 98,9 [E56356B1] [CEED61E6]
06 99,4 [04570C1F] [C02E0F86]
07 98,7 [10564477] [A7E99586]
08 97,9 [D45B27DC] [80808C1F]
09 97,3 [CD902448] [B5AD82CC]
10 98,8 [1F937CF2] [32BEEAF6]
11 98,9 [CB485283] [2992BCB8]
12 98,6 [BD2A02F7] [9C5B6713]
13 97,7 [887A077C] [89E61A4E]
14 99,4 [B1933C74] [F5AF9D80]

=============

T. Rex - The Albums Collection (2014) [10CD Box Set]

CD06: Bolan's Zip Gun (1975)
EAC | Flac(Image) + Cue + Log & MP3 CBR 320Kbps
Edsel Records, EDSB 4015-6 | ~ 250 or 79 Mb
Rock / Glam / Psychedelic Rock

Having reinvented himself as a bionic soulboy across the course of 1974's Zinc Alloy, Bolan's Zip Gun was less a reiteration of Marc Bolan's new direction than a confirmation of it. Much of the album returns to the understated romp he had always excelled at – the delightful knockabout "Precious Star," the unrepentant boogie of "Till Dawn" and the pounding title track all echo with the effortless lightheartedness which was Bolan at his most carelessly buoyant, while "Token of My Love" is equally incandescent, a playful blues which swiftly became a major in-concert favorite. But the essence of Zip Gun remains firmly in the funky pastures which characterized Zinc Alloy, with the only significant difference lying in the presentation. Out went the plush production which so diluted the earlier set, to be replaced by a sparser sound which emphasized the rhythms, heightened the backing vocals, and left rock convention far behind. "Light of Love," "Golden Belt" and the heavyweight ballad "I Really Love You Babe" may not be Stax-sized attractions, but they have an earthy authenticity nevertheless, while bonus tracks on the Edsel remaster include single-only stabs at "Dock of the Bay" and "Do You Wanna Dance," further indications of just how seriously Bolan was taking his new role – and how far he'd moved from the bopping elf of three years earlier. The difference was, in 1972, Marc Bolan was a God. By 1975, he was barely even a minor deity. It was, of course, the old, old story. When he made records that sounded like the old ones, the kids all complained he'd stagnated and lost it. When he made records that didn't sound like them, then they moaned even louder that things just weren't the same. So he made ones that fell smack between the two poles, and that wasn't right either. And yet, played back to back alongside the "classics," there ain't much wrong with any of them. Whatever was the fuss all about, then? Decades on, each of Bolan's latter day albums retain a hint of their original controversy, but hindsight lends them an impact (and, for what it's worth, a credibility) which contemporary listeners could never have imagined. And Zip Gun, an album which scored the worst reviews of all, hits as hard as any of them.

by Dave Thompson, AMG
Tracklist:

01 Light Of Love
02 Solid Baby
03 Precious Star
04 Token Of My Love
05 Space Boss
06 Think Zinc
07 Till Dawn
08 Girl In The Thunderbolt Suit
09 I Really Love You Babe
10 Golden Belt
11 Zip Gun Boogie

Exact Audio Copy V1.0 beta 3 from 29. August 2011

EAC extraction logfile from 6. November 2014, 20:37

T. Rex / Bolan's Zip Gun

Used drive : PLEXTOR BD-R PX-B950SA Adapter: 6 ID: 0

Read mode : Secure
Utilize accurate stream : Yes
Defeat audio cache : Yes
Make use of C2 pointers : No

Read offset correction : 6
Overread into Lead-In and Lead-Out : No
Fill up missing offset samples with silence : Yes
Delete leading and trailing silent blocks : No
Null samples used in CRC calculations : Yes
Used interface : Native Win32 interface for Win NT & 2000

Used output format : Internal WAV Routines
Sample format : 44.100 Hz; 16 Bit; Stereo


TOC of the extracted CD

Track | Start | Length | Start sector | End sector
––––––––––––––––––––––––––––-
1 | 0:00.00 | 3:16.57 | 0 | 14756
2 | 3:16.57 | 2:37.40 | 14757 | 26571
3 | 5:54.22 | 2:53.02 | 26572 | 39548
4 | 8:47.24 | 3:40.15 | 39549 | 56063
5 | 12:27.39 | 2:49.44 | 56064 | 68782
6 | 15:17.08 | 3:25.39 | 68783 | 84196
7 | 18:42.47 | 3:02.37 | 84197 | 97883
8 | 21:45.09 | 2:20.63 | 97884 | 108446
9 | 24:05.72 | 3:33.53 | 108447 | 124474
10 | 27:39.50 | 2:41.39 | 124475 | 136588
11 | 30:21.14 | 3:21.59 | 136589 | 151722


Range status and errors

Selected range

Filename C:\Users\Meijin\Desktop\ALLexxess\T. Rex\2014 The Albums Collection (10CD Box Set Edsel Records)\1975 Bolan's Zip Gun\T. Rex - Bolan's Zip Gun.wav

Peak level 99.4 %
Extraction speed 6.8 X
Range quality 100.0 %
Test CRC 725D899C
Copy CRC 725D899C
Copy OK

No errors occurred


AccurateRip summary

Track 1 not present in database
Track 2 not present in database
Track 3 not present in database
Track 4 not present in database
Track 5 not present in database
Track 6 not present in database
Track 7 not present in database
Track 8 not present in database
Track 9 not present in database
Track 10 not present in database
Track 11 not present in database

None of the tracks are present in the AccurateRip database

End of status report

foobar2000 1.2.9 / Dynamic Range Meter 1.1.1
log date: 2014-11-08 14:48:28

––––––––––––––––––––––––––––––––––––––––
Analyzed: T. Rex / Bolan's Zip Gun
––––––––––––––––––––––––––––––––––––––––

DR Peak RMS Duration Track
––––––––––––––––––––––––––––––––––––––––
DR7 -0.05 dB -9.12 dB 3:17 01-Light Of Love
DR9 -0.05 dB -11.01 dB 2:38 02-Solid Baby
DR8 -0.05 dB -9.51 dB 2:53 03-Precious Star
DR8 -0.05 dB -9.97 dB 3:40 04-Token Of My Love
DR7 -0.05 dB -9.16 dB 2:50 05-Space Boss
DR10 -0.05 dB -11.23 dB 3:26 06-Think Zinc
DR8 -0.05 dB -10.17 dB 3:02 07-Till Dawn
DR9 -0.05 dB -9.97 dB 2:21 08-Girl In The Thunderbolt Suit
DR8 -0.05 dB -10.12 dB 3:34 09-I Really Love You Babe
DR9 -0.05 dB -10.37 dB 2:42 10-Golden Belt
DR9 -0.57 dB -10.71 dB 3:22 11-Zip Gun Boogie
––––––––––––––––––––––––––––––––––––––––

Number of tracks: 11
Official DR value: DR8

Samplerate: 44100 Hz
Channels: 2
Bits per sample: 16
Bitrate: 967 kbps
Codec: FLAC

[CUETools log; Date: 08.11.2014 14:51:52; Version: 2.1.4]
[CTDB TOCID: wRum81mIP_52riFXMmnmu6loXus-] disk not present in database.
[AccurateRip ID: 000ddef0-007830d8-9807e60b] disk not present in database.

Track Peak [ CRC32 ] [W/O NULL] [ LOG ]
– 99,4 [725D899C] [1FD36C54] CRC32
01 99,4 [5314BEF4] [F563FD1A]
02 99,4 [C440197C] [20F406D8]
03 99,4 [632E833F] [75C8C71F]
04 99,4 [5F2846D9] [5CEB4104]
05 99,4 [39C3ADEE] [F9AE7B76]
06 99,4 [FC3ACFEF] [8E085FEE]
07 99,4 [21EFDD43] [288585C7]
08 99,4 [7246EFA4] [A8CECC06]
09 99,4 [9F04F6A3] [2BA4F8FE]
10 99,4 [90AE217C] [EC4515C8]
11 93,6 [F60FDBA9] [29D6FF71]

=============

T. Rex - The Albums Collection (2014) [10CD Box Set]

CD07: Futuristic Dragon (1976)
EAC | Flac(Image) + Cue + Log & MP3 CBR 320Kbps
Edsel Records, EDSB 4015-7 | ~ 318 or 95 Mb
Rock / Glam / Psychedelic Rock

The most blatantly, and brilliantly, portentous of Marc Bolan's albums since the transitional blurring of boundaries that was Beard of Stars, almost seven years prior, Futuristic Dragon opens on a wave of unrelenting feedback, guitars and bombast, setting an apocalyptic mood for the record which persists long after that brief (two minutes) overture is over. Indeed, even the quintessential bop of the succeeding "Jupiter Liar" is irrevocably flavored by what came before, dirty guitars churning beneath a classic Bolan melody, and the lyrics a spiteful masterpiece. While the oddly Barry White-influenced "Ride My Wheels" continues flirting with the neo-funk basics of 1975's Bolan's Zip Gun, the widescreen sonic majesty of Futuristic Dragon was, if anything, even more gratuitously ambitious than its predecessor. "Calling All Destroyers," "Sensation Boulevard" and the magnificent "Dawn Storm" all bristle with lyrical splendor, while "Casual Agent" revisits some older glories with its near-slavish re-creation of the old "Rip Off" vibe. But if the other tunes pursue Bolan's new-found fascination for pomp over pop with barely disguised glee, he wasn't above slipping the odd joke into the brew to remind us that he knew what he was doing. "Theme for a Dragon" is an all-but Wagnerian symphonic instrumental – with the sound of screaming teenyboppers as its backdrop, and the punch line lurking further afield among the handful of obvious hits which he also stirred in. The first of these, the big-budget ballad "Dreamy Lady," scored even before the rest of the album was complete. It was followed by the idiotically contagious "New York City," a piece of pure pop nonsense/genius which so effortlessly returned him to the British Top 20 that, for a few weeks through mid-1976, the idea of seeing "a woman coming out of New York City with a frog in her hand" really didn't seem as silly as it sounded. And when he followed that up with the rhythm'n'punk swagger of "I Love to Boogie," few people would deny that Bolan was on the way back up. That particular gem would be featured on his next album, 1977's Dandy in the Underworld; the Edsel remaster of Futuristic Dragon does, however, wrap up three further cuts from the era, the single sides "Laser Love," the languid "Life's an Elevator" and, best of all, "London Boys," a piece of undisguised childhood nostalgia which was allegedly written about David Bowie, one of Bolan's teenaged running mates. The song, incidentally, was drawn from a proposed concept album, ambitiously titled "London Opera" (one of two Bolan was then considering, the other was the sci-fi themed Billy Super Duper). The project was never completed, however – for something else was stirring in the capital's bowels, that snarling monster which emerged as punk. And the moment Bolan saw it, he knew precisely what it represented. He began work on a new album right away.

by Dave Thompson, AMG
Tracklist:

01 Futuristic Dragon (Introduction)
02 Jupiter Liar
03 Chrome Sitar
04 All Alone
05 New York City
06 My Little Baby
07 Calling All Destroyers
08 Theme For A Dragon (Instrumental)
09 Sensation Boulevard
10 Ride My Wheels
11 Dreamy Lady
12 Dawn Storm
13 Casual Agent

Exact Audio Copy V1.0 beta 3 from 29. August 2011

EAC extraction logfile from 6. November 2014, 20:16

T. Rex / Futuristic Dragon

Used drive : PLEXTOR BD-R PX-B950SA Adapter: 6 ID: 0

Read mode : Secure
Utilize accurate stream : Yes
Defeat audio cache : Yes
Make use of C2 pointers : No

Read offset correction : 6
Overread into Lead-In and Lead-Out : No
Fill up missing offset samples with silence : Yes
Delete leading and trailing silent blocks : No
Null samples used in CRC calculations : Yes
Used interface : Native Win32 interface for Win NT & 2000

Used output format : Internal WAV Routines
Sample format : 44.100 Hz; 16 Bit; Stereo


TOC of the extracted CD

Track | Start | Length | Start sector | End sector
––––––––––––––––––––––––––––-
1 | 0:00.00 | 1:52.32 | 0 | 8431
2 | 1:52.32 | 3:42.63 | 8432 | 25144
3 | 5:35.20 | 3:14.36 | 25145 | 39730
4 | 8:49.56 | 2:50.11 | 39731 | 52491
5 | 11:39.67 | 3:57.73 | 52492 | 70339
6 | 15:37.65 | 3:08.52 | 70340 | 84491
7 | 18:46.42 | 3:55.24 | 84492 | 102140
8 | 22:41.66 | 2:00.54 | 102141 | 111194
9 | 24:42.45 | 3:48.73 | 111195 | 128367
10 | 28:31.43 | 2:28.03 | 128368 | 139470
11 | 30:59.46 | 2:54.01 | 139471 | 152521
12 | 33:53.47 | 3:43.29 | 152522 | 169275
13 | 37:37.01 | 2:55.70 | 169276 | 182470


Range status and errors

Selected range

Filename C:\Users\Meijin\Desktop\ALLexxess\T. Rex\2014 The Albums Collection (10CD Box Set Edsel Records)\1976 Futuristic Dragon\T. Rex - Futuristic Dragon.wav

Peak level 99.4 %
Extraction speed 7.1 X
Range quality 100.0 %
Test CRC AC38C3AF
Copy CRC AC38C3AF
Copy OK

No errors occurred


AccurateRip summary

Track 1 not present in database
Track 2 not present in database
Track 3 not present in database
Track 4 not present in database
Track 5 not present in database
Track 6 not present in database
Track 7 not present in database
Track 8 not present in database
Track 9 not present in database
Track 10 not present in database
Track 11 not present in database
Track 12 not present in database
Track 13 not present in database

None of the tracks are present in the AccurateRip database

End of status report

foobar2000 1.2.9 / Dynamic Range Meter 1.1.1
log date: 2014-11-08 14:48:53

––––––––––––––––––––––––––––––––––––––––
Analyzed: T. Rex / Futuristic Dragon
––––––––––––––––––––––––––––––––––––––––

DR Peak RMS Duration Track
––––––––––––––––––––––––––––––––––––––––
DR7 -0.05 dB -9.66 dB 1:52 01-Futuristic Dragon (Intro)
DR6 -0.05 dB -8.01 dB 3:43 02-Jupiter Liar
DR6 -0.05 dB -7.14 dB 3:14 03-Chrome Sitar
DR6 -0.05 dB -7.23 dB 2:50 04-All Alone
DR5 -0.05 dB -7.01 dB 3:58 05-New York City
DR7 -0.05 dB -7.92 dB 3:09 06-My Little Baby
DR6 -0.05 dB -7.50 dB 3:55 07-Calling All Destroyers
DR7 -0.05 dB -8.21 dB 2:01 08-Theme For A Dragon
DR7 -0.05 dB -8.88 dB 3:49 09-Sensation Boulevard
DR7 -0.05 dB -8.92 dB 2:28 10-Ride My Wheels
DR6 -0.05 dB -8.31 dB 2:54 11-Dreamy Lady
DR7 -0.05 dB -9.10 dB 3:43 12-Dawn Storm
DR8 -0.05 dB -9.02 dB 2:56 13-Casual Agent
––––––––––––––––––––––––––––––––––––––––

Number of tracks: 13
Official DR value: DR6

Samplerate: 44100 Hz
Channels: 2
Bits per sample: 16
Bitrate: 1063 kbps
Codec: FLAC

[CUETools log; Date: 08.11.2014 14:52:01; Version: 2.1.4]
[CTDB TOCID: xOAtlYuTxkwXqmPVe9LK_bPHuN0-] disk not present in database.
[AccurateRip ID: 0013519c-00c28646-9d09800d] disk not present in database.

Track Peak [ CRC32 ] [W/O NULL] [ LOG ]
– 99,4 [AC38C3AF] [8C6AC760] CRC32
01 99,4 [9F7986F4] [66C8FFB9]
02 99,4 [7C7D74AF] [384E512E]
03 99,4 [C188E4D0] [A7316CDF]
04 99,4 [98A1ED88] [C1CB9FA0]
05 99,4 [358E68AB] [FD96C8DA]
06 99,4 [18D3F23B] [4D32F330]
07 99,4 [E9C84935] [2933CD83]
08 99,4 [132C16D8] [76A619D9]
09 99,4 [D465EAA9] [C3AD3C26]
10 99,4 [95689947] [4081C5D1]
11 99,4 [453814B1] [A4C108F6]
12 99,4 [1E406B8C] [FD5CB639]
13 99,4 [10651B3B] [F4F25ADD]

=============

T. Rex - The Albums Collection (2014) [10CD Box Set]

CD08: Dandy In The Underworld (1977)
EAC | Flac(Image) + Cue + Log & MP3 CBR 320Kbps
Edsel Records, EDSB 4015-8 | ~ 262 or 89 Mb
Rock / Glam / Psychedelic Rock

Marc Bolan welcomed the advent of punk rock with the biggest smile he'd worn in years. The hippest young gunslingers could go on all night about the influence of the Velvet Underground, the Stooges, and the Ramones, but Bolan knew – and subsequent developments proved – that every single one of them had been nurtured in his arms, growing up with the ineffable stream of brilliant singles he slammed out between 1970-1972, and rehearsing their own stardom to the soundtrack he supplied. With tennis racquet guitars and hairbrushes for mikes, they stood before the mirror and practiced the Bolan Boogie. Of course, most punks only knew three chords. That was all Marc ever taught them. Dandy in the Underworld, released early in 1977, confirmed Bolan's punkoid preeminence. Still retaining its predecessors' demented soul revue edge (most successfully via the yearning "Soul of My Suit") but packed solid with powerful pop (the previous summer's hit "I Love to Boogie" included), Bolan's personal predictions for the punk scene literally exploded out of the grooves. The title track and the churning "Visions of Domino" all bristle with revitalized energy, while "Jason B. Sad" cheekily medleys Bolan's own "Bang a Gong" and "Telegram Sam" melodies into a dead-end drama utterly in keeping with the new wave's own belief that the future was futile. By the time the album wraps up with the rock'n'armageddon-flavored "Teen Riot Structure," Bolan was not simply wearing the mantel of punk godfatherhood, he was happily sticking safety pins through it and preparing his next move, the driving "Celebrate Summer" single – absent from the original album, but included now as one of five bonus tracks appended to the Edsel remaster. Riding in on buzzsaw guitar and thundering bass, it packed a killer chorus and an uplfting message ("Hey little punk, forget that junk and celebrate summer with me") and it really was the greatest record he'd made in years. It was also his last – a month after its release, Marc Bolan was dead. Sorrow immediately imbibed Dandy in the Underworld with a dignity that, had Bolan lived, it probably wouldn't have otherwise deserved – it is not, overall, one of his strongest albums, and the demos and outtakes included on the later volumes of the Unchained series suggest that his proposed next album would have left it far behind. But conjecture, like hindsight, can be a dangerous gauge. At the time, Dandy not only seemed bloated with promise, it was pregnant with foreboding as well. Listen again to the lyrics of the title track – self-mythologizing autobiography and not a happy ending in sight. Just like real life.

by Dave Thompson, AMG
Tracklist:

01 Dandy In The Underworld
02 Crimson Moon
03 Universe
04 I’m A Fool To Love You Girl
05 I Love To Boogie
06 Visions Of Domino
07 Jason B. Sad
08 Groove A Little
09 The Soul Of My Suit
10 Hang-Ups
11 Pain And Love
12 Teen Riot Structure

Exact Audio Copy V1.0 beta 3 from 29. August 2011

EAC extraction logfile from 6. November 2014, 19:51

T. Rex / Dandy In The Underworld

Used drive : PLEXTOR BD-R PX-B950SA Adapter: 6 ID: 0

Read mode : Secure
Utilize accurate stream : Yes
Defeat audio cache : Yes
Make use of C2 pointers : No

Read offset correction : 6
Overread into Lead-In and Lead-Out : No
Fill up missing offset samples with silence : Yes
Delete leading and trailing silent blocks : No
Null samples used in CRC calculations : Yes
Used interface : Native Win32 interface for Win NT & 2000

Used output format : Internal WAV Routines
Sample format : 44.100 Hz; 16 Bit; Stereo


TOC of the extracted CD

Track | Start | Length | Start sector | End sector
––––––––––––––––––––––––––––-
1 | 0:00.00 | 4:36.08 | 0 | 20707
2 | 4:36.08 | 3:24.70 | 20708 | 36077
3 | 8:01.03 | 2:45.03 | 36078 | 48455
4 | 10:46.06 | 2:18.65 | 48456 | 58870
5 | 13:04.71 | 2:15.55 | 58871 | 69050
6 | 15:20.51 | 2:26.62 | 69051 | 80062
7 | 17:47.38 | 3:23.66 | 80063 | 95353
8 | 21:11.29 | 3:25.65 | 95354 | 110793
9 | 24:37.19 | 2:37.48 | 110794 | 122616
10 | 27:14.67 | 3:29.49 | 122617 | 138340
11 | 30:44.41 | 3:41.39 | 138341 | 154954
12 | 34:26.05 | 3:36.25 | 154955 | 171179


Range status and errors

Selected range

Filename C:\Users\Meijin\Desktop\ALLexxess\T. Rex\2014 The Albums Collection (10CD Box Set Edsel Records)\1977 Dandy In The Underworld\T. Rex - Dandy In The Underworld.wav

Peak level 99.4 %
Extraction speed 7.0 X
Range quality 100.0 %
Test CRC 72EDE1EF
Copy CRC 72EDE1EF
Copy OK

No errors occurred


AccurateRip summary

Track 1 not present in database
Track 2 not present in database
Track 3 not present in database
Track 4 not present in database
Track 5 not present in database
Track 6 not present in database
Track 7 not present in database
Track 8 not present in database
Track 9 not present in database
Track 10 not present in database
Track 11 not present in database
Track 12 not present in database

None of the tracks are present in the AccurateRip database

End of status report

foobar2000 1.2.9 / Dynamic Range Meter 1.1.1
log date: 2014-11-08 14:49:20

––––––––––––––––––––––––––––––––––––––––
Analyzed: T. Rex / Dandy In The Underworld
––––––––––––––––––––––––––––––––––––––––

DR Peak RMS Duration Track
––––––––––––––––––––––––––––––––––––––––
DR13 -0.05 dB -15.08 dB 4:36 01-Dandy In The Underworld
DR13 -0.05 dB -14.71 dB 3:25 02-Crimson Moon
DR12 -0.05 dB -14.50 dB 2:45 03-Universe
DR11 -0.05 dB -12.66 dB 2:19 04-I'm A Fool For You Girl
DR13 -0.05 dB -14.30 dB 2:16 05-I Love To Boogie
DR10 -0.52 dB -12.13 dB 2:27 06-Visions Of Domino
DR11 -0.47 dB -12.47 dB 3:24 07-Jason B. Sad
DR12 -0.05 dB -13.71 dB 3:26 08-Groove A Little
DR12 -0.05 dB -13.66 dB 2:38 09-The Soul Of My Suit
DR12 -0.05 dB -13.65 dB 3:30 10-Hang-Ups
DR14 -0.05 dB -14.95 dB 3:42 11-Pain And Love
DR13 -0.05 dB -13.93 dB 3:36 12-Teen Riot Structure
––––––––––––––––––––––––––––––––––––––––

Number of tracks: 12
Official DR value: DR12

Samplerate: 44100 Hz
Channels: 2
Bits per sample: 16
Bitrate: 933 kbps
Codec: FLAC

[CUETools log; Date: 08.11.2014 14:52:08; Version: 2.1.4]
[CTDB TOCID: oNHZ3.ktKGl.Cltlb_bnCfYqE7I-] disk not present in database.
[AccurateRip ID: 0010e224-009bb85c-bb08ea0c] disk not present in database.

Track Peak [ CRC32 ] [W/O NULL] [ LOG ]
– 99,4 [72EDE1EF] [5E4727E0] CRC32
01 99,4 [CCCBFC73] [8DCF483F]
02 99,4 [FBA77AF7] [BA2DB22C]
03 99,4 [CFDC7528] [916728DC]
04 99,4 [4DAABB1E] [E98E5F20]
05 99,4 [52EC8E46] [6846999F]
06 94,1 [2F1CC0D3] [134C0D0C]
07 94,6 [4A871C68] [FA396DCF]
08 99,4 [3DD19FD4] [776864F8]
09 99,4 [16862A61] [063485FB]
10 99,4 [EBCD7F6F] [FD16E4C7]
11 99,4 [3255DFBC] [92D5F030]
12 99,4 [818D68C5] [AC237ADD]

=============

T. Rex - The Albums Collection (2014) [10CD Box Set]

CD09: Bonus Disc 1 (2014)
EAC | Flac(Image) + Cue + Log & MP3 CBR 320Kbps
Edsel Records, EDSB 4015-9 | ~ 282 or 102 Mb
Rock / Glam / Psychedelic Rock

Tracklist:

01 Cadilac
02 Thunderwing
03 Lady
04 Children Of The Revolution
05 Jitterbug Love
06 Sunken Rags
07 Solid Gold Easy Action
08 Xmas Riff
09 20th Century Boy
10 Free Angel
11 The Groover
12 Midnight
13 Truck On (Tyke)
14 Sitting Here
15 Satisfaction Pony

Exact Audio Copy V1.0 beta 3 from 29. August 2011

EAC extraction logfile from 6. November 2014, 19:28

T. Rex / Bonus Disc 1

Used drive : PLEXTOR BD-R PX-B950SA Adapter: 6 ID: 0

Read mode : Secure
Utilize accurate stream : Yes
Defeat audio cache : Yes
Make use of C2 pointers : No

Read offset correction : 6
Overread into Lead-In and Lead-Out : No
Fill up missing offset samples with silence : Yes
Delete leading and trailing silent blocks : No
Null samples used in CRC calculations : Yes
Used interface : Native Win32 interface for Win NT & 2000

Used output format : Internal WAV Routines
Sample format : 44.100 Hz; 16 Bit; Stereo


TOC of the extracted CD

Track | Start | Length | Start sector | End sector
––––––––––––––––––––––––––––-
1 | 0:00.00 | 3:54.44 | 0 | 17593
2 | 3:54.44 | 3:47.19 | 17594 | 34637
3 | 7:41.63 | 2:13.10 | 34638 | 44622
4 | 9:54.73 | 2:30.15 | 44623 | 55887
5 | 12:25.13 | 2:57.47 | 55888 | 69209
6 | 15:22.60 | 2:54.15 | 69210 | 82274
7 | 18:17.00 | 2:22.37 | 82275 | 92961
8 | 20:39.37 | 0:12.03 | 92962 | 93864
9 | 20:51.40 | 3:41.08 | 93865 | 110447
10 | 24:32.48 | 2:14.74 | 110448 | 120571
11 | 26:47.47 | 3:23.74 | 120572 | 135870
12 | 30:11.46 | 2:49.01 | 135871 | 148546
13 | 33:00.47 | 3:08.70 | 148547 | 162716
14 | 36:09.42 | 2:21.27 | 162717 | 173318
15 | 38:30.69 | 2:49.08 | 173319 | 186001


Range status and errors

Selected range

Filename C:\Users\Meijin\Desktop\ALLexxess\T. Rex\2014 The Albums Collection (10CD Box Set Edsel Records)\2014 Bonus Disc 1\T. Rex - Bonus Disc 1.wav

Peak level 99.4 %
Extraction speed 7.0 X
Range quality 99.9 %
Test CRC EEC918E4
Copy CRC EEC918E4
Copy OK

No errors occurred


AccurateRip summary

Track 1 not present in database
Track 2 not present in database
Track 3 not present in database
Track 4 not present in database
Track 5 not present in database
Track 6 not present in database
Track 7 not present in database
Track 8 not present in database
Track 9 not present in database
Track 10 not present in database
Track 11 not present in database
Track 12 not present in database
Track 13 not present in database
Track 14 not present in database
Track 15 not present in database

None of the tracks are present in the AccurateRip database

End of status report

foobar2000 1.2.9 / Dynamic Range Meter 1.1.1
log date: 2014-11-08 14:49:47

––––––––––––––––––––––––––––––––––––––––
Analyzed: T. Rex / Bonus Disc 1
––––––––––––––––––––––––––––––––––––––––

DR Peak RMS Duration Track
––––––––––––––––––––––––––––––––––––––––
DR8 -0.05 dB -9.63 dB 3:55 01-Cadilac
DR9 -0.05 dB -10.37 dB 3:47 02-Thunderwing
DR10 -0.05 dB -10.99 dB 2:13 03-Lady
DR10 -0.30 dB -12.08 dB 2:30 04-Children Of The Revolution
DR10 -0.05 dB -11.68 dB 2:58 05-Jitterbug Love
DR9 -0.25 dB -10.38 dB 2:54 06-Sunken Rags
DR9 -0.05 dB -11.34 dB 2:22 07-Solid Gold Easy Action
DR12 -5.40 dB -19.57 dB 0:12 08-Xmas Riff
DR8 -0.31 dB -9.65 dB 3:41 09-20th Century Boy
DR9 -0.10 dB -10.93 dB 2:15 10-Free Angel
DR9 -0.78 dB -10.43 dB 3:24 11-The Groover
DR9 -0.33 dB -10.95 dB 2:49 12-Midnight
DR11 -0.42 dB -12.07 dB 3:09 13-Truck On (Tyke)
DR9 -0.57 dB -11.89 dB 2:21 14-Sitting Here
DR8 -0.25 dB -9.86 dB 2:49 15-Satisfaction Pony
––––––––––––––––––––––––––––––––––––––––

Number of tracks: 15
Official DR value: DR9

Samplerate: 44100 Hz
Channels: 2
Bits per sample: 16
Bitrate: 923 kbps
Codec: FLAC

[CUETools log; Date: 08.11.2014 14:52:16; Version: 2.1.4]
[CTDB TOCID: 9MTzF1hCwPtTmNb0GZcqceL8f60-] disk not present in database.
[AccurateRip ID: 001752d3-0103bfab-c909b00f] disk not present in database.

Track Peak [ CRC32 ] [W/O NULL] [ LOG ]
– 99,4 [EEC918E4] [59F29739] CRC32
01 99,4 [A570C480] [AEE608B4]
02 99,4 [8BD5465F] [3A1B6C2F]
03 99,4 [39B04270] [D43152C8]
04 96,6 [BE7633F4] [10DC5594]
05 99,4 [4E28E4E6] [F02664F3]
06 97,1 [D91526FE] [28A57E65]
07 99,4 [61816DDE] [4B0529E2]
08 53,6 [2681C97A] [98CB09E8]
09 96,5 [2162088A] [AE7F35B5]
10 98,8 [C12B2F21] [5A30CD88]
11 91,3 [ED9DE440] [F0048039]
12 96,3 [1B65F0BC] [42FCDB5C]
13 95,3 [F31BC7FB] [155D542A]
14 93,6 [E79F4934] [98F431CA]
15 97,1 [B25170DA] [48F5507D]

=============

T. Rex - The Albums Collection (2014) [10CD Box Set]

CD10: Bonus Disc 2 (2014)
EAC | Flac(Image) + Cue + Log & MP3 CBR 320Kbps
Edsel Records, EDSB 4015- | ~ or Mb
Rock / Glam / Psychedelic Rock

Tracklist:

01 Blackjack (by Big Garrot)
02 Squint Eye Mangle (by Big Garrot)
03 Do You Wanna Dance?
04 Dock Of The Bay
05 London Boys
06 Laser Love
07 Life’s An Elevator
08 To Know You Is To Love You (To Know Him Is To Love Him) (by Marc Bolan & Gloria Jones)
09 City Port (by Marc Bolan & Gloria Jones)
10 Dandy In The Underworld (Single Version)
11 Tame My Tiger
12 Celebrate Summer

Exact Audio Copy V1.0 beta 3 from 29. August 2011

EAC extraction logfile from 6. November 2014, 19:02

T. Rex / Bonus Disc 2

Used drive : PLEXTOR BD-R PX-B950SA Adapter: 6 ID: 0

Read mode : Secure
Utilize accurate stream : Yes
Defeat audio cache : Yes
Make use of C2 pointers : No

Read offset correction : 6
Overread into Lead-In and Lead-Out : No
Fill up missing offset samples with silence : Yes
Delete leading and trailing silent blocks : No
Null samples used in CRC calculations : Yes
Used interface : Native Win32 interface for Win NT & 2000

Used output format : Internal WAV Routines
Sample format : 44.100 Hz; 16 Bit; Stereo


TOC of the extracted CD

Track | Start | Length | Start sector | End sector
––––––––––––––––––––––––––––-
1 | 0:00.00 | 3:08.11 | 0 | 14110
2 | 3:08.11 | 3:22.62 | 14111 | 29322
3 | 6:30.73 | 2:15.65 | 29323 | 39512
4 | 8:46.63 | 2:22.46 | 39513 | 50208
5 | 11:09.34 | 2:22.08 | 50209 | 60866
6 | 13:31.42 | 3:38.09 | 60867 | 77225
7 | 17:09.51 | 2:26.12 | 77226 | 88187
8 | 19:35.63 | 2:45.74 | 88188 | 100636
9 | 22:21.62 | 2:43.56 | 100637 | 112917
10 | 25:05.43 | 3:52.10 | 112918 | 130327
11 | 28:57.53 | 2:32.38 | 130328 | 141765
12 | 31:30.16 | 2:38.63 | 141766 | 153678


Range status and errors

Selected range

Filename C:\Users\Meijin\Desktop\ALLexxess\T. Rex\2014 The Albums Collection (10CD Box Set Edsel Records)\2014 Bonus Disc 2\T. Rex - Bonus Disc 2.wav

Peak level 99.4 %
Extraction speed 6.8 X
Range quality 100.0 %
Test CRC ED677277
Copy CRC ED677277
Copy OK

No errors occurred


AccurateRip summary

Track 1 not present in database
Track 2 not present in database
Track 3 not present in database
Track 4 not present in database
Track 5 not present in database
Track 6 not present in database
Track 7 not present in database
Track 8 not present in database
Track 9 not present in database
Track 10 not present in database
Track 11 not present in database
Track 12 not present in database

None of the tracks are present in the AccurateRip database

End of status report

foobar2000 1.2.9 / Dynamic Range Meter 1.1.1
log date: 2014-11-08 14:50:15

––––––––––––––––––––––––––––––––––––––––
Analyzed: T. Rex / Bonus Disc 2
––––––––––––––––––––––––––––––––––––––––

DR Peak RMS Duration Track
––––––––––––––––––––––––––––––––––––––––
DR8 -0.91 dB -10.93 dB 3:08 01-Blackjack (by Big Garrot)
DR9 -0.05 dB -10.34 dB 3:23 02-Squint Eye Mangle (by Big Garrot)
DR9 -0.05 dB -10.63 dB 2:16 03-Do You Wanna Dance?
DR8 -0.05 dB -10.43 dB 2:23 04-Dock Of The Bay
DR7 -0.81 dB -9.04 dB 2:22 05-London Boys
DR8 -1.01 dB -10.88 dB 3:38 06-Laser Love
DR8 -1.01 dB -10.50 dB 2:26 07-Life’s An Elevator
DR10 -0.05 dB -10.91 dB 2:46 08-To Know You Is To Love You (To Know Him Is To Love Him) (by Marc Bolan & Glor…
DR11 -0.05 dB -12.51 dB 2:44 09-City Port (by Marc Bolan & Gloria Jones)
DR10 -0.05 dB -11.41 dB 3:52 10-Dandy In The Underworld (Single Version)
DR10 -0.05 dB -11.34 dB 2:33 11-Tame My Tiger
DR10 -0.05 dB -11.21 dB 2:39 12-Celebrate Summer
––––––––––––––––––––––––––––––––––––––––

Number of tracks: 12
Official DR value: DR9

Samplerate: 44100 Hz
Channels: 2
Bits per sample: 16
Bitrate: 966 kbps
Codec: FLAC

[CUETools log; Date: 08.11.2014 14:52:24; Version: 2.1.4]
[CTDB TOCID: YmJQw60YimiOTwBrQJVPRgZYsg4-] disk not present in database.
[AccurateRip ID: 000f3d6d-008df835-9808010c] disk not present in database.

Track Peak [ CRC32 ] [W/O NULL] [ LOG ]
– 99,4 [ED677277] [50F38EB3] CRC32
01 90,0 [B14F159B] [B1C78F0E]
02 99,4 [6B899419] [A2AA92DD]
03 99,4 [978FA29A] [75D3656D]
04 99,4 [768E476F] [21685A40]
05 91,1 [D6AC052A] [E8B09AFD]
06 89,0 [4806B89B] [7860816D]
07 89,0 [E7A42B85] [99C6DE5E]
08 99,4 [2E9AE54C] [A83CBC7A]
09 99,4 [5A17F207] [2E79DA79]
10 99,4 [5DE9FA83] [6BC8121B]
11 99,4 [65674A89] [387AA2AE]
12 99,4 [1E94D2B2] [21B1FF77]

T. Rex - The Albums Collection (2014) [10CD Box Set]

All thanks go to ALLexxess