Subcategories
Tags
Language
Tags

The Joe Chemay Band - The Riper The Finer (1981) {2002 Victor Japan}

Posted By: TestTickles
The Joe Chemay Band - The Riper The Finer (1981) {2002 Victor Japan}

The Joe Chemay Band - The Riper The Finer (1981) {2002 Victor Japan}
EAC Rip | FLAC with CUE and log | scans | 242 mb
MP3 CBR 320kbps | RAR | 81 mb
Genre: pop rock, funk, soul

The Riper The Finer is the 1981 album by pop rock group The Joe Chemay Band. This is taken from the 2002 Japanese remaster reissued by the Victor label.

The Joe Chemay Band - The Riper The Finer (1981) {2002 Victor Japan}

1. Bad Enough
2. Proud
3. Once In A Life
4. A Fine Line
5. You Saw Me Coming
6. Love Is A Crazy Feeling
7. Holy Thunder
8. One Needs Another
9. Never Gonna Let You Go

Exact Audio Copy V1.0 beta 3 from 29. August 2011

EAC extraction logfile from 16. July 2013, 09:06

The Joe Chemay Band / The Riper The Finer

Used drive : HL-DT-STDVDRAM GT51N Adapter: 0 ID: 1

Read mode : Secure
Utilize accurate stream : Yes
Defeat audio cache : Yes
Make use of C2 pointers : No

Read offset correction : 103
Overread into Lead-In and Lead-Out : No
Fill up missing offset samples with silence : Yes
Delete leading and trailing silent blocks : No
Null samples used in CRC calculations : Yes
Used interface : Native Win32 interface for Win NT & 2000
Gap handling : Appended to previous track

Used output format : User Defined Encoder
Selected bitrate : 1024 kBit/s
Quality : High
Add ID3 tag : No
Command line compressor : C:\Program Files (x86)\FLAC\flac.exe
Additional command line options : -8 -V -T "ARTIST=%artist%" -T "TITLE=%title%" -T "ALBUM=%albumtitle%" -T "DATE=%year%" -T "TRACKNUMBER=%tracknr%" -T "GENRE=%genre%" -T "PERFORMER=%albuminterpret%" -T "COMPOSER=%composer%" %haslyrics%–tag-from-file=LYRICS="%lyricsfile%"%haslyrics% -T "ALBUMARTIST=%albumartist%" -T "DISCNUMBER=%cdnumber%" -T "TOTALDISCS=%totalcds%" -T "TOTALTRACKS=%numtracks%" -T "COMMENT=%comment%" %source% -o %dest%

TOC of the extracted CD

Track | Start | Length | Start sector | End sector
––––––––––––––––––––––––––––-
1 | 0:00.00 | 4:00.25 | 0 | 18024
2 | 4:00.25 | 3:50.18 | 18025 | 35292
3 | 7:50.43 | 4:31.70 | 35293 | 55687
4 | 12:22.38 | 3:48.37 | 55688 | 72824
5 | 16:11.00 | 3:27.65 | 72825 | 88414
6 | 19:38.65 | 3:45.08 | 88415 | 105297
7 | 23:23.73 | 4:25.40 | 105298 | 125212
8 | 27:49.38 | 3:08.35 | 125213 | 139347
9 | 30:57.73 | 3:45.50 | 139348 | 156272

Track 1

Filename C:\cuntfist\FLAC\The Joe Chemay Band - The Riper The Finer (1981) [FLAC] {2002 Victor Japan}\01 - Bad Enough.wav

Pre-gap length 0:00:02.00

Peak level 100.0 %
Extraction speed 2.3 X
Track quality 99.9 %
Test CRC E3675C5E
Copy CRC E3675C5E
Track not present in AccurateRip database
Copy OK

Track 2

Filename C:\cuntfist\FLAC\The Joe Chemay Band - The Riper The Finer (1981) [FLAC] {2002 Victor Japan}\02 - Proud.wav

Pre-gap length 0:00:01.25

Peak level 100.0 %
Extraction speed 3.1 X
Track quality 100.0 %
Test CRC EB0F448F
Copy CRC EB0F448F
Track not present in AccurateRip database
Copy OK

Track 3

Filename C:\cuntfist\FLAC\The Joe Chemay Band - The Riper The Finer (1981) [FLAC] {2002 Victor Japan}\03 - Once In A Life.wav

Pre-gap length 0:00:01.76

Peak level 100.0 %
Extraction speed 2.9 X
Track quality 99.9 %
Test CRC 32BB9E3D
Copy CRC 32BB9E3D
Track not present in AccurateRip database
Copy OK

Track 4

Filename C:\cuntfist\FLAC\The Joe Chemay Band - The Riper The Finer (1981) [FLAC] {2002 Victor Japan}\04 - A Fine Line.wav

Pre-gap length 0:00:01.78

Peak level 100.0 %
Extraction speed 3.7 X
Track quality 100.0 %
Test CRC 119306C9
Copy CRC 119306C9
Track not present in AccurateRip database
Copy OK

Track 5

Filename C:\cuntfist\FLAC\The Joe Chemay Band - The Riper The Finer (1981) [FLAC] {2002 Victor Japan}\05 - You Saw Me Coming.wav

Pre-gap length 0:00:01.74

Peak level 100.0 %
Extraction speed 3.8 X
Track quality 100.0 %
Test CRC A933097C
Copy CRC A933097C
Track not present in AccurateRip database
Copy OK

Track 6

Filename C:\cuntfist\FLAC\The Joe Chemay Band - The Riper The Finer (1981) [FLAC] {2002 Victor Japan}\06 - Love Is A Crazy Feeling.wav

Pre-gap length 0:00:01.58

Peak level 100.0 %
Extraction speed 3.3 X
Track quality 99.9 %
Test CRC CB0BBAC5
Copy CRC CB0BBAC5
Track not present in AccurateRip database
Copy OK

Track 7

Filename C:\cuntfist\FLAC\The Joe Chemay Band - The Riper The Finer (1981) [FLAC] {2002 Victor Japan}\07 - Holy Thunder.wav

Pre-gap length 0:00:01.25

Peak level 100.0 %
Extraction speed 4.2 X
Track quality 100.0 %
Test CRC 9DBF00C3
Copy CRC 9DBF00C3
Track not present in AccurateRip database
Copy OK

Track 8

Filename C:\cuntfist\FLAC\The Joe Chemay Band - The Riper The Finer (1981) [FLAC] {2002 Victor Japan}\08 - One Needs Another.wav

Pre-gap length 0:00:01.25

Peak level 100.0 %
Extraction speed 1.9 X
Track quality 100.0 %
Test CRC D4127F4E
Copy CRC D4127F4E
Track not present in AccurateRip database
Copy OK

Track 9

Filename C:\cuntfist\FLAC\The Joe Chemay Band - The Riper The Finer (1981) [FLAC] {2002 Victor Japan}\09 - Never Gonna Let You Go.wav

Peak level 100.0 %
Extraction speed 2.1 X
Track quality 100.0 %
Test CRC 78073B2C
Copy CRC 78073B2C
Track not present in AccurateRip database
Copy OK

None of the tracks are present in the AccurateRip database

No errors occurred

End of status report

–– CUETools DB Plugin V2.1.3

[CTDB TOCID: l1gfUJHWOAJ2G14EPaH2fwNLHBY-] disk not present in database, Submit result: l1gfUJHWOAJ2G14EPaH2fwNLHBY- has been uploaded

==== Log checksum C788CF7048E3CDCDA0F1B73261DF4C6E10E8AB7AF152ABADB3199FDB2A496F3D ====


The Joe Chemay Band - The Riper The Finer (1981) {2002 Victor Japan}


Thank you to the original uploader.