Tags
Language
Tags
May 2024
Su Mo Tu We Th Fr Sa
28 29 30 1 2 3 4
5 6 7 8 9 10 11
12 13 14 15 16 17 18
19 20 21 22 23 24 25
26 27 28 29 30 31 1

Peter Broderick / Takumi Uesaka - Glimmer (2011)

Posted By: aasana
Peter Broderick / Takumi Uesaka - Glimmer (2011)

Peter Broderick / Takumi Uesaka - Glimmer (2011)
EAC Rip | FLAC (tracks+.cue) | 00:32:07 | 148,38 MB
Classical; Contemporary | Label: Cote Labo

The concept: "If Takumi & Peter make a song for a quiet midnight". with naive voice and quiet melody Takumi & Peter delicately present the calm midnight and then "quiet night" surrounds and lulls the listener.

01. Peter Broderick - Cosmonaut (4:30)
02. Peter Broderick - Glide (3:08)
03. Peter Broderick - Light (Moon River) (4:49)
04. Peter Broderick - Goodnight (4:27)
05. Peter Broderick - Low Light (3:46)
06. Peter Broderick - It's A Storm When I Sleep (7:44)
07. Peter Broderick - Eyes Closed And Traveling (3:43)

Exact Audio Copy V1.0 beta 2 from 29. April 2011

EAC extraction logfile from 20. September 2011, 6:48

Takumi Uesaka and Peter Broderick / Glimmer

Used drive : HL-DT-STDVDRAM GP40LB10 Adapter: 1 ID: 0

Read mode : Secure
Utilize accurate stream : Yes
Defeat audio cache : Yes
Make use of C2 pointers : No

Read offset correction : 6
Overread into Lead-In and Lead-Out : No
Fill up missing offset samples with silence : Yes
Delete leading and trailing silent blocks : No
Null samples used in CRC calculations : Yes
Used interface : Native Win32 interface for Win NT & 2000
Gap handling : Appended to previous track

Used output format : User Defined Encoder
Selected bitrate : 768 kBit/s
Quality : High
Add ID3 tag : No
Command line compressor : C:\Program Files (x86)\Exact Audio Copy\FLAC\FLAC.EXE
Additional command line options : -6 -V -T "ARTIST=%artist%" -T "TITLE=%title%" -T "ALBUM=%albumtitle%" -T "DATE=%year%" -T "TRACKNUMBER=%tracknr%" -T "GENRE=%genre%" -T "COMMENT=%comment%" -T "BAND=%albuminterpret%" -T "COMPOSER=%composer%" %haslyrics%–ta


TOC of the extracted CD

Track | Start | Length | Start sector | End sector
––––––––––––––––––––––––––––-
1 | 0:00.00 | 4:30.20 | 0 | 20269
2 | 4:30.20 | 3:07.51 | 20270 | 34345
3 | 7:37.71 | 4:49.28 | 34346 | 56048
4 | 12:27.24 | 4:26.65 | 56049 | 76063
5 | 16:54.14 | 3:46.19 | 76064 | 93032
6 | 20:40.33 | 7:43.55 | 93033 | 127812
7 | 28:24.13 | 3:43.22 | 127813 | 144559


Track 1

Filename I:\Music\Takumi Uesaka & Peter Broderick - Glimmer FLAC\01 Cosmonaut.wav

Pre-gap length 0:00:02.00

Peak level 99.9 %
Extraction speed 2.4 X
Track quality 99.9 %
Test CRC 23696B9E
Copy CRC 23696B9E
Accurately ripped (confidence 3) [1206F372] (AR v2)
Copy OK

Track 2

Filename I:\Music\Takumi Uesaka & Peter Broderick - Glimmer FLAC\02 Glide.wav

Peak level 98.5 %
Extraction speed 2.9 X
Track quality 100.0 %
Test CRC 9059231E
Copy CRC 9059231E
Accurately ripped (confidence 3) [5FA7B5D7] (AR v2)
Copy OK

Track 3

Filename I:\Music\Takumi Uesaka & Peter Broderick - Glimmer FLAC\03 Light (Moon River).wav

Peak level 98.7 %
Extraction speed 3.4 X
Track quality 100.0 %
Test CRC F0065F38
Copy CRC F0065F38
Accurately ripped (confidence 3) [A19F6124] (AR v2)
Copy OK

Track 4

Filename I:\Music\Takumi Uesaka & Peter Broderick - Glimmer FLAC\04 Goodnight.wav

Peak level 98.7 %
Extraction speed 3.2 X
Track quality 100.0 %
Test CRC A90AA8FA
Copy CRC A90AA8FA
Accurately ripped (confidence 3) [70816347] (AR v2)
Copy OK

Track 5

Filename I:\Music\Takumi Uesaka & Peter Broderick - Glimmer FLAC\05 Low Light.wav

Peak level 98.7 %
Extraction speed 3.1 X
Track quality 100.0 %
Test CRC C591BB59
Copy CRC C591BB59
Accurately ripped (confidence 3) [7D16B28B] (AR v2)
Copy OK

Track 6

Filename I:\Music\Takumi Uesaka & Peter Broderick - Glimmer FLAC\06 It's A Storm When I Sleep.wav

Peak level 98.7 %
Extraction speed 1.9 X
Track quality 100.0 %
Test CRC 8B069A5C
Copy CRC 8B069A5C
Accurately ripped (confidence 3) [D5EA10B3] (AR v2)
Copy OK

Track 7

Filename I:\Music\Takumi Uesaka & Peter Broderick - Glimmer FLAC\07 Eyes Closed And Traveling.wav

Peak level 98.7 %
Extraction speed 1.9 X
Track quality 100.0 %
Test CRC C44AD223
Copy CRC C44AD223
Accurately ripped (confidence 3) [42828930] (AR v2)
Copy OK


All tracks accurately ripped

No errors occurred

End of status report

==== Log checksum 289F48DE0E740A29AB9C181EB8363DD3C80B5630540A720229512E767291642D ====