Tags
Language
Tags

Tangerine Dream - Alpha Centauri (1971) [Reissue 1996]

Posted By: gribovar
Tangerine Dream - Alpha Centauri (1971) [Reissue 1996]

Tangerine Dream - Alpha Centauri (1971) [Reissue 1996]
EAC Rip | FLAC (image+.cue+log) - 197 MB | MP3 CBR 320 kbps (LAME 3.93) - 93 MB | Covers - 51 MB
Genre: Progressive Electronic, Ambient | RAR 3% Rec. | Label: Castle Communications (ESM CD 346)

As if the sound is breaking through your speakers, Alpha Centauri begins its journey. Crackling and swirling synthesizers seize control of your stereo. Like a call to psychedelic arms, the first track "Sunrise in the Third System" marches on with its organ. The mixing of the three tracks found on Alpha Centauri leaves something to be desired, in that the tracks are not mixed the way they would be today with each track endlessly flowing into the next like a stream. Nonetheless, when one is not paying too close attention to such details, the album seems to flow quite smoothly. The sound is not of the highest standards either, as should be expected, this being a 1971 release of "space music." Tangerine Dream's style of "space music" had not yet been refined and revolutionized as it was a couple of releases later with Phaedra and Rubycon. Regardless, for those interested in a wilder and more reckless ride on the "space music" autobahn, Alpha Centauri should satisfy the need.

Tracklist:
01. Sunrise In The Third System
02. Fly And Collision Of Comas Sola
03. Alpha Centauri

Total time: 39:50

Exact Audio Copy V1.0 beta 3 from 29. August 2011

Отчёт EAC об извлечении, выполненном 21. октября 2011, 10:59

Tangerine Dream / Alpha Centauri

Дисковод: PLEXTOR CD-R PREMIUM2 Adapter: 0 ID: 0

Режим чтения : Достоверность
Использование точного потока : Да
Отключение кэша аудио : Да
Использование указателей C2 : Нет

Коррекция смещения при чтении : 30
Способность читать области Lead-in и Lead-out : Да
Заполнение пропущенных сэмплов тишиной : Да
Удаление блоков с тишиной в начале и конце : Нет
При вычислениях CRC использовались нулевые сэмплы : Да
Интерфейс : Встроенный Win32-интерфейс для Win NT/2000

Выходной формат : Внутренние WAV-операции
Формат сэмплов : 44.100 Гц; 16 бит; стерео


TOC извлечённого CD

Трек | Старт | Длительность | Начальный сектор | Конечный сектор
––––––––––––––––––––––––––––––––––-
1 | 0:00.00 | 4:21.67 | 0 | 19641
2 | 4:21.67 | 13:23.68 | 19642 | 79934
3 | 17:45.60 | 22:04.20 | 79935 | 179254


Характеристики диапазона извлечения и сообщения об ошибках

Выбранный диапазон

Имя файла F:\Tangerine Dream - Alpha Centauri (ESM CD 346) - 1971\Tangerine Dream - Alpha Centauri.wav

Пиковый уровень 99.7 %
Скорость извлечения 6.6 X
Качество диапазона 99.9 %
CRC теста 51C1370F
CRC копии 51C1370F
Копирование… OK

Ошибок не произошло


AccurateRip: сводка

Трек 1 : извлечено точно (доверие 2) [E02EAFBE] (AR v2)
Трек 2 : извлечено точно (доверие 2) [9AECA67D] (AR v2)
Трек 3 : извлечено точно (доверие 2) [2F79A5E6] (AR v2)

Все треки извлечены точно

Конец отчёта

==== Контрольная сумма отчёта 87AC39687CB7032CC6E9FB9CFB733C93FFE64F2D69DECA779B1E89B6EB331159 ====

[CUETools log; Date: 16.02.2021 15:40:47; Version: 2.1.4]
[CTDB TOCID: TfJMfcYd8cK1TPRkS8P4O.lQ4Dk-] found.
Track | CTDB Status
1 | (137/137) Accurately ripped
2 | (137/137) Accurately ripped
3 | (129/137) Accurately ripped, or (2/137) differs in 1188 samples @22:04:03-22:04:04
[AccurateRip ID: 00044130-000f330e-1b095603] found.
Track [ CRC | V2 ] Status
01 [a51abd44|e02eafbe] (32+40/85) Accurately ripped
02 [909fa889|9aeca67d] (32+40/85) Accurately ripped
03 [6c935fc2|2f79a5e6] (31+37/80) Accurately ripped
Offsetted by -1815:
01 [59dcf109] (02/85) Accurately ripped
02 [b41d6bbd] (02/85) Accurately ripped
03 [b37168eb] (02/80) Accurately ripped
Offsetted by -271:
01 [04ecb2f1] (05/85) Accurately ripped
02 [941c5d99] (05/85) Accurately ripped
03 [79b220f3] (04/80) Accurately ripped

Track Peak [ CRC32 ] [W/O NULL] [ LOG ]
– 99,7 [51C1370F] [F0B60BE9] CRC32
01 98,0 [9B6654F4] [1E389A3E]
02 99,7 [78CDE31C] [C58A400D]
03 98,4 [3DA024A0] [ECBF01EB]

Thanks to Stripakulina

See also:
Tangerine Dream - The Electronic Journey (2010) [10CD Box Set]
Tangerine Dream - The Dream Roots Collection [5CD Box Set] (1996)
Tangerine Dream - Electronic Meditation (1970) [Reissue 1996]
Tangerine Dream - Alpha Centauri (1971) [Reissue 2011]
Tangerine Dream - Zeit (1972) [Reissue 1996]
Tangerine Dream - Atem (1973) [Reissue 2011]
Tangerine Dream - Phaedra (1974) [Original Edition]
Tangerine Dream - Phaedra (1974) [Definitive Edition 1995]
Tangerine Dream - Rubycon (1975) [Non-remastered, Reissue 1988]
Tangerine Dream - Rubycon (1975) [Definitive Edition 1995]
Tangerine Dream - Ricochet (1975) [Definitive Edition 1995]
Tangerine Dream - Stratosfear (1976) [Definitive Edition 1995]
Tangerine Dream - Sorcerer (OST) (1977) [Reissue 2011]
Tangerine Dream - Force Majeure (1979) [Reissue 1995]
Tangerine Dream - Tangram (1980)
Tangerine Dream - Pergamon (1980) [Reissue 1996]
Tangerine Dream - White Eagle (1982) [Reissue 1995]
Tangerine Dream - Logos Live (1982) [Definitive Edition 1995]
Tangerine Dream - Poland - The Warsaw Concert (1984) [Reissue 2011]
Tangerine Dream - Firestarter ...ion Picture Soundtrack] (1984)
Tangerine Dream - Legend (OST) (1986) [Reissue 1995]
Tangerine Dream - Tyger (1987) [Reissue 1996]
Tangerine Dream - Three O'Clock High [OST] (1987)
Tangerine Dream - Optical Race (1988)
Tangerine Dream - Live Miles (1988) [Reissue 2003]
Tangerine Dream - Lily On The Beach (1989)
Tangerine Dream - Melrose (1990)
Tangerine Dream - Dead Solid Perfect (OST) (1990)
Tangerine Dream - The Park Is Mine (OST) (1991)
Tangerine Dream - Rockoon (1992) [Reissue 2000]
Tangerine Dream - Deadly Care (OST) (1992)
Tangerine Dream - Quinoa (1992) [Reissue 2009]
Tangerine Dream - Catch Me If You Can (OST) (1994)
Tangerine Dream - Tyranny Of Beauty (1995)
Tangerine Dream - Goblins' Club (1996)
Tangerine Dream - Zoning (OST) (1996)
Tangerine Dream - The Analogue Space Years 1969-1973 (1998)
Tangerine Dream - The Hollywood Years Vol. 1 (1998)
Tangerine Dream - The Hollywood Years Vol. 2 (1998)
Tangerine Dream - Antique Dreams (2000)
Tangerine Dream - Soundmill Navigator (2000)
Tangerine Dream - The Bootleg Box Set Vol. 1 [7CD] (2003)
Tangerine Dream - Purgatorio (2004)
Tangerine Dream - Arizona Live '92 (2004) [Reissue 2009]
Tangerine Dream - Phaedra 2005 (2005) [Japanese Edition 2009]
Tangerine Dream - Cleveland - June 24th 1986 (2005)
Tangerine Dream - Blue Dawn (2006)
Tangerine Dream - The Essential Tangerine Dream (2006)
Tangerine Dream - Plays Tangerine Dream (2006)
Tangerine Dream - Views From A Red Train (2008)
Tangerine Dream - Booster (2008)
Tangerine Dream - Booster Vol. 2 (2008)
Tangerine Dream - The Antholog... Space Years Volume One (2008)
Tangerine Dream - Music For Sports: Cool Races (2009)
Tangerine Dream - Music For Sports: Power And Motion (2009)
Tangerine Dream - DM V (Dream Mixes V) (2010)
Tangerine Dream - The London Eye Concert (2010)
Tangerine Dream - The Virgin Years 1974-1978 [3CD Box Set] (2011)
Tangerine Dream - The Official...ies Vol.1 [4CD Box Set] (2015)
Tangerine Dream - Live At Coventry Cathedral 1975 (2007) [DVD]
Edgar Froese - 2 Albums (1974-1995)
Edgar Froese - Ages (1978) [Reissue 1997]
Edgar Froese - Pinnacles (1983)