Tags
Language
Tags

Tangerine Dream - Axiat [Recorded 1999-2005] (2009)

Posted By: gribovar
Tangerine Dream - Axiat [Recorded 1999-2005] (2009)

Tangerine Dream - Axiat [Recorded 1999-2005] (2009)
EAC Rip | APE (image+.cue+log) - 425 MB | MP3 CBR 320 kbps (LAME 3.93) - 171 MB | Covers - 24 MB
Genre: Progressive Electronic, Berlin School | RAR 3% Rec. | Label: Membran Music (232663)

Axiat is a compilation arranged by the former long-time TD member Jerome Froese. Axiat compiles ten tracks composed by Jerome Froese from the following albums: "Great Wall Of China" (1999, two tracks); "The Seven Letters From Tibet" (2000, one track); "The Past Hundred Moons" (2001, three tracks); DM 4 (2003, two tracks); "Jeanne D'Arc" (2005, two tracks). This release might be of interest for listeners who do not own the original albums, as some of them went out of print or were re-released without the tracks by Jerome Froese.

Tracklist:
01. Astrophobia (Red Supernova Mix)
02. La Marche
03. The Metropolitan Sphere
04. The Golden Heart
05. Meng Tian
06. World Of The Day
07. Prime Time
08. La Solitude Dans L'Espoir
09. Cradle Of Prodigies
10. Meng Tian (Smart Machine Remix)

Total time: 01:12:39

Exact Audio Copy V0.99 prebeta 5 from 4. May 2009

EAC extraction logfile from 9. January 2010, 4:59

Tangerine Dream / Axiat

Used drive : ASUS DRW-1814BL Adapter: 0 ID: 0

Read mode : Secure
Utilize accurate stream : Yes
Defeat audio cache : Yes
Make use of C2 pointers : No

Read offset correction : 6
Overread into Lead-In and Lead-Out : No
Fill up missing offset samples with silence : Yes
Delete leading and trailing silent blocks : No
Null samples used in CRC calculations : Yes
Used interface : Native Win32 interface for Win NT & 2000

Used output format : Internal WAV Routines
Sample format : 44.100 Hz; 16 Bit; Stereo


TOC of the extracted CD

Track | Start | Length | Start sector | End sector
––––––––––––––––––––––––––––-
1 | 0:00.00 | 8:26.46 | 0 | 37995
2 | 8:26.46 | 8:12.29 | 37996 | 74924
3 | 16:39.00 | 8:12.40 | 74925 | 111864
4 | 24:51.40 | 5:47.05 | 111865 | 137894
5 | 30:38.45 | 5:11.46 | 137895 | 161265
6 | 35:50.16 | 5:28.12 | 161266 | 185877
7 | 41:18.28 | 10:19.60 | 185878 | 232362
8 | 51:38.13 | 7:40.09 | 232363 | 266871
9 | 59:18.22 | 5:21.47 | 266872 | 290993
10 | 64:39.69 | 7:58.64 | 290994 | 326907


Range status and errors

Selected range

Filename D:\EAC\Tangerine Dream - Axiat.wav

Peak level 100.0 %
Range quality 100.0 %
Test CRC 1A5514D5
Copy CRC 1A5514D5
Copy OK

No errors occurred


AccurateRip summary

Track 1 not present in database
Track 2 not present in database
Track 3 not present in database
Track 4 not present in database
Track 5 not present in database
Track 6 not present in database
Track 7 not present in database
Track 8 not present in database
Track 9 not present in database
Track 10 not present in database

None of the tracks are present in the AccurateRip database

End of status report

[CUETools log; Date: 05.04.2021 14:11:16; Version: 2.1.4]
[CTDB TOCID: xUo_gu8Wxg4sDG9xnW3Re1HMufE-] found.
Track | CTDB Status
1 | (9/9) Accurately ripped
2 | (9/9) Accurately ripped
3 | (9/9) Accurately ripped
4 | (9/9) Accurately ripped
5 | (9/9) Accurately ripped
6 | (9/9) Accurately ripped
7 | (9/9) Accurately ripped
8 | (9/9) Accurately ripped
9 | (9/9) Accurately ripped
10 | (9/9) Accurately ripped
[AccurateRip ID: 001be092-00dcd7a5-6d11060a] found.
Track [ CRC | V2 ] Status
01 [f0b822e8|3683e575] (05+05/10) Accurately ripped
02 [54977039|e1acc894] (05+05/10) Accurately ripped
03 [21602541|c98b72be] (05+05/10) Accurately ripped
04 [0540d693|bb0d4095] (05+05/10) Accurately ripped
05 [8cf490a9|f7a3b045] (05+05/10) Accurately ripped
06 [668f72af|c22551ed] (04+05/09) Accurately ripped
07 [e16d183b|f7e5df37] (05+05/10) Accurately ripped
08 [dbbfcbfa|c07de021] (05+05/10) Accurately ripped
09 [98f3ca6c|729de0c3] (05+05/10) Accurately ripped
10 [7c16764a|64582cc1] (05+05/10) Accurately ripped

Track Peak [ CRC32 ] [W/O NULL] [ LOG ]
– 100,0 [1A5514D5] [933A41F3] CRC32
01 98,0 [37510B64] [CD0539B4]
02 100,0 [1438C500] [A9F34F07]
03 100,0 [D334620F] [4C3F7459]
04 98,0 [90EE178C] [382B291E]
05 100,0 [BEDD010B] [C92BCFD8]
06 97,3 [4A398D72] [CC76E79D]
07 98,0 [560CB49D] [F013C172]
08 100,0 [F7D96212] [2552147B]
09 100,0 [3C62AF09] [A04B0FC8]
10 98,0 [605D434F] [4007942D]

Thanks to the original releaser

See also:
Tangerine Dream - The Electronic Journey (2010) [10CD Box Set]
Tangerine Dream - The Dream Roots Collection [5CD Box Set] (1996)
Tangerine Dream - Electronic Meditation (1970) [Reissue 1996]
Tangerine Dream - Alpha Centauri (1971) [Reissue 1996]
Tangerine Dream - Alpha Centauri (1971) [Reissue 2011]
Tangerine Dream - Zeit (1972) [Reissue 1996]
Tangerine Dream - Atem (1973) [Reissue 2011]
Tangerine Dream - Phaedra (1974) [Original Edition]
Tangerine Dream - Phaedra (1974) [Definitive Edition 1995]
Tangerine Dream - Rubycon (1975) [Non-remastered, Reissue 1988]
Tangerine Dream - Rubycon (1975) [Definitive Edition 1995]
Tangerine Dream - Ricochet (1975) [Definitive Edition 1995]
Tangerine Dream - Stratosfear (1976) [Definitive Edition 1995]
Tangerine Dream - Encore (1977)
Tangerine Dream - Sorcerer (OST) (1977) [Reissue 2011]
Tangerine Dream - Force Majeure (1979) [Reissue 1995]
Tangerine Dream - Tangram (1980)
Tangerine Dream - Pergamon (1980) [Reissue 1996]
Tangerine Dream - White Eagle (1982) [Reissue 1995]
Tangerine Dream - Logos Live (1982) [Definitive Edition 1995]
Tangerine Dream - Hyperborea (1983)
Tangerine Dream - Wavelength [OST] (1983)
Tangerine Dream - Poland - The Warsaw Concert (1984) [Reissue 2011]
Tangerine Dream - Firestarter ...ion Picture Soundtrack] (1984)
Tangerine Dream - Underwater Sunlight (1986) [Reissue 1996]
Tangerine Dream - Green Desert [Recorded 1973] (1986)
Tangerine Dream - Legend (OST) (1986) [Reissue 1995]
Tangerine Dream - Tyger (1987) [Reissue 1996]
Tangerine Dream - Three O'Clock High [OST] (1987)
Tangerine Dream - Optical Race (1988)
Tangerine Dream - Live Miles (1988) [Reissue 2003]
Tangerine Dream - Lily On The Beach (1989)
Tangerine Dream - Melrose (1990)
Tangerine Dream - Dead Solid Perfect (OST) (1990)
Tangerine Dream - The Park Is Mine (OST) (1991)
Tangerine Dream - Rockoon (1992) [Reissue 2000]
Tangerine Dream - Deadly Care (OST) (1992)
Tangerine Dream - Quinoa (1992) [Reissue 2009]
Tangerine Dream - Catch Me If You Can (OST) (1994)
Tangerine Dream - Tyranny Of Beauty (1995)
Tangerine Dream - Goblins' Club (1996)
Tangerine Dream - Zoning (OST) (1996)
Tangerine Dream - The Analogue Space Years 1969-1973 (1998)
Tangerine Dream - The Hollywood Years Vol. 1 (1998)
Tangerine Dream - The Hollywood Years Vol. 2 (1998)
Tangerine Dream - Antique Dreams (2000)
Tangerine Dream - Soundmill Navigator (2000)
Tangerine Dream - The Bootleg Box Set Vol. 1 [7CD] (2003)
Tangerine Dream - Purgatorio (2004)
Tangerine Dream - Arizona Live '92 (2004) [Reissue 2009]
Tangerine Dream - Phaedra 2005 (2005) [Japanese Edition 2009]
Tangerine Dream - Cleveland - June 24th 1986 (2005)
Tangerine Dream - Blue Dawn (2006)
Tangerine Dream - The Essential Tangerine Dream (2006)
Tangerine Dream - Plays Tangerine Dream (2006)
Tangerine Dream - Springtime In Nagasaki (2007)
Tangerine Dream - Views From A Red Train (2008)
Tangerine Dream - Booster (2008)
Tangerine Dream - Booster Vol. 2 (2008)
Tangerine Dream - The Antholog... Space Years Volume One (2008)
Tangerine Dream - Music For Sports: Cool Races (2009)
Tangerine Dream - Music For Sports: Power And Motion (2009)
Tangerine Dream - DM V (Dream Mixes V) (2010)
Tangerine Dream - The London Eye Concert (2010)
Tangerine Dream - Zeitgeist Concert [3CD Box Set] (2010)
Tangerine Dream - The Virgin Years 1974-1978 [3CD Box Set] (2011)
Tangerine Dream - The Official...ies Vol.1 [4CD Box Set] (2015)
Tangerine Dream - Live At The Tempodrome Berlin (2006) [DVD]
Tangerine Dream - Live At Coventry Cathedral 1975 (2007) [DVD]
Tangerine Dream - Madcap's Flaming Duty [DVD] (2007)
Tangerine Dream - 35th Phaedra Anniversary Concert [2DVD] (2007)
Edgar Froese - 2 Albums (1974-1995)
Edgar Froese - Ages (1978) [Reissue 1997]
Edgar Froese - Pinnacles (1983)