Tags
Language
Tags

Tangerine Dream - Booster III (2009)

Posted By: gribovar
Tangerine Dream - Booster III (2009)

Tangerine Dream - Booster III (2009)
EAC Rip | APE (image+.cue+log) - 888 MB | MP3 CBR 320 kbps (LAME 3.93) - 343 MB | Covers included
Genre: Progressive Electronic, Berlin School | RAR 3% Rec. | Label: Eastgate (041 CD)

Booster III, released in December 2009 is the third installment of a successful series of compilations featuring a number of tracks that already have released in recent time plus some completely new compositions or previously unreleased remixes.
The Booster series supposed to be a musical side reflection - a hidden TD landmark not aimed for a TD mainstream success. But sometimes things were turned upside down. The whole cupdisc idea which now became a short note musical diary format plus some extras released on the two previous Booster volumes provoked such an enthusiastic reaction that you will have the chance now to experience the third part of this series. It will follow the same philosophy like you know it from Booster I and II. Some tracks you will be familiar with, others are completely fresh from the recording desk here in Vienna.

CD 1 Tracklist:
01. Mombasa
02. Morning Star
03. The Dance Without Dancers
04. Sunshift (Moonmother's Mix)
05. The Unknown Is The Truth
06. Nexuses
07. Astrophel And Stella (String Version)
08. Sound Of A Shell
09. The Moondog Connection
10. Lord Nelson
11. Remote Viewing 2009

Total time: 01:10:02

CD 2 Tracklist:
01. The Halloween Cast (Rolling Out The World's Pumpkin Part 1)
02. Kiev Mission (Remake 2009)
03. Synth Affection
04. Transition
05. Kilimandscharo
06. Two Drunken Angels At Trafalgar Square
07. Key Moment
08. The Angel Of The West Window
09. Romantic Vision (Part 2 Of Das Romantische Opfer)
10. Romantic Power (Part 1 Of Das Romantische Opfer)
11. Ayumi's Loom

Total time: 01:15:11

Exact Audio Copy V0.99 prebeta 5 from 4. May 2009

EAC extraction logfile from 19. April 2010, 23:29

Tangerine Dream / Booster III

Used drive : ASUS DRW-1814BL Adapter: 0 ID: 0

Read mode : Secure
Utilize accurate stream : Yes
Defeat audio cache : Yes
Make use of C2 pointers : No

Read offset correction : 6
Overread into Lead-In and Lead-Out : No
Fill up missing offset samples with silence : Yes
Delete leading and trailing silent blocks : No
Null samples used in CRC calculations : Yes
Used interface : Native Win32 interface for Win NT & 2000

Used output format : Internal WAV Routines
Sample format : 44.100 Hz; 16 Bit; Stereo


TOC of the extracted CD

Track | Start | Length | Start sector | End sector
––––––––––––––––––––––––––––-
1 | 0:00.00 | 9:37.46 | 0 | 43320
2 | 9:37.46 | 5:04.05 | 43321 | 66125
3 | 14:41.51 | 5:39.40 | 66126 | 91590
4 | 20:21.16 | 7:15.59 | 91591 | 124274
5 | 27:37.00 | 7:30.10 | 124275 | 158034
6 | 35:07.10 | 5:57.52 | 158035 | 184861
7 | 41:04.62 | 4:52.23 | 184862 | 206784
8 | 45:57.10 | 6:42.33 | 206785 | 236967
9 | 52:39.43 | 3:58.56 | 236968 | 254873
10 | 56:38.24 | 5:08.27 | 254874 | 278000
11 | 61:46.51 | 8:15.31 | 278001 | 315156


Range status and errors

Selected range

Filename D:\EAC\Tangerine Dream - Booster III (CD 1).wav

Peak level 98.8 %
Range quality 100.0 %
Test CRC 85781625
Copy CRC 85781625
Copy OK

No errors occurred


AccurateRip summary

Track 1 accurately ripped (confidence 1) [D6407D70]
Track 2 accurately ripped (confidence 1) [2721B26D]
Track 3 accurately ripped (confidence 1) [6035128F]
Track 4 accurately ripped (confidence 1) [185FEE07]
Track 5 accurately ripped (confidence 1) [63FDC6D5]
Track 6 accurately ripped (confidence 1) [B540D79A]
Track 7 accurately ripped (confidence 1) [2F2EAE02]
Track 8 accurately ripped (confidence 1) [C72CCB69]
Track 9 accurately ripped (confidence 1) [59827DAF]
Track 10 accurately ripped (confidence 1) [1C4403E9]
Track 11 accurately ripped (confidence 1) [EA5F2AFF]

All tracks accurately ripped

End of status report

[CUETools log; Date: 07.04.2021 0:27:03; Version: 2.1.4]
[CTDB TOCID: ikCJOdr10eJ0ZSYutCq_OQktDVs-] found.
Track | CTDB Status
1 | (36/36) Accurately ripped
2 | (36/36) Accurately ripped
3 | (36/36) Accurately ripped
4 | (36/36) Accurately ripped
5 | (36/36) Accurately ripped
6 | (36/36) Accurately ripped
7 | (36/36) Accurately ripped
8 | (36/36) Accurately ripped
9 | (36/36) Accurately ripped
10 | (36/36) Accurately ripped
11 | (36/36) Accurately ripped
[AccurateRip ID: 001de83b-00feadc7-a0106a0b] found.
Track [ CRC | V2 ] Status
01 [d6407d70|ca4abbda] (03+04/17) Accurately ripped
02 [2721b26d|8d2da372] (03+04/17) Accurately ripped
03 [6035128f|a62f8e09] (03+04/17) Accurately ripped
04 [185fee07|c09ff8ba] (03+04/17) Accurately ripped
05 [63fdc6d5|b9854c8b] (03+04/17) Accurately ripped
06 [b540d79a|ba618ceb] (03+04/17) Accurately ripped
07 [2f2eae02|676cac67] (03+04/17) Accurately ripped
08 [c72ccb69|7e473a74] (03+04/17) Accurately ripped
09 [59827daf|766c9bb6] (03+04/17) Accurately ripped
10 [1c4403e9|432282aa] (03+04/17) Accurately ripped
11 [ea5f2aff|80d8cbf1] (03+04/16) Accurately ripped
Offsetted by -18:
01 [a42dc2e6] (02/17) Accurately ripped
02 [0057a247] (02/17) Accurately ripped
03 [6c5f64b7] (02/17) Accurately ripped
04 [cfc5ed25] (02/17) Accurately ripped
05 [bd123f41] (02/17) Accurately ripped
06 [3993728a] (02/17) Accurately ripped
07 [449bace0] (02/17) Accurately ripped
08 [75f9fd31] (02/17) Accurately ripped
09 [63da6511] (02/17) Accurately ripped
10 [74ef935d] (02/17) Accurately ripped
11 [118e98af] (02/16) Accurately ripped

Track Peak [ CRC32 ] [W/O NULL] [ LOG ]
– 98,8 [85781625] [B5F7BE62] CRC32
01 98,6 [CA014F67] [CF0EA745]
02 78,8 [AA6E7B73] [22894724]
03 91,5 [72B7DBB6] [332B6D39]
04 98,6 [EEBBED4A] [F63C5E6E]
05 94,1 [F89BBBAC] [72EC9B40]
06 89,8 [3650CC18] [51B24798]
07 93,8 [0097D332] [1822C878]
08 98,8 [D9E3ED28] [9A05C9FD]
09 93,0 [92F2249C] [DE40624A]
10 74,4 [BC9CD920] [B4671D14]
11 98,6 [2FAAC105] [46977414]

Exact Audio Copy V0.99 prebeta 5 from 4. May 2009

EAC extraction logfile from 20. April 2010, 0:01

Tangerine Dream / Booster III

Used drive : ASUS DRW-1814BL Adapter: 0 ID: 0

Read mode : Secure
Utilize accurate stream : Yes
Defeat audio cache : Yes
Make use of C2 pointers : No

Read offset correction : 6
Overread into Lead-In and Lead-Out : No
Fill up missing offset samples with silence : Yes
Delete leading and trailing silent blocks : No
Null samples used in CRC calculations : Yes
Used interface : Native Win32 interface for Win NT & 2000

Used output format : Internal WAV Routines
Sample format : 44.100 Hz; 16 Bit; Stereo


TOC of the extracted CD

Track | Start | Length | Start sector | End sector
––––––––––––––––––––––––––––-
1 | 0:00.00 | 8:45.68 | 0 | 39442
2 | 8:45.68 | 7:58.48 | 39443 | 75340
3 | 16:44.41 | 4:26.57 | 75341 | 95347
4 | 21:11.23 | 7:39.19 | 95348 | 129791
5 | 28:50.42 | 9:40.52 | 129792 | 173343
6 | 38:31.19 | 6:17.67 | 173344 | 201685
7 | 44:49.11 | 5:04.24 | 201686 | 224509
8 | 49:53.35 | 7:00.32 | 224510 | 256041
9 | 56:53.67 | 7:07.38 | 256042 | 288104
10 | 64:01.30 | 7:25.43 | 288105 | 321522
11 | 71:26.73 | 3:43.72 | 321523 | 338319


Range status and errors

Selected range

Filename D:\EAC\Tangerine Dream - Booster III (CD 2).wav

Peak level 100.0 %
Range quality 100.0 %
Test CRC 2637E847
Copy CRC 2637E847
Copy OK

No errors occurred


AccurateRip summary

Track 1 accurately ripped (confidence 1) [7784E52C]
Track 2 accurately ripped (confidence 1) [7B447468]
Track 3 accurately ripped (confidence 1) [B9A108B6]
Track 4 accurately ripped (confidence 1) [395AB838]
Track 5 accurately ripped (confidence 1) [378BFB5A]
Track 6 accurately ripped (confidence 1) [92DAE66D]
Track 7 accurately ripped (confidence 1) [3300F9E3]
Track 8 accurately ripped (confidence 1) [DEBCFDEE]
Track 9 accurately ripped (confidence 1) [D27A65F3]
Track 10 accurately ripped (confidence 1) [84D68979]
Track 11 accurately ripped (confidence 1) [A77D7F89]

All tracks accurately ripped

End of status report

[CUETools log; Date: 07.04.2021 0:28:13; Version: 2.1.4]
[CTDB TOCID: u4vhlT2Q1CBsYJm6X_JxWri4Fkw-] found.
Track | CTDB Status
1 | (34/34) Accurately ripped
2 | (34/34) Accurately ripped
3 | (34/34) Accurately ripped
4 | (34/34) Accurately ripped
5 | (34/34) Accurately ripped
6 | (34/34) Accurately ripped
7 | (34/34) Accurately ripped
8 | (34/34) Accurately ripped
9 | (34/34) Accurately ripped
10 | (32/34) Accurately ripped
11 | (34/34) Accurately ripped
[AccurateRip ID: 0020b4de-01183b2d-9a119e0b] found.
Track [ CRC | V2 ] Status
01 [7784e52c|56bf5ea3] (03+04/16) Accurately ripped
02 [7b447468|395af327] (03+04/16) Accurately ripped
03 [b9a108b6|b1b23c6b] (03+04/16) Accurately ripped
04 [395ab838|a2225636] (03+04/16) Accurately ripped
05 [378bfb5a|214f7bd6] (03+04/16) Accurately ripped
06 [92dae66d|62b47468] (03+04/16) Accurately ripped
07 [3300f9e3|9ab984d2] (03+04/16) Accurately ripped
08 [debcfdee|5e35d32a] (03+04/16) Accurately ripped
09 [d27a65f3|abadffe9] (03+04/16) Accurately ripped
10 [84d68979|14921ff7] (03+04/16) Accurately ripped
11 [a77d7f89|e7387074] (03+04/16) Accurately ripped
Offsetted by -655:
01 [0234d083] (02/16) Accurately ripped
02 [cd6181af] (02/16) Accurately ripped
03 [cf75cdd3] (02/16) Accurately ripped
04 [8b94a362] (02/16) Accurately ripped
05 [2ac9a9c4] (02/16) Accurately ripped
06 [a6e90e69] (02/16) Accurately ripped
07 [68babd7f] (02/16) Accurately ripped
08 [cabf7af4] (02/16) Accurately ripped
09 [3e835cb3] (02/16) Accurately ripped
10 [3631ae6b] (02/16) Accurately ripped
11 [3ea3371f] (02/16) Accurately ripped

Track Peak [ CRC32 ] [W/O NULL] [ LOG ]
– 100,0 [2637E847] [95E556CF] CRC32
01 97,3 [1A0F73C6] [FBE87DFF]
02 90,2 [2EFF6C51] [D3169AE4]
03 76,5 [B9CACEA1] [DB459611]
04 98,5 [D3B1DDC0] [4E9465FE]
05 98,6 [643EC8ED] [4E8C1B3A]
06 98,8 [FB85B1F1] [992A8F48]
07 93,6 [56677907] [F4FC8ACA]
08 97,3 [2A62624B] [710332C9]
09 96,9 [B07D9568] [1B95BB80]
10 79,4 [8423A54A] [7B2F4FBC]
11 100,0 [C509A28A] [1C02501C]

Thanks to the original releaser

See also:
Tangerine Dream - The Electronic Journey (2010) [10CD Box Set]
Tangerine Dream - The Dream Roots Collection [5CD Box Set] (1996)
Tangerine Dream - Electronic Meditation (1970) [Reissue 1996]
Tangerine Dream - Alpha Centauri (1971) [Reissue 1996]
Tangerine Dream - Alpha Centauri (1971) [Reissue 2011]
Tangerine Dream - Zeit (1972) [Reissue 1996]
Tangerine Dream - Atem (1973) [Reissue 2011]
Tangerine Dream - Phaedra (1974) [Original Edition]
Tangerine Dream - Phaedra (1974) [Definitive Edition 1995]
Tangerine Dream - Rubycon (1975) [Non-remastered, Reissue 1988]
Tangerine Dream - Rubycon (1975) [Definitive Edition 1995]
Tangerine Dream - Ricochet (1975) [Definitive Edition 1995]
Tangerine Dream - Stratosfear (1976) [Definitive Edition 1995]
Tangerine Dream - Encore (1977)
Tangerine Dream - Sorcerer (OST) (1977) [Reissue 2011]
Tangerine Dream - Force Majeure (1979) [Reissue 1995]
Tangerine Dream - Tangram (1980)
Tangerine Dream - Pergamon (1980) [Reissue 1996]
Tangerine Dream - White Eagle (1982) [Reissue 1995]
Tangerine Dream - Logos Live (1982) [Definitive Edition 1995]
Tangerine Dream - Hyperborea (1983)
Tangerine Dream - Wavelength [OST] (1983)
Tangerine Dream - Poland - The Warsaw Concert (1984) [Reissue 2011]
Tangerine Dream - Firestarter ...ion Picture Soundtrack] (1984)
Tangerine Dream - Underwater Sunlight (1986) [Reissue 1996]
Tangerine Dream - Green Desert [Recorded 1973] (1986)
Tangerine Dream - Legend (OST) (1986) [Reissue 1995]
Tangerine Dream - Tyger (1987) [Reissue 1996]
Tangerine Dream - Three O'Clock High [OST] (1987)
Tangerine Dream - Optical Race (1988)
Tangerine Dream - Live Miles (1988) [Reissue 2003]
Tangerine Dream - Lily On The Beach (1989)
Tangerine Dream - Melrose (1990)
Tangerine Dream - Dead Solid Perfect (OST) (1990)
Tangerine Dream - The Park Is Mine (OST) (1991)
Tangerine Dream - Rockoon (1992) [Reissue 2000]
Tangerine Dream - Deadly Care (OST) (1992)
Tangerine Dream - Quinoa (1992) [Reissue 2009]
Tangerine Dream - Catch Me If You Can (OST) (1994)
Tangerine Dream - Tyranny Of Beauty (1995)
Tangerine Dream - Goblins' Club (1996)
Tangerine Dream - Zoning (OST) (1996)
Tangerine Dream - The Analogue Space Years 1969-1973 (1998)
Tangerine Dream - The Hollywood Years Vol. 1 (1998)
Tangerine Dream - The Hollywood Years Vol. 2 (1998)
Tangerine Dream - Antique Dreams (2000)
Tangerine Dream - Soundmill Navigator (2000)
Tangerine Dream - The Bootleg Box Set Vol. 1 [7CD] (2003)
Tangerine Dream - Purgatorio (2004)
Tangerine Dream - Arizona Live '92 (2004) [Reissue 2009]
Tangerine Dream - Phaedra 2005 (2005) [Japanese Edition 2009]
Tangerine Dream - Cleveland - June 24th 1986 (2005)
Tangerine Dream - Blue Dawn (2006)
Tangerine Dream - The Essential Tangerine Dream (2006)
Tangerine Dream - Plays Tangerine Dream (2006)
Tangerine Dream - Springtime In Nagasaki (2007)
Tangerine Dream - Views From A Red Train (2008)
Tangerine Dream - Booster (2008)
Tangerine Dream - Booster Vol. 2 (2008)
Tangerine Dream - The Antholog... Space Years Volume One (2008)
Tangerine Dream - Axiat [Recorded 1999-2005] (2009)
Tangerine Dream - Music For Sports: Cool Races (2009)
Tangerine Dream - Music For Sports: Power And Motion (2009)
Tangerine Dream - DM V (Dream Mixes V) (2010)
Tangerine Dream - The London Eye Concert (2010)
Tangerine Dream - Zeitgeist Concert [3CD Box Set] (2010)
Tangerine Dream - The Virgin Years 1974-1978 [3CD Box Set] (2011)
Tangerine Dream - The Official...ies Vol.1 [4CD Box Set] (2015)
Tangerine Dream - Live At The Tempodrome Berlin (2006) [DVD]
Tangerine Dream - Live At Coventry Cathedral 1975 (2007) [DVD]
Tangerine Dream - Madcap's Flaming Duty [DVD] (2007)
Tangerine Dream - 35th Phaedra Anniversary Concert [2DVD] (2007)
Edgar Froese - 2 Albums (1974-1995)
Edgar Froese - Ages (1978) [Reissue 1997]
Edgar Froese - Pinnacles (1983)