Subcategories
Tags
Language
Tags

Tangerine Dream - Flame (2009)

Posted By: gribovar
Tangerine Dream - Flame (2009)

Tangerine Dream - Flame (2009)
EAC Rip | FLAC (image+.cue+log) - 302 MB | MP3 CBR 320 kbps (LAME 3.93) - 103 MB | Covers included
Genre: Traditional Electronic, Berlin School | RAR 3% Rec. | Label: Eastgate (035 CD)

Now the series of so-called cupdiscs continues: enjoy another full length EP (more than 40 minutes) with stunning new compositions and two well-known pieces in different so far unheard versions while having a cup of tea or coffee.

Tracklist:
01. Synth Affection
02. Pier 54
03. Lord Nelson
04. Ça Va - Ça Marche - Ça Ira Encore (Orchestral)
05. Timeless
06. Ride On The Ray (Atlantic Ocean Version)
07. Peddington At Five
08. Morning Star

Total time: 42:59

Exact Audio Copy V0.99 prebeta 4 from 23. January 2008

Отчёт EAC об извлечении, выполненном 2. сентября 2009, 18:34

Tangerine Dream / Flame

Дисковод: HL-DT-STDVD-RAM GSA-H55N Adapter: 1 ID: 1

Режим чтения : Достоверность
Использование точного потока : Да
Отключение кэша аудио : Да
Использование указателей C2 : Нет

Коррекция смещения при чтении : 102
Способность читать области Lead-in и Lead-out : Нет
Заполнение пропущенных сэмплов тишиной : Да
Удаление блоков с тишиной в начале и конце : Нет
При вычислениях CRC использовались нулевые сэмплы : Нет
Интерфейс : Встроенный Win32-интерфейс для Win NT/2000

Выходной формат : Пользовательский кодировщик
Выбранный битрейт : 1024 kBit/s
Качество : Высокий
Добавление ID3-тэга : Да
Утилита сжатия : C:\Program Files\Exact Audio Copy\FLAC\FLAC.EXE
Дополнительные параметры : -6 -V -T "ARTIST=%a" -T "TITLE=%t" -T "ALBUM=%g" -T "DATE=%y" -T "TRACKNUMBER=%n" -T "GENRE=%m" -T "COMMENT=%e" %s -o %d


TOC извлечённого CD

Трек | Старт | Длительность | Начальный сектор | Конечный сектор
––––––––––––––––––––––––––––––––––-
1 | 0:00.00 | 4:28.37 | 0 | 20136
2 | 4:28.37 | 5:41.06 | 20137 | 45717
3 | 10:09.43 | 5:07.54 | 45718 | 68796
4 | 15:17.22 | 5:01.38 | 68797 | 91409
5 | 20:18.60 | 4:05.61 | 91410 | 109845
6 | 24:24.46 | 6:18.08 | 109846 | 138203
7 | 30:42.54 | 7:14.52 | 138204 | 170805
8 | 37:57.31 | 5:01.46 | 170806 | 193426


Характеристики диапазона извлечения и сообщения об ошибках

Выбранный диапазон

Имя файла D:\mydoc\My Music\Tangerine Dream\Tangerine Dream-Flame(2009)\Tangerine Dream - Flame.wav

Пиковый уровень 99.1 %
Качество диапазона 99.9 %
CRC копии 9B6C9791
Копирование… OK

Ошибок не произошло


AccurateRip: сводка

Трек 1 точное извлечение (доверие 1) [816A6092]
Трек 2 точное извлечение (доверие 1) [BBD4F676]
Трек 3 точное извлечение (доверие 1) [AFECBE05]
Трек 4 точное извлечение (доверие 1) [2457CE4C]
Трек 5 точное извлечение (доверие 1) [E427CBB8]
Трек 6 точное извлечение (доверие 1) [D8D1D1DC]
Трек 7 точное извлечение (доверие 1) [32D51C41]
Трек 8 точное извлечение (доверие 1) [0C317C7F]

Все треки извлечены точно

Конец отчёта

[CUETools log; Date: 26.04.2021 14:51:00; Version: 2.1.4]
[CTDB TOCID: reNh6yBhlEaP.wjAI_lEhLHOJeg-] found.
Track | CTDB Status
1 | (15/15) Accurately ripped
2 | (15/15) Accurately ripped
3 | (15/15) Accurately ripped
4 | (15/15) Accurately ripped
5 | (15/15) Accurately ripped
6 | (15/15) Accurately ripped
7 | (15/15) Accurately ripped
8 | (15/15) Accurately ripped
[AccurateRip ID: 000ccac9-00561cc6-610a1308] found.
Track [ CRC | V2 ] Status
01 [816a6092|b9d45ab6] (09+07/16) Accurately ripped
02 [bbd4f676|7f4cadcc] (09+07/16) Accurately ripped
03 [afecbe05|269369ea] (09+07/16) Accurately ripped
04 [2457ce4c|53fb1e87] (08+07/15) Accurately ripped
05 [e427cbb8|e4dc70ef] (08+07/15) Accurately ripped
06 [d8d1d1dc|c9b749e6] (08+07/15) Accurately ripped
07 [32d51c41|a73f8027] (09+07/16) Accurately ripped
08 [0c317c7f|a0f8899a] (09+07/16) Accurately ripped

Track Peak [ CRC32 ] [W/O NULL] [ LOG ]
– 99,1 [7687AB7D] [9B6C9791] W/O NULL
01 98,8 [2202CFEB] [5A70BEA7]
02 98,8 [C3DBD0E7] [3545BDA4]
03 98,8 [08B7979D] [9927EDD2]
04 98,7 [4E6D6832] [0CEDCDD0]
05 98,7 [E10E2691] [EF368190]
06 99,1 [D352E97A] [52575740]
07 98,8 [86B1005C] [087B3D76]
08 98,8 [CDDFECEA] [5934B09C]

Thanks to parsrecar

See also:
Tangerine Dream - The Electronic Journey (2010) [10CD Box Set]
Tangerine Dream - The Dream Roots Collection [5CD Box Set] (1996)
Tangerine Dream - Electronic Meditation (1970) [Reissue 1996]
Tangerine Dream - Alpha Centauri (1971) [Reissue 1996]
Tangerine Dream - Alpha Centauri (1971) [Reissue 2011]
Tangerine Dream - Zeit (1972) [Reissue 1996]
Tangerine Dream - Atem (1973) [Reissue 2011]
Tangerine Dream - Phaedra (1974) [Original Edition]
Tangerine Dream - Phaedra (1974) [Definitive Edition 1995]
Tangerine Dream - Rubycon (1975) [Non-remastered, Reissue 1988]
Tangerine Dream - Rubycon (1975) [Definitive Edition 1995]
Tangerine Dream - Ricochet (1975) [Definitive Edition 1995]
Tangerine Dream - Stratosfear (1976) [Definitive Edition 1995]
Tangerine Dream - Encore (1977)
Tangerine Dream - Sorcerer (OST) (1977) [Reissue 2011]
Tangerine Dream - Force Majeure (1979) [Reissue 1995]
Tangerine Dream - Tangram (1980)
Tangerine Dream - Pergamon (1980) [Reissue 1996]
Tangerine Dream - White Eagle (1982) [Reissue 1995]
Tangerine Dream - Logos Live (1982) [Definitive Edition 1995]
Tangerine Dream - Hyperborea (1983)
Tangerine Dream - Wavelength [OST] (1983)
Tangerine Dream - Poland - The Warsaw Concert (1984) [Reissue 2011]
Tangerine Dream - Firestarter ...ion Picture Soundtrack] (1984)
Tangerine Dream - Underwater Sunlight (1986) [Non-Remastered]
Tangerine Dream - Underwater Sunlight (1986) [Reissue 1996]
Tangerine Dream - Green Desert [Recorded 1973] (1986)
Tangerine Dream - Legend (OST) (1986) [Reissue 1995]
Tangerine Dream - Tyger (1987) [Reissue 1992, US version]
Tangerine Dream - Tyger (1987) [Reissue 1996]
Tangerine Dream - Three O'Clock High [OST] (1987)
Tangerine Dream - Optical Race (1988)
Tangerine Dream - Live Miles (1988) [Reissue 2003]
Tangerine Dream - Lily On The Beach (1989)
Tangerine Dream - Melrose (1990)
Tangerine Dream - Dead Solid Perfect (OST) (1990)
Tangerine Dream - The Park Is Mine (OST) (1991)
Tangerine Dream - Rockoon (1992) [Reissue 2000]
Tangerine Dream - Deadly Care (OST) (1992)
Tangerine Dream - Quinoa (1992) [Reissue 2009]
Tangerine Dream - The Story Of Tangerine Dream (1992)
Tangerine Dream - Catch Me If You Can (OST) (1994)
Tangerine Dream - Tyranny Of Beauty (1995)
Tangerine Dream - Goblins' Club (1996)
Tangerine Dream - Zoning (OST) (1996)
Tangerine Dream - The Analogue Space Years 1969-1973 (1998)
Tangerine Dream - The Hollywood Years Vol. 1 (1998)
Tangerine Dream - The Hollywood Years Vol. 2 (1998)
Tangerine Dream - Atlantic Bridges [Recorded 1988-1997] (1998)
Tangerine Dream - Antique Dreams (2000)
Tangerine Dream - Soundmill Navigator (2000)
Tangerine Dream - The Bootleg Box Set Vol. 1 [7CD] (2003)
Tangerine Dream - Rockface: Li...ey / San Francisco 1988 (2003)
Tangerine Dream - Purgatorio (2004)
Tangerine Dream - Arizona Live '92 (2004) [Reissue 2009]
Tangerine Dream - Phaedra 2005 (2005) [Japanese Edition 2009]
Tangerine Dream - Cleveland - June 24th 1986 (2005)
Tangerine Dream - Blue Dawn (2006)
Tangerine Dream - The Essential Tangerine Dream (2006)
Tangerine Dream - Plays Tangerine Dream (2006)
Tangerine Dream - One Times One (2007)
Tangerine Dream - Springtime In Nagasaki (2007)
Tangerine Dream - Summer In Nagasaki (2007)
Tangerine Dream - Autumn In Hiroshima (2008)
Tangerine Dream - Views From A Red Train (2008)
Tangerine Dream - Booster (2008)
Tangerine Dream - Booster Vol. 2 (2008)
Tangerine Dream - The Antholog... Space Years Volume One (2008)
Tangerine Dream - Booster III (2009)
Tangerine Dream - Axiat [Recorded 1999-2005] (2009)
Tangerine Dream - Music For Sports: Cool Races (2009)
Tangerine Dream - Music For Sports: Power And Motion (2009)
Tangerine Dream - DM V (Dream Mixes V) (2010)
Tangerine Dream - The Endless Season (2010)
Tangerine Dream - The London Eye Concert (2010)
Tangerine Dream - Zeitgeist Concert [3CD Box Set] (2010)
Tangerine Dream - Mona Da Vinci (2011)
Tangerine Dream - The Virgin Years 1974-1978 [3CD Box Set] (2011)
Tangerine Dream - Booster IV (2011)
Tangerine Dream - Booster V (2012)
Tangerine Dream - The Official...ies Vol.1 [4CD Box Set] (2015)
Tangerine Dream - Live At The Tempodrome Berlin (2006) [DVD]
Tangerine Dream - Live At Coventry Cathedral 1975 (2007) [DVD]
Tangerine Dream - Madcap's Flaming Duty [DVD] (2007)
Tangerine Dream - 35th Phaedra Anniversary Concert [2DVD] (2007)
Edgar Froese - 2 Albums (1974-1995)
Edgar Froese - Ages (1978) [Reissue 1997]
Edgar Froese - Pinnacles (1983)