Tags
Language
Tags

Ted Nugent - Albums Collection: Nugent (1982); Penetrator (1984); Little Miss Dangerous (1986) (3CD) Reissues 2001

Posted By: Designol
Ted Nugent - Albums Collection: Nugent (1982); Penetrator (1984); Little Miss Dangerous (1986) (3CD) Reissues 2001

Ted Nugent - Albums Collection 1982-1986 (3CD) Reissues 2001
Nugent (1982); Penetrator (1984); Little Miss Dangerous (1986)

EAC | FLAC | Tracks (Cue&Log) ~ 840 Mb | Mp3 (CBR320) ~ 338 Mb | Scans included
Genre: Hard Rock, Arena Rock, Heavy Metal | Time: 02:00:04

Ted Nugent is a stalwart American hard rock singer, songwriter, and guitarist who is as divisive as he is legendary. Throughout his lengthy career, the Motor City Madman has reveled in the controversy and criticism that always seem to follow in his path – his pro-right-wing beliefs and pro-gun advocacy have caused condemnation from his detractors – but his wildman persona and knack for penning arena rock anthems made him one of the biggest rock stars of the late '70s and early '80s.

Ted Nugent - Albums Collection: Nugent (1982); Penetrator (1984); Little Miss Dangerous (1986) (3CD) Reissues 2001





Ted Nugent - Albums Collection: Nugent (1982); Penetrator (1984); Little Miss Dangerous (1986) (3CD) Reissues 2001

Ted Nugent - Nugent (1982) Reissue 2001
EAC | FLAC | Tracks (Cue&Log) ~ 263 Mb | Mp3 (CBR320) ~ 95 Mb | Scans included
Label: Spitfire Records | # SPT-15151-2 | Time: 00:39:45

While many Ted fans think he fell off the earth after 1981's Intensities In 10 Cities, that is not true. This album contains many songs that would have easily been at home on some of his earlier albums. the cuts Fightin' Words, Tailgunner, We're Gonna Rock, Habitual Offender and Don't Push me all contain the tough guy Ted formula that made him a star in the first place. Tailgunner is equal to Stranglehold and Smokescreen for it's power. Four songs mention guns, classic Nuge. The song Bound And Gagged is a patriotic song about the Iranian hostage crisis. This album boasts Derek St. Holmes at singer, and he sounds good. Teds guitar work is fast and crisp. This album gets a bad rap because it marks a point where Ted for whatever reason tried to change the direction of his career. Many of the albums after this were a joke, but this one is solid. In recent years Ted has released the excellent albums Spirit of Wild and 1979 Live At Hammersmith, but on the whole new Ted albums are becoming more rare than Bigfoot sightings, don't overlook this unfairly maligned album.

Review by Richard P. Mayhew, Amazon.com

The 1982 release of Ted Nugent's second self-titled release ushered in a new era for the Motor City Madman. With his relationship with Epic having run its course, the Nuge signed a deal with Atlantic Records. From the album's black-and-white sleeve to a reunion of sorts with the undervalued, underappreciated Derek St. Holmes, Nugent made it evident that for all intensive purposes, this album was meant to be a "return to basics." Producing the record himself, Nugent surrounded himself with an ace band that included Jeff Beck/Rod Stewart drummer Carmine Appice as well as Pat Travers and longtime Nugent bass player Dave Kiswiney. Kicking off with the classic Nuge rocker "No, No, No" and "Bound and Gagged," Nugent gets off to a strong start. Unfortunately, things quickly deteriorate from there. The tracks that follow tend to run from the mediocre "Fightin' Words" to the just plain awful, like "We're Gonna Rock Tonight." On a positive note, the album's compact production has not only aged well, it has proved to be Nugent's only relevant sounding record of the '80s. For hardcore Nugent fans only.

Review by John Franck, Allmusic.com


Tracklist:

01. No, No, No (3:40)
02. Bound and Gagged (4:35)
03. Habitual Offender (3:09)
04. Fightin' Words (3:59)
05. Good and Ready (4:19)
06. Ebony (4:27)
07. Don't Push Me (2:35)
08. Can't Stop Me Now (2:34)
09. We're Gonna Rock Tonight (3:22)
10. Tailgunner (7:04)


Exact Audio Copy V1.0 beta 3 from 29. August 2011

EAC extraction logfile from 24. November 2011, 19:03

Ted Nugent / Nugent

Used drive : PLEXTOR DVDR PX-810SA Adapter: 2 ID: 1

Read mode : Secure
Utilize accurate stream : Yes
Defeat audio cache : Yes
Make use of C2 pointers : No

Read offset correction : 48
Overread into Lead-In and Lead-Out : No
Fill up missing offset samples with silence : Yes
Delete leading and trailing silent blocks : No
Null samples used in CRC calculations : Yes
Used interface : Installed external ASPI interface
Gap handling : Appended to previous track

Used output format : User Defined Encoder
Selected bitrate : 32 kBit/s
Quality : Low
Add ID3 tag : No
Command line compressor : C:\Program Files\Exact Audio Copy\FLAC\FLAC.EXE
Additional command line options : -8 -V -T "ARTIST=%artist%" -T "TITLE=%title%" -T "ALBUM=%albumtitle%" -T "DATE=%year%" -T "TRACKNUMBER=%tracknr%" -T "GENRE=%genre%" -T "COMMENT=EAC FLAC -8" %source%


TOC of the extracted CD

Track | Start | Length | Start sector | End sector
––––––––––––––––––––––––––––-
1 | 0:00.00 | 3:39.62 | 0 | 16486
2 | 3:39.62 | 4:34.55 | 16487 | 37091
3 | 8:14.42 | 3:09.33 | 37092 | 51299
4 | 11:24.00 | 3:59.22 | 51300 | 69246
5 | 15:23.22 | 4:19.13 | 69247 | 88684
6 | 19:42.35 | 4:26.65 | 88685 | 108699
7 | 24:09.25 | 2:35.32 | 108700 | 120356
8 | 26:44.57 | 2:34.30 | 120357 | 131936
9 | 29:19.12 | 3:21.58 | 131937 | 147069
10 | 32:40.70 | 7:03.52 | 147070 | 178846


Track 1

Filename C:\Program Files\BitComet\Downloads\Ted Nugent - Nugent (1982)\01 - No, No, No.wav

Pre-gap length 0:00:02.00

Peak level 97.7 %
Extraction speed 3.7 X
Track quality 100.0 %
Test CRC C40F9854
Copy CRC C40F9854
Accurately ripped (confidence 3) [BC1CBB05] (AR v1)
Copy OK

Track 2

Filename C:\Program Files\BitComet\Downloads\Ted Nugent - Nugent (1982)\02 - Bound and Gagged.wav

Peak level 97.7 %
Extraction speed 4.1 X
Track quality 100.0 %
Test CRC FE1CD49C
Copy CRC FE1CD49C
Accurately ripped (confidence 3) [E87570AC] (AR v1)
Copy OK

Track 3

Filename C:\Program Files\BitComet\Downloads\Ted Nugent - Nugent (1982)\03 - Habitual Offender.wav

Peak level 97.7 %
Extraction speed 4.2 X
Track quality 100.0 %
Test CRC E42472DC
Copy CRC E42472DC
Accurately ripped (confidence 3) [120B4B56] (AR v1)
Copy OK

Track 4

Filename C:\Program Files\BitComet\Downloads\Ted Nugent - Nugent (1982)\04 - Fightin' Words.wav

Peak level 97.7 %
Extraction speed 4.6 X
Track quality 100.0 %
Test CRC 0B65B909
Copy CRC 0B65B909
Accurately ripped (confidence 3) [29EF850C] (AR v1)
Copy OK

Track 5

Filename C:\Program Files\BitComet\Downloads\Ted Nugent - Nugent (1982)\05 - Good and Ready.wav

Peak level 97.7 %
Extraction speed 4.9 X
Track quality 100.0 %
Test CRC 78B95B17
Copy CRC 78B95B17
Accurately ripped (confidence 3) [1C18B5CB] (AR v1)
Copy OK

Track 6

Filename C:\Program Files\BitComet\Downloads\Ted Nugent - Nugent (1982)\06 - Ebony.wav

Pre-gap length 0:00:00.18

Peak level 97.7 %
Extraction speed 5.2 X
Track quality 100.0 %
Test CRC 7AFA55B1
Copy CRC 7AFA55B1
Accurately ripped (confidence 3) [65AE0749] (AR v1)
Copy OK

Track 7

Filename C:\Program Files\BitComet\Downloads\Ted Nugent - Nugent (1982)\07 - Don't Push Me.wav

Peak level 97.7 %
Extraction speed 4.9 X
Track quality 100.0 %
Test CRC B46363F9
Copy CRC B46363F9
Accurately ripped (confidence 3) [9FF7E887] (AR v1)
Copy OK

Track 8

Filename C:\Program Files\BitComet\Downloads\Ted Nugent - Nugent (1982)\08 - Can't Stop Me Now.wav

Peak level 97.7 %
Extraction speed 5.0 X
Track quality 100.0 %
Test CRC DDB9CA27
Copy CRC DDB9CA27
Accurately ripped (confidence 3) [CC50300E] (AR v1)
Copy OK

Track 9

Filename C:\Program Files\BitComet\Downloads\Ted Nugent - Nugent (1982)\09 - We're Gonna Rock Tonight.wav

Peak level 97.7 %
Extraction speed 5.4 X
Track quality 100.0 %
Test CRC 53506251
Copy CRC 53506251
Accurately ripped (confidence 3) [4616C8C0] (AR v1)
Copy OK

Track 10

Filename C:\Program Files\BitComet\Downloads\Ted Nugent - Nugent (1982)\10 - Tailgunner.wav

Peak level 97.7 %
Extraction speed 6.2 X
Track quality 100.0 %
Test CRC 8EA8BBD3
Copy CRC 8EA8BBD3
Accurately ripped (confidence 3) [AE99A7DE] (AR v1)
Copy OK


All tracks accurately ripped

No errors occurred

End of status report

==== Log checksum B940F81592E4FB7F574C14F49E007E0ACD6B6637ABBB0304CC121B21B751B608 ====

[CUETools log; Date: 27.02.2018 18:27:31; Version: 2.1.4]
[CTDB TOCID: zEDUcP9.by8ItLmR4H7foaXdbFs-] found.
Track | CTDB Status
1 | ( 6/10) Accurately ripped, or (4/10) differs in 2 samples @00:00:26
2 | (10/10) Accurately ripped
3 | (10/10) Accurately ripped
4 | (10/10) Accurately ripped
5 | (10/10) Accurately ripped
6 | (10/10) Accurately ripped
7 | (10/10) Accurately ripped
8 | (10/10) Accurately ripped
9 | (10/10) Accurately ripped
10 | ( 6/10) Accurately ripped, or (4/10) differs in 3 samples @07:03:15,07:03:25
[AccurateRip ID: 000e7dda-00739daa-8509500a] found.
Track [ CRC | V2 ] Status
01 [bc1cbb05|76b1da51] (02+03/15) Accurately ripped
02 [e87570ac|d88a33c4] (02+03/14) Accurately ripped
03 [120b4b56|f9ea731e] (02+03/14) Accurately ripped
04 [29ef850c|9ab25467] (02+03/14) Accurately ripped
05 [1c18b5cb|0577722b] (02+03/14) Accurately ripped
06 [65ae0749|e99eb563] (02+03/15) Accurately ripped
07 [9ff7e887|dabac312] (02+03/14) Accurately ripped
08 [cc50300e|6efc6157] (02+03/14) Accurately ripped
09 [4616c8c0|5d06a4e0] (02+03/15) Accurately ripped
10 [ae99a7de|cd686176] (02+03/14) Accurately ripped
Offsetted by -180:
01 [2b4de292] (00/15) No match (V2 was not tested)
02 [5f13ebce] (00/14) No match (V2 was not tested)
03 [c44bf6c9] (00/14) No match (V2 was not tested)
04 [2f072a97] (00/14) No match (V2 was not tested)
05 [c76934fe] (00/14) No match (V2 was not tested)
06 [53973f73] (00/15) No match (V2 was not tested)
07 [228fd813] (00/14) No match (V2 was not tested)
08 [0409a911] (00/14) No match (V2 was not tested)
09 [502de84e] (00/15) No match (V2 was not tested)
10 [f53baf27] (00/14) No match (V2 was not tested)
Offsetted by -138:
01 [378c5f99] (00/15) No match (V2 was not tested)
02 [e1038a81] (00/14) No match (V2 was not tested)
03 [cf271665] (00/14) No match (V2 was not tested)
04 [58ed1f6e] (00/14) No match (V2 was not tested)
05 [ed986f1b] (00/14) No match (V2 was not tested)
06 [611ac3e9] (00/15) No match (V2 was not tested)
07 [eca283ed] (00/14) No match (V2 was not tested)
08 [ce6216a7] (00/14) No match (V2 was not tested)
09 [322bd971] (00/15) No match (V2 was not tested)
10 [592aa932] (00/14) No match (V2 was not tested)
Offsetted by -72:
01 [d801ab15] (00/15) No match (V2 was not tested)
02 [5188eceb] (00/14) No match (V2 was not tested)
03 [7c8edc5c] (00/14) No match (V2 was not tested)
04 [ced8b8e0] (00/14) No match (V2 was not tested)
05 [2b0f3c66] (00/14) No match (V2 was not tested)
06 [6de0a6d5] (00/15) No match (V2 was not tested)
07 [714a00be] (00/14) No match (V2 was not tested)
08 [2e40f3a7] (00/14) No match (V2 was not tested)
09 [43f67784] (00/15) No match (V2 was not tested)
10 [cee8f6e2] (00/14) No match (V2 was not tested)

Track Peak [ CRC32 ] [W/O NULL] [ LOG ]
– 97,7 [BEF25D23] [167B86F6]
01 97,7 [C40F9854] [4EA04673] CRC32
02 97,7 [FE1CD49C] [A9F1173C] CRC32
03 97,7 [E42472DC] [CBA23A37] CRC32
04 97,7 [0B65B909] [CB7AD0AE] CRC32
05 97,7 [78B95B17] [047FE91D] CRC32
06 97,7 [7AFA55B1] [8A42A27D] CRC32
07 97,7 [B46363F9] [FAFF6C2A] CRC32
08 97,7 [DDB9CA27] [7383F6AB] CRC32
09 97,7 [53506251] [156E5218] CRC32
10 97,7 [8EA8BBD3] [B6DC87D6] CRC32

foobar2000 1.2 / Dynamic Range Meter 1.1.1
log date: 2018-02-27 18:35:40

––––––––––––––––––––––––––––––––––––––––
Analyzed: Ted Nugent / Nugent
––––––––––––––––––––––––––––––––––––––––

DR Peak RMS Duration Track
––––––––––––––––––––––––––––––––––––––––
DR13 -0.20 dB -14.94 dB 3:40 01-No, No, No
DR12 -0.20 dB -13.88 dB 4:35 02-Bound and Gagged
DR12 -0.20 dB -14.02 dB 3:09 03-Habitual Offender
DR13 -0.20 dB -15.89 dB 3:59 04-Fightin' Words
DR13 -0.20 dB -14.77 dB 4:19 05-Good and Ready
DR12 -0.20 dB -14.29 dB 4:27 06-Ebony
DR13 -0.20 dB -14.13 dB 2:35 07-Don't Push Me
DR12 -0.20 dB -13.22 dB 2:34 08-Can't Stop Me Now
DR12 -0.20 dB -13.12 dB 3:22 09-We're Gonna Rock Tonight
DR13 -0.20 dB -14.39 dB 7:04 10-Tailgunner
––––––––––––––––––––––––––––––––––––––––

Number of tracks: 10
Official DR value: DR12

Samplerate: 44100 Hz
Channels: 2
Bits per sample: 16
Bitrate: 930 kbps
Codec: FLAC
================================================================================

Ted Nugent - Albums Collection: Nugent (1982); Penetrator (1984); Little Miss Dangerous (1986) (3CD) Reissues 2001

Ted Nugent - Albums Collection: Nugent (1982); Penetrator (1984); Little Miss Dangerous (1986) (3CD) Reissues 2001




Ted Nugent - Albums Collection: Nugent (1982); Penetrator (1984); Little Miss Dangerous (1986) (3CD) Reissues 2001

Ted Nugent - Penetrator (1984) Reissue 2001
EAC | FLAC | Tracks (Cue&Log) ~ 299 Mb | Mp3 (CBR320) ~ 134 Mb | Scans included
Label: Spitfire | # SPITMCD 152 | Time: 00:40:44

Ted's guitar licks are as prominent as ever, as evidenced on such standouts as the album-opening "Tied Up in Love." on this album, the follow-up to, Nugent . British singer Brian Howe (Bad Company) replaced Derek St. Holmes on vocals on this album and the sound of the time steps in with a little more keyboard than one would expect from the extreme rocker.

Back in the early 80's when MTV ignored 70's rockers like Ted, he was releasing some great material. For those of you who remember U68 the UHF channel that played hard rock videos during the Power Hour, I saw the video for Tied Up In Love(Coal Miner Ted with chicks). My addiction to Ted Nugent began. This album rocks hard with classic rock tunes and scorching guitar. Classic songs like Thunder Thighs, Draw the Line and Go Down Fighting are Great stuff. Its a shame this album fell between the cracks. If your a Ted fan buy it. If your not a nugent fan and you buy it you will be.

Review by Paul G. Vigilante, Amazon.com

Ted Nugent's sophomore release for Atlantic makes a classic case in point for an artist trying to catch up to the times and being a half-step behind. On Penetrator, the Nuge enlisted two-thirds of Billy Squier's backup band, which at one time included longtime Squier keyboard player Alan St. John and veteran drummer Bobby Chouinard. Nugent also hired future Bad Company frontman Brian Howe to handle vocal duties along with Doors bassist Doug Lubahn. Together, this odd mix of arena rockers would enter New York's Power Station to cut basic tracks for what would emerge to be one of Nugent's most underwhelming releases. The first gaping problem lies with Penetrator's production itself. Arena rocker aficionados take note: the album clearly emulates the production of Billy Squier's '80s albums. The rhythm tracks are virtual blueprints for Squier's Emotions in Motion and Signs of Life, which, ironically, was released the same year as Penetrator. Producer Ashley Howe's dated production not only makes relistening to this record difficult, it also takes away from what could have been a decent set of songs. The Nugent aesthetic of Nugent is dead and buried, albeit replaced by the cotton-candy arena schlock of "Tied Up in Love," "Knockin' at Your Door," and "Thunder Thighs" (all of which had potential, but are instead reduced to an ill-advised keyboard-laden smorgasbord that wouldn't have sounded out of place on a bad Survivor record). Another potential rocker, "Lean Mean R&R Machine," and the melancholic ballad "Take Me Home" also fall short. Curiously, the ensuing tour would see Nugent playing mid-sized theaters with vocalist Brian Howe once again at the helm. In a live setting, these songs (minus the studio mucky muck) would fit neatly into a set that highlighted Nugent's past hits.

Review by John Franck, Allmusic.com


Tracklist:

01. Tied Up In Love (4:23)
02. (Where Do You) Draw The Line (3:25)
03. Knockin' At Your Door (3:53)
04. Don't You Want My Love (3:31)
05. Go Down Fighting (4:43)
06. Thunder Thighs (4:08)
07. No Man's Land (3:25)
08. Blame It On The Night (4:14)
09. Lean Mean R & R Machine (3:57)
10. Take Me Home (5:06)


Exact Audio Copy V0.99 prebeta 5 from 4. May 2009

EAC extraction logfile from 21. September 2010, 15:46

Ted Nugent / Penetrator

Used drive : PLEXTOR DVDR PX-810SA Adapter: 3 ID: 1

Read mode : Secure
Utilize accurate stream : Yes
Defeat audio cache : Yes
Make use of C2 pointers : No

Read offset correction : 48
Overread into Lead-In and Lead-Out : No
Fill up missing offset samples with silence : Yes
Delete leading and trailing silent blocks : No
Null samples used in CRC calculations : Yes
Used interface : Installed external ASPI interface
Gap handling : Appended to previous track

Used output format : User Defined Encoder
Selected bitrate : 32 kBit/s
Quality : High
Add ID3 tag : No
Command line compressor : C:\Program Files\Exact Audio Copy\FLAC\FLAC.EXE
Additional command line options : -8 -V -T "ARTIST=%a" -T "TITLE=%t" -T "ALBUM=%g" -T "DATE=%y" -T "TRACKNUMBER=%n" -T "GENRE=%m" -T "COMMENT=EAC FLAC -8" %s


TOC of the extracted CD

Track | Start | Length | Start sector | End sector
––––––––––––––––––––––––––––-
1 | 0:00.00 | 4:23.10 | 0 | 19734
2 | 4:23.10 | 3:25.32 | 19735 | 35141
3 | 7:48.42 | 3:53.08 | 35142 | 52624
4 | 11:41.50 | 3:30.62 | 52625 | 68436
5 | 15:12.37 | 4:42.48 | 68437 | 89634
6 | 19:55.10 | 4:07.62 | 89635 | 108221
7 | 24:02.72 | 3:24.43 | 108222 | 123564
8 | 27:27.40 | 4:13.40 | 123565 | 142579
9 | 31:41.05 | 3:56.55 | 142580 | 160334
10 | 35:37.60 | 5:06.02 | 160335 | 183286


Track 1

Filename E:\Muzons\Ted Nugent - Penetrator (1984) [FLAC] {2001 Spitfire, SPITMCD152, Germany}\01 - Tied Up In Love.wav

Pre-gap length 0:00:02.00

Peak level 97.7 %
Track quality 100.0 %
Test CRC 2A3A2703
Copy CRC 2A3A2703
Accurately ripped (confidence 2) [41B14290]
Copy OK

Track 2

Filename E:\Muzons\Ted Nugent - Penetrator (1984) [FLAC] {2001 Spitfire, SPITMCD152, Germany}\02 - (Where Do You) Draw The Line.wav

Peak level 97.7 %
Track quality 100.0 %
Test CRC 60CC2B58
Copy CRC 60CC2B58
Accurately ripped (confidence 3) [70C1BB57]
Copy OK

Track 3

Filename E:\Muzons\Ted Nugent - Penetrator (1984) [FLAC] {2001 Spitfire, SPITMCD152, Germany}\03 - Knockin' At Your Door.wav

Peak level 97.7 %
Track quality 99.9 %
Test CRC 017782B5
Copy CRC 017782B5
Accurately ripped (confidence 3) [78710664]
Copy OK

Track 4

Filename E:\Muzons\Ted Nugent - Penetrator (1984) [FLAC] {2001 Spitfire, SPITMCD152, Germany}\04 - Don't You Want My Love.wav

Peak level 97.7 %
Track quality 99.9 %
Test CRC 437DF533
Copy CRC 437DF533
Accurately ripped (confidence 3) [79133CF5]
Copy OK

Track 5

Filename E:\Muzons\Ted Nugent - Penetrator (1984) [FLAC] {2001 Spitfire, SPITMCD152, Germany}\05 - Go Down Fighting.wav

Pre-gap length 0:00:00.73

Peak level 97.7 %
Track quality 100.0 %
Test CRC FBFF5322
Copy CRC FBFF5322
Accurately ripped (confidence 3) [0CE3BE19]
Copy OK

Track 6

Filename E:\Muzons\Ted Nugent - Penetrator (1984) [FLAC] {2001 Spitfire, SPITMCD152, Germany}\06 - Thunder Thighs.wav

Pre-gap length 0:00:00.41

Peak level 97.7 %
Track quality 100.0 %
Test CRC D0809EA4
Copy CRC D0809EA4
Accurately ripped (confidence 3) [E76A48E9]
Copy OK

Track 7

Filename E:\Muzons\Ted Nugent - Penetrator (1984) [FLAC] {2001 Spitfire, SPITMCD152, Germany}\07 - No Man's Land.wav

Peak level 97.7 %
Track quality 100.0 %
Test CRC E0E6B071
Copy CRC E0E6B071
Accurately ripped (confidence 3) [290B2321]
Copy OK

Track 8

Filename E:\Muzons\Ted Nugent - Penetrator (1984) [FLAC] {2001 Spitfire, SPITMCD152, Germany}\08 - Blame It On The Night.wav

Pre-gap length 0:00:01.06

Peak level 94.9 %
Track quality 100.0 %
Test CRC 1777C347
Copy CRC 1777C347
Accurately ripped (confidence 3) [AF95A0F9]
Copy OK

Track 9

Filename E:\Muzons\Ted Nugent - Penetrator (1984) [FLAC] {2001 Spitfire, SPITMCD152, Germany}\09 - Lean Mean R & R Machine.wav

Pre-gap length 0:00:00.33

Peak level 97.7 %
Track quality 100.0 %
Test CRC D8D02AEB
Copy CRC D8D02AEB
Accurately ripped (confidence 3) [18AB1F10]
Copy OK

Track 10

Filename E:\Muzons\Ted Nugent - Penetrator (1984) [FLAC] {2001 Spitfire, SPITMCD152, Germany}\10 - Take Me Home.wav

Peak level 97.7 %
Track quality 100.0 %
Test CRC 0AABD68F
Copy CRC 0AABD68F
Accurately ripped (confidence 3) [142701B8]
Copy OK


All tracks accurately ripped

No errors occurred

End of status report

[CUETools log; Date: 28.02.2018 17:13:57; Version: 2.1.4]
[CTDB TOCID: _9m9KXEwl1u5B.9PrJcdIYiTy24-] found.
Track | CTDB Status
1 | ( 5/10) Accurately ripped, or (4/10) differs in 31 samples @00:00:26
2 | ( 9/10) Accurately ripped
3 | ( 9/10) Accurately ripped
4 | ( 9/10) Accurately ripped
5 | ( 9/10) Accurately ripped
6 | ( 9/10) Accurately ripped
7 | ( 9/10) Accurately ripped
8 | ( 9/10) Accurately ripped
9 | ( 9/10) Accurately ripped
10 | ( 9/10) Accurately ripped
[AccurateRip ID: 000f020b-00784da1-81098b0a] found.
Track [ CRC | V2 ] Status
01 [41b14290|589acc66] (03+00/12) Accurately ripped
02 [70c1bb57|04241c39] (04+06/14) Accurately ripped
03 [78710664|cbfa87a2] (04+06/14) Accurately ripped
04 [79133cf5|b94366f6] (04+06/14) Accurately ripped
05 [0ce3be19|7137e6bb] (04+06/14) Accurately ripped
06 [e76a48e9|19d88cf7] (04+06/14) Accurately ripped
07 [290b2321|65e103e6] (04+06/14) Accurately ripped
08 [af95a0f9|ecc50a6b] (04+06/14) Accurately ripped
09 [18ab1f10|a8775300] (04+06/14) Accurately ripped
10 [142701b8|eb125e97] (04+06/14) Accurately ripped
Offsetted by -670:
01 [d03c5aa6] (00/12) No match (V2 was not tested)
02 [3990b82e] (00/14) No match (V2 was not tested)
03 [c653cd39] (00/14) No match (V2 was not tested)
04 [095b3817] (00/14) No match (V2 was not tested)
05 [d20e907b] (00/14) No match (V2 was not tested)
06 [5239536e] (00/14) No match (V2 was not tested)
07 [d27b35ba] (00/14) No match (V2 was not tested)
08 [00faf8ff] (00/14) No match (V2 was not tested)
09 [77e9d4b6] (00/14) No match (V2 was not tested)
10 [b40bb680] (00/14) No match (V2 was not tested)
Offsetted by -72:
01 [b3d65263] (00/12) No match (V2 was not tested)
02 [f6ff085b] (00/14) No match (V2 was not tested)
03 [8fd8d1ec] (00/14) No match (V2 was not tested)
04 [e6baa6ee] (00/14) No match (V2 was not tested)
05 [377989d1] (00/14) No match (V2 was not tested)
06 [fc9f9328] (00/14) No match (V2 was not tested)
07 [89b6e0ee] (00/14) No match (V2 was not tested)
08 [72ca8ca1] (00/14) No match (V2 was not tested)
09 [6fbd8d2b] (00/14) No match (V2 was not tested)
10 [d7c830fd] (00/14) No match (V2 was not tested)

Track Peak [ CRC32 ] [W/O NULL] [ LOG ]
– 97,7 [135BBECF] [86EF11E2]
01 97,7 [2A3A2703] [F04AC28D] CRC32
02 97,7 [60CC2B58] [98AE5C75] CRC32
03 97,7 [017782B5] [B6E946B3] CRC32
04 97,7 [437DF533] [68AAAC5C] CRC32
05 97,7 [FBFF5322] [662E6E3C] CRC32
06 97,7 [D0809EA4] [1613B945] CRC32
07 97,7 [E0E6B071] [797CB343] CRC32
08 94,9 [1777C347] [F114AD6A] CRC32
09 97,7 [D8D02AEB] [46C77837] CRC32
10 97,7 [0AABD68F] [B7E4D245] CRC32

foobar2000 1.2 / Dynamic Range Meter 1.1.1
log date: 2018-02-28 17:20:04

––––––––––––––––––––––––––––––––––––––––
Analyzed: Ted Nugent / Penetrator
––––––––––––––––––––––––––––––––––––––––

DR Peak RMS Duration Track
––––––––––––––––––––––––––––––––––––––––
DR11 -0.20 dB -12.89 dB 4:23 01-Tied Up In Love
DR12 -0.20 dB -14.13 dB 3:25 02-(Where Do You) Draw The Line
DR13 -0.20 dB -14.56 dB 3:53 03-Knockin' At Your Door
DR14 -0.20 dB -16.09 dB 3:31 04-Don't You Want My Love
DR13 -0.20 dB -15.40 dB 4:43 05-Go Down Fighting
DR13 -0.20 dB -14.69 dB 4:08 06-Thunder Thighs
DR12 -0.20 dB -13.40 dB 3:25 07-No Man's Land
DR13 -0.45 dB -15.56 dB 4:14 08-Blame It On The Night
DR12 -0.20 dB -14.08 dB 3:57 09-Lean Mean R & R Machine
DR14 -0.20 dB -16.81 dB 5:06 10-Take Me Home
––––––––––––––––––––––––––––––––––––––––

Number of tracks: 10
Official DR value: DR13

Samplerate: 44100 Hz
Channels: 2
Bits per sample: 16
Bitrate: 790 kbps
Codec: FLAC
================================================================================

Ted Nugent - Albums Collection: Nugent (1982); Penetrator (1984); Little Miss Dangerous (1986) (3CD) Reissues 2001

Ted Nugent - Albums Collection: Nugent (1982); Penetrator (1984); Little Miss Dangerous (1986) (3CD) Reissues 2001




Ted Nugent - Albums Collection: Nugent (1982); Penetrator (1984); Little Miss Dangerous (1986) (3CD) Reissues 2001

Ted Nugent - Little Miss Dangerous (1986) Remastered Reissue 2001
EAC | FLAC | Tracks (Cue&Log) ~ 278 Mb | Mp3 (CBR320) ~ 109 Mb | Scans included
Label: Spitfire | # SPITMCD153, GAS 0000153 SPM, EDL EAG 387-2 | 00:39:35

Little Miss Dangerous is the ninth studio album by American hard rock guitarist Ted Nugent, released in 1986, the third on Atlantic Records. The single "Little Miss Dangerous" was Ted Nugent's most successful US-single at the time. This is mostly because the track was featured in an episode of the same name of the American television series Miami Vice. The track "Angry Young Man" was also used in an episode of Miami Vice entitled "Definitely Miami", in which Nugent guest-starred as a pimp/drug dealer and was killed in a shoot-out with Sonny Crockett (Don Johnson).

With the release of the Motorcity Madman Ted Nugent new live CD Full Bluntal Nugity, Spitfire has also unleashed his 4 long lost `80s Atlantic albums for the second time on CD as part of the Spitfire Master Series. Nugent/Penetrator/Little Miss Dangerous/If You Can't Lick `Em… Lick `Em have all been given the full bluntal digital remaster overhaul. The original Atlantic CD's sounded horrible. With these new remastered CD's you get the FULL BLUNTAL NUGITY and they have some very dangerous high points now. These CD's hit the bulls eye mark. Sadly these albums when first issued did not go further than reach the Nuge army of fans and get a few new comers due to low promotion from his then label Atlantic. All 4 CD's have been updated with new liner notes on the history of each album buy Nuge & Gary Graff. Do yourself a favor and pick them up. Play these CD's loud and you will rock your brains out. You will be surprised at what you have missed the first time these albums were around.

Review by Jay Siekierski, Amazon.com


Tracklist:

01. High Heels In Motion (3:36)
02. Strangers (3:53)
03. Little Miss Dangerous (4:50)
04. Savage Dancer (3:55)
05. Crazy Ladies (3:43)
06. When Your Body Talks (3:16)
07. Little Red Book (3:06)
08. Take Me Away (3:15)
09. Angry Young Man (3:57)
10. Painkiller (6:03)


Exact Audio Copy V1.0 beta 3 from 29. August 2011

EAC extraction logfile from 9. November 2011, 18:15

Ted Nugent / Little Miss Dangerous

Used drive : PLEXTOR DVDR PX-810SA Adapter: 2 ID: 1

Read mode : Secure
Utilize accurate stream : Yes
Defeat audio cache : Yes
Make use of C2 pointers : No

Read offset correction : 48
Overread into Lead-In and Lead-Out : No
Fill up missing offset samples with silence : Yes
Delete leading and trailing silent blocks : No
Null samples used in CRC calculations : Yes
Used interface : Installed external ASPI interface
Gap handling : Appended to previous track

Used output format : User Defined Encoder
Selected bitrate : 32 kBit/s
Quality : Low
Add ID3 tag : No
Command line compressor : C:\Program Files\Exact Audio Copy\FLAC\FLAC.EXE
Additional command line options : -8 -V -T "ARTIST=%artist%" -T "TITLE=%title%" -T "ALBUM=%albumtitle%" -T "DATE=%year%" -T "TRACKNUMBER=%tracknr%" -T "GENRE=%genre%" -T "COMMENT=EAC FLAC -8" %source%


TOC of the extracted CD

Track | Start | Length | Start sector | End sector
––––––––––––––––––––––––––––-
1 | 0:00.00 | 3:35.47 | 0 | 16171
2 | 3:35.47 | 3:53.08 | 16172 | 33654
3 | 7:28.55 | 4:50.05 | 33655 | 55409
4 | 12:18.60 | 3:55.32 | 55410 | 73066
5 | 16:14.17 | 3:43.03 | 73067 | 89794
6 | 19:57.20 | 3:16.32 | 89795 | 104526
7 | 23:13.52 | 3:06.15 | 104527 | 118491
8 | 26:19.67 | 3:14.63 | 118492 | 133104
9 | 29:34.55 | 3:57.35 | 133105 | 150914
10 | 33:32.15 | 6:02.45 | 150915 | 178109


Track 1

Filename C:\Program Files\BitComet\Downloads\Ted Nugent - Little Miss Dangerous (1986)\01 - High Heels In Motion.wav

Pre-gap length 0:00:02.00

Peak level 97.7 %
Extraction speed 3.7 X
Track quality 100.0 %
Test CRC 76A47E49
Copy CRC 76A47E49
Track not present in AccurateRip database
Copy OK

Track 2

Filename C:\Program Files\BitComet\Downloads\Ted Nugent - Little Miss Dangerous (1986)\02 - Strangers.wav

Peak level 97.7 %
Extraction speed 4.0 X
Track quality 100.0 %
Test CRC 4B758773
Copy CRC 4B758773
Accurately ripped (confidence 2) [02DB53F6] (AR v1)
Copy OK

Track 3

Filename C:\Program Files\BitComet\Downloads\Ted Nugent - Little Miss Dangerous (1986)\03 - Little Miss Dangerous.wav

Peak level 97.7 %
Extraction speed 4.4 X
Track quality 100.0 %
Test CRC 86F937C9
Copy CRC 86F937C9
Accurately ripped (confidence 2) [55F90534] (AR v1)
Copy OK

Track 4

Filename C:\Program Files\BitComet\Downloads\Ted Nugent - Little Miss Dangerous (1986)\04 - Savage Dancer.wav

Pre-gap length 0:00:01.08

Peak level 97.7 %
Extraction speed 4.6 X
Track quality 100.0 %
Test CRC 847A6F26
Copy CRC 847A6F26
Accurately ripped (confidence 2) [2922ECB7] (AR v1)
Copy OK

Track 5

Filename C:\Program Files\BitComet\Downloads\Ted Nugent - Little Miss Dangerous (1986)\05 - Crazy Ladies.wav

Pre-gap length 0:00:01.70

Peak level 97.7 %
Extraction speed 4.8 X
Track quality 100.0 %
Test CRC 9BF8FAB1
Copy CRC 9BF8FAB1
Accurately ripped (confidence 2) [DE04463D] (AR v1)
Copy OK

Track 6

Filename C:\Program Files\BitComet\Downloads\Ted Nugent - Little Miss Dangerous (1986)\06 - When Your Body Talks.wav

Pre-gap length 0:00:01.38

Peak level 97.7 %
Extraction speed 4.9 X
Track quality 100.0 %
Test CRC 76049ADD
Copy CRC 76049ADD
Accurately ripped (confidence 2) [9DB6403F] (AR v1)
Copy OK

Track 7

Filename C:\Program Files\BitComet\Downloads\Ted Nugent - Little Miss Dangerous (1986)\07 - Little Red Book.wav

Peak level 97.7 %
Extraction speed 5.1 X
Track quality 100.0 %
Test CRC 1ECAF3D8
Copy CRC 1ECAF3D8
Accurately ripped (confidence 2) [DD04A1E2] (AR v1)
Copy OK

Track 8

Filename C:\Program Files\BitComet\Downloads\Ted Nugent - Little Miss Dangerous (1986)\08 - Take Me Away.wav

Pre-gap length 0:00:02.15

Peak level 97.7 %
Extraction speed 4.5 X
Track quality 99.9 %
Test CRC 8C9B405F
Copy CRC 8C9B405F
Accurately ripped (confidence 2) [C6C8CF8B] (AR v1)
Copy OK

Track 9

Filename C:\Program Files\BitComet\Downloads\Ted Nugent - Little Miss Dangerous (1986)\09 - Angry Young Man.wav

Pre-gap length 0:00:02.28

Peak level 97.7 %
Extraction speed 5.6 X
Track quality 100.0 %
Test CRC DE931ED3
Copy CRC DE931ED3
Accurately ripped (confidence 2) [EA7E2312] (AR v1)
Copy OK

Track 10

Filename C:\Program Files\BitComet\Downloads\Ted Nugent - Little Miss Dangerous (1986)\10 - Painkiller.wav

Peak level 97.7 %
Extraction speed 6.1 X
Track quality 100.0 %
Test CRC 5D088200
Copy CRC 5D088200
Track not present in AccurateRip database
Copy OK


8 track(s) accurately ripped
2 track(s) not present in the AccurateRip database

Some tracks could not be verified as accurate

No errors occurred

End of status report

==== Log checksum 00E1EE9EB1C68B0331B76ECA6D045412BDB562201FA3B89B53EF54A5FF6C8204 ====

[CUETools log; Date: 28.02.2018 17:13:45; Version: 2.1.4]
[CTDB TOCID: GnBg4xIUvOQsB5DqCiQaF5gijlc-] found.
Track | CTDB Status
1 | ( 9/14) Accurately ripped, or (3/14) differs in 761 samples @00:00:26-00:00:27
2 | (14/14) Accurately ripped
3 | (14/14) Accurately ripped
4 | (14/14) Accurately ripped
5 | (12/14) Accurately ripped
6 | (14/14) Accurately ripped
7 | (14/14) Accurately ripped
8 | (14/14) Accurately ripped
9 | (14/14) Accurately ripped
10 | (13/14) Accurately ripped
[AccurateRip ID: 000e8ba0-00740af9-8709460a] found.
Track [ CRC | V2 ] Status
01 [4931cf33|2e67fc41] (00+05/16) Accurately ripped
02 [02db53f6|849e8a1d] (00+07/15) Accurately ripped
03 [55f90534|42270788] (00+08/16) Accurately ripped
04 [2922ecb7|78685d49] (00+08/16) Accurately ripped
05 [de04463d|6e992d20] (00+07/15) Accurately ripped
06 [9db6403f|aa43187b] (00+07/15) Accurately ripped
07 [dd04a1e2|66449efa] (00+08/16) Accurately ripped
08 [c6c8cf8b|0601892b] (00+07/15) Accurately ripped
09 [ea7e2312|68accd76] (00+07/15) Accurately ripped
10 [483e731a|6c6f0b6e] (00+05/15) Accurately ripped
Offsetted by -670:
01 [669b2130] (00/16) No match (V2 was not tested)
02 [ec4e90a9] (00/15) No match (V2 was not tested)
03 [476446be] (00/16) No match (V2 was not tested)
04 [c7f6355d] (00/16) No match (V2 was not tested)
05 [94511f7b] (00/15) No match (V2 was not tested)
06 [bce058e3] (00/15) No match (V2 was not tested)
07 [182c2f6a] (00/16) No match (V2 was not tested)
08 [8eda6927] (00/15) No match (V2 was not tested)
09 [078706ac] (00/15) No match (V2 was not tested)
10 [31b4b8f9] (00/15) No match (V2 was not tested)
Offsetted by -72:
01 [ef72bb76] (00/16) No match (V2 was not tested)
02 [d6af4ba7] (00/15) No match (V2 was not tested)
03 [81b53c08] (00/16) No match (V2 was not tested)
04 [1dedf9df] (00/16) No match (V2 was not tested)
05 [2d369005] (00/15) No match (V2 was not tested)
06 [ecb6f42f] (00/15) No match (V2 was not tested)
07 [d04540c2] (00/16) No match (V2 was not tested)
08 [83a3ba9b] (00/15) No match (V2 was not tested)
09 [06110cea] (00/15) No match (V2 was not tested)
10 [725963c2] (00/15) No match (V2 was not tested)
Offsetted by -18:
01 [24c54c4b] (00/16) No match (V2 was not tested)
02 [b2bb24ca] (00/15) No match (V2 was not tested)
03 [a13b14ca] (00/16) No match (V2 was not tested)
04 [e655b001] (00/16) No match (V2 was not tested)
05 [71d0d8af] (00/15) No match (V2 was not tested)
06 [71766d3b] (00/15) No match (V2 was not tested)
07 [99d4c99a] (00/16) No match (V2 was not tested)
08 [b5ff8a4f] (00/15) No match (V2 was not tested)
09 [f162dd88] (00/15) No match (V2 was not tested)
10 [12c52f44] (00/15) No match (V2 was not tested)

Track Peak [ CRC32 ] [W/O NULL] [ LOG ]
– 97,7 [0B5D6CF3] [946E387F]
01 97,7 [76A47E49] [8A530052] CRC32
02 97,7 [4B758773] [0869C76F] CRC32
03 97,7 [86F937C9] [77CF54BA] CRC32
04 97,7 [847A6F26] [789CAC1F] CRC32
05 97,7 [9BF8FAB1] [1E8C36FD] CRC32
06 97,7 [76049ADD] [3A585D0A] CRC32
07 97,7 [1ECAF3D8] [1503E50A] CRC32
08 97,7 [8C9B405F] [ADD08203] CRC32
09 97,7 [DE931ED3] [EEA035A0] CRC32
10 97,7 [5D088200] [EDFCFD5A] CRC32

foobar2000 1.2 / Dynamic Range Meter 1.1.1
log date: 2018-04-06 05:53:32

––––––––––––––––––––––––––––––––––––––––
Analyzed: Ted Nugent / Little Miss Dangerous
––––––––––––––––––––––––––––––––––––––––

DR Peak RMS Duration Track
––––––––––––––––––––––––––––––––––––––––
DR8 -0.20 dB -9.26 dB 3:36 01-High Heels In Motion
DR9 -0.20 dB -11.45 dB 3:53 02-Strangers
DR9 -0.20 dB -10.79 dB 4:50 03-Little Miss Dangerous
DR8 -0.20 dB -10.27 dB 3:55 04-Savage Dancer
DR9 -0.20 dB -10.52 dB 3:43 05-Crazy Ladies
DR9 -0.20 dB -11.07 dB 3:16 06-When Your Body Talks
DR10 -0.20 dB -11.89 dB 3:06 07-Little Red Book
DR10 -0.20 dB -11.94 dB 3:15 08-Take Me Away
DR9 -0.20 dB -11.23 dB 3:57 09-Angry Young Man
DR9 -0.20 dB -10.66 dB 6:03 10-Painkiller
––––––––––––––––––––––––––––––––––––––––

Number of tracks: 10
Official DR value: DR9

Samplerate: 44100 Hz
Channels: 2
Bits per sample: 16
Bitrate: 888 kbps
Codec: FLAC
================================================================================

Ted Nugent - Albums Collection: Nugent (1982); Penetrator (1984); Little Miss Dangerous (1986) (3CD) Reissues 2001

Ted Nugent - Albums Collection: Nugent (1982); Penetrator (1984); Little Miss Dangerous (1986) (3CD) Reissues 2001