Tags
Language
Tags

Texas Gypsies - Retro Deco Baby (2013)

Posted By: popsakov
Texas Gypsies - Retro Deco Baby (2013)

Texas Gypsies - Retro Deco Baby (2013)
EAC Rip | FLAC (Img) + Cue + Log ~ 420 Mb | MP3 CBR320 ~ 159 Mb
Full Scans | 00:59:12 | RAR 5% Recovery
Retro Swing, Gypsy Jazz | Steve Curry / Twig Records #822371149412

The Award winning Texas Gypsies compose and perform original and classic music influenced by the Vintage Jazzy Swingin cool hep cat sounds of the 20's-30's, along with a taste of it's sister sound, Western Swing, and a mix of Gypsy Jazz magic sprinkled over the top! The band mixes passionate violin, heartfelt vocals, a blazing horn section, rocking swingin guitars, slappin upright bass, virtuoso clarinet, and retro style drumming to harmoniously create their own unique, fun and artistic sound!

This new CD's has many new and fresh sounding originals such as the Jump Blues/Rockabilly influence "Retro Deco Baby", the Vintage but almost pop like "Lights Up The Sun" and the Western style tribute to Bob Wills and Django Reinhardt track "DjangoBob", the 1920's style shines through on "Just Like Me" featuring period instruments like a 1919 Bass Sax… the 1930's gangster sound of Nothing to Worry About! …also check out several classics including a great horn arrangement on Sway, and a Celtic violin influenced Norwegian wood.

The Texas Gypsies are a collection of well seasoned players comprised of Grammy winners and musicians who have backed many of today's top performers which include: The Jacksons, Paul McCartney, Ray Charles, Ella Fitzgerald, Texas Playboys, Wynton Marsalis, Tony Bennett, Barbara Mandrell, Blues Brothers and many more!

They are known for their unique take on Classic Vintage Jazz and Swing, Gypsy Jazz, Western Swing, New Orleans, and there own take on Pop! This "Retro - Electric" award winning band has established itself as a classy, unique and fun group with many great songs that have been used in feature films and on several TV shows!
Texas Gypsies - Retro Deco Baby (2013)

Texas Gypsies - Retro Deco Baby (2013)

Track List:

01. The Immigrant Begins [00:26]
02. Amazing [03:07]
03. Coco and the Squirrel [02:07]
04. Build a Better Dream [03:31]
05. Just Like Me [02:14]
06. Djangobob [03:37]
07. Lights Up The Sun [03:07]
08. Retro Deco [04:28]
09. Closer To My Heart [03:28]
10. Nothing To Worry About [04:24]
11. Spells Amore [03:19]
12. Blue Drag [05:20]
13. Sway [03:33]
14. Ain't Misbehavin [04:49]
15. Guitar Twins [02:19]
16. Norwegian Wood [03:44]
17. For You [04:05]
18. The Immigrant [00:57]

Exact Audio Copy V1.0 beta 3 from 29. August 2011

Отчёт EAC об извлечении, выполненном 28. сентября 2013, 20:06

Texas Gypsies / Retro Deco Baby

Дисковод: PLEXTOR DVDR PX-880SA Adapter: 1 ID: 0

Режим чтения : Достоверность
Использование точного потока : Да
Отключение кэша аудио : Да
Использование указателей C2 : Нет

Коррекция смещения при чтении : 6
Способность читать области Lead-in и Lead-out : Нет
Заполнение пропущенных сэмплов тишиной : Да
Удаление блоков с тишиной в начале и конце : Нет
При вычислениях CRC использовались нулевые сэмплы : Да
Интерфейс : Установленный внешний ASPI-интерфейс

Выходной формат : Пользовательский кодировщик
Выбранный битрейт : 1024 kBit/s
Качество : Высокий
Добавление ID3-тега : Нет
Утилита сжатия : C:\Program Files\Exact Audio Copy\FLAC\FLAC.EXE
Дополнительные параметры : -10 -V -T "ARTIST=%artist%" -T "TITLE=%title%" -T "ALBUM=%albumtitle%" -T "DATE=%year%" -T "TRACKNUMBER=%tracknr%" -T "GENRE=%genre%" -T "COMMENT=%comment%" -T "BAND=%albuminterpret%" -T "ALBUMARTIST=%albuminterpret%" -T "COMPOSER=%composer%" %haslyrics%–tag-from-file=LYRICS="%lyricsfile%"%haslyrics% -T "DISCNUMBER=%cdnumber%" -T "TOTALDISCS=%totalcds%" -T "TOTALTRACKS=%numtracks%" %hascover%–picture="%coverfile%"%hascover% %source% -o %dest%


TOC извлечённого CD

Трек | Старт | Длительность | Начальный сектор | Конечный сектор
––––––––––––––––––––––––––––––––––-
1 | 0:00.00 | 0:28.58 | 0 | 2157
2 | 0:28.58 | 3:09.22 | 2158 | 16354
3 | 3:38.05 | 2:07.56 | 16355 | 25935
4 | 5:45.61 | 3:32.66 | 25936 | 41901
5 | 9:18.52 | 2:15.64 | 41902 | 52090
6 | 11:34.41 | 3:39.70 | 52091 | 68585
7 | 15:14.36 | 3:09.53 | 68586 | 82813
8 | 18:24.14 | 4:30.40 | 82814 | 103103
9 | 22:54.54 | 3:30.47 | 103104 | 118900
10 | 26:25.26 | 4:26.33 | 118901 | 138883
11 | 30:51.59 | 3:21.12 | 138884 | 153970
12 | 34:12.71 | 5:20.71 | 153971 | 178041
13 | 39:33.67 | 3:34.51 | 178042 | 194142
14 | 43:08.43 | 4:50.24 | 194143 | 215916
15 | 47:58.67 | 2:20.62 | 215917 | 226478
16 | 50:19.54 | 3:46.19 | 226479 | 243447
17 | 54:05.73 | 4:08.11 | 243448 | 262058
18 | 58:14.09 | 0:57.60 | 262059 | 266393


Характеристики диапазона извлечения и сообщения об ошибках

Выбранный диапазон

Имя файла D:\BitComet\Texas Gypsies - Retro Deco Baby(2013)(flac)\Texas Gypsies - Retro Deco Baby.wav

Пиковый уровень 99.9 %
Скорость извлечения 9.3 X
Качество диапазона 100.0 %
CRC теста DCB9E255
CRC копии DCB9E255
Копирование… OK

Ошибок не произошло


AccurateRip: сводка

Трек 1 отсутствует в базе данных
Трек 2 отсутствует в базе данных
Трек 3 отсутствует в базе данных
Трек 4 отсутствует в базе данных
Трек 5 отсутствует в базе данных
Трек 6 отсутствует в базе данных
Трек 7 отсутствует в базе данных
Трек 8 отсутствует в базе данных
Трек 9 отсутствует в базе данных
Трек 10 отсутствует в базе данных
Трек 11 отсутствует в базе данных
Трек 12 отсутствует в базе данных
Трек 13 отсутствует в базе данных
Трек 14 отсутствует в базе данных
Трек 15 отсутствует в базе данных
Трек 16 отсутствует в базе данных
Трек 17 отсутствует в базе данных
Трек 18 отсутствует в базе данных

Ни одного трека нет в базе AccurateRip

Конец отчёта

==== Контрольная сумма отчёта 349546B3568C26061BE644F41CF40194BD8B1DC390333328375887442785D820 ====

Texas Gypsies - Retro Deco Baby (2013)


All thanks go to izia1956

>>> My Blog <<<

DOWNLOAD: