Subcategories
Tags
Language
Tags

The Animals - The Mickie Most Years And More (2013) [5CD Box Set] Repost

Posted By: v3122
The Animals - The Mickie Most Years And More (2013) [5CD Box Set] Repost

The Animals - The Mickie Most Years And More (2013)
EAC | Flac(Image) + Cue + Log & MP3 CBR 320Kbps
5CD | ABKCO/Real Gone, RLGM 718998 | ~ 1075 or 464 Mb | Artwork(png) -> 289 Mb
Rock, Blues Rock, Psychedelic Rock, R&B

Of all the British acts that started messing with the blues in the early '60s, the Animals always sounded the toughest and most committed to the cause. They didn't have a genius guitarist like the Yardbirds or the Bluesbreakers, and couldn't write memorable original material like the Rolling Stones, but Eric Burdon was one of the few singers in the U.K. whose guts and ferocity approached that of his influences (without sounding like he was simply copying what he'd heard), and the tough, no-nonsense attack of guitarist Hilton Valentine, bassist Chas Chandler, and drummer John Steel drove the Animals with style and power, while keyboard man Alan Price gave the band plenty of welcome melodic flair. The Animals were also one of the few bands on the scene that failed to overstay their welcome, with the original lineup breaking up by the end of 1966 (Burdon would assemble a "New Animals" in 1967, but that band ran its course by the end of the decade), and the bulk of their recorded output is collected on The Mickie Most Years and More, remarkably the first American box set devoted to the group's legacy. The set contains remastered versions of the Animals' first four American albums – The Animals, The Animals on Tour, Animal Tracks, and Animalization – all in original mono and including bonus tracks, while also including the group's very first release, a primitive but spirited four-track EP cut in a makeshift studio in 1963. In some ways, this package is fundamentally flawed – the British and American versions of the Animals' LPs were very different, and a compilation containing all tracks would more accurately reflect their body of work instead of a repackaging of the U.S. albums, while the first two albums aren't even presented in their original form, with The Animals losing the admittedly less-than-stellar "Blue Feeling" and The Animals on Tour getting a new sequence and two extra tunes. However, what's here is excellent: the remastering by Adam Ayan is brilliant, preserving the full detail and power of the original tapes, and these four albums capture the Animals in peak form. David Fricke's liner notes reveal that producer Mickie Most captured most of these tunes on first take, and the first three albums are powerful, straight-ahead blues and R&B direct from the rugged side of Newcastle. Animalization was produced by Tom Wilson and boasts a richer and more ambitious sound, while Burdon began putting new focus on songwriting and new keyboard man Dave Rowberry took a more organic approach than Alan Price. It all sounds pretty great here, both in terms of music and audio, and if this isn't the final and definitive look at the Animals' run in the 1960s (especially since it doesn't include the superb 1966 album Animalism, the original band's final stand), it honors a great, underappreciated group and is must listening for anyone interested in British blues and rock.

by Mark Deming, allmusic
The Animals - The Mickie Most Years And More (2013) [5CD Box Set] Repost

The Animals - The Mickie Most Years And More (2013):

The Animals - The Mickie Most Years And More (2013) [5CD Box Set] Repost

Tracklist CD01. 1963 - Graphic Sound EP:

01. I Just Wanna Make Love To You (3:46)
02. Big Boss Man (3:44)
03. Boom Boom (3:49)
04. Pretty Thing (2:37)

Exact Audio Copy V1.0 beta 3 from 29. August 2011

EAC extraction logfile from 26. January 2014, 17:45

The Animals / Graphic Sound EP

Used drive : PLEXTOR BD-R PX-B950SA Adapter: 6 ID: 0

Read mode : Secure
Utilize accurate stream : Yes
Defeat audio cache : Yes
Make use of C2 pointers : No

Read offset correction : 6
Overread into Lead-In and Lead-Out : No
Fill up missing offset samples with silence : Yes
Delete leading and trailing silent blocks : No
Null samples used in CRC calculations : Yes
Used interface : Native Win32 interface for Win NT & 2000

Used output format : Internal WAV Routines
Sample format : 44.100 Hz; 16 Bit; Stereo


TOC of the extracted CD

Track | Start | Length | Start sector | End sector
––––––––––––––––––––––––––––-
1 | 0:00.00 | 3:46.20 | 0 | 16969
2 | 3:46.20 | 3:44.62 | 16970 | 33831
3 | 7:31.07 | 3:49.31 | 33832 | 51037
4 | 11:20.38 | 2:37.45 | 51038 | 62857


Range status and errors

Selected range

Filename C:\Users\Meijin\Desktop\ALLexxess\Animals\2013 Mickie Most Years And More (5CD Box Set ABKCO Music)\1964 The Animals\1963 Graphic Sound EP\The Animals - Graphic Sound EP.wav

Peak level 99.0 %
Extraction speed 6.0 X
Range quality 100.0 %
Test CRC C8564702
Copy CRC C8564702
Copy OK

No errors occurred


AccurateRip summary

Track 1 accurately ripped (confidence 1) [B89815B8] (AR v2)
Track 2 accurately ripped (confidence 1) [7937AD3B] (AR v2)
Track 3 accurately ripped (confidence 1) [8EA401E8] (AR v2)
Track 4 accurately ripped (confidence 1) [D4E6ADEF] (AR v2)

All tracks accurately ripped

End of status report

==== Log checksum 715994A5C22814C7CB27D8E9C473F4FA7BC6E48A247B86395CBC40CB07699E51 ====


Tracklist CD02. 1964 - The Animals:

01. House Of The Rising Sun (4:31)
02. The Girl Can't Help It (2:22)
03. Blue Feeling (2:34)
04. Baby Let Me Take You Home (2:21)
05. The Right Time (3:46)
06. Talkin' 'Bout You (1:55)
07. Around And Around (2:44)
08. I'm In Love Again (3:01)
09. Gonna Send You Back To Walker (2:29)
10. Memphis, Tennessee (3:07)
11. I'm Mad Again (4:16)
12. I've Been Around (1:39)

Bonus track:
13. Talkin' 'Bout You (full version) (7:03)

Exact Audio Copy V1.0 beta 3 from 29. August 2011

EAC extraction logfile from 26. January 2014, 17:21

The Animals / The Animals

Used drive : PLEXTOR BD-R PX-B950SA Adapter: 6 ID: 0

Read mode : Secure
Utilize accurate stream : Yes
Defeat audio cache : Yes
Make use of C2 pointers : No

Read offset correction : 6
Overread into Lead-In and Lead-Out : No
Fill up missing offset samples with silence : Yes
Delete leading and trailing silent blocks : No
Null samples used in CRC calculations : Yes
Used interface : Native Win32 interface for Win NT & 2000

Used output format : Internal WAV Routines
Sample format : 44.100 Hz; 16 Bit; Stereo


TOC of the extracted CD

Track | Start | Length | Start sector | End sector
––––––––––––––––––––––––––––-
1 | 0:00.00 | 4:31.08 | 0 | 20332
2 | 4:31.08 | 2:22.50 | 20333 | 31032
3 | 6:53.58 | 2:34.15 | 31033 | 42597
4 | 9:27.73 | 2:21.16 | 42598 | 53188
5 | 11:49.14 | 3:46.45 | 53189 | 70183
6 | 15:35.59 | 1:55.46 | 70184 | 78854
7 | 17:31.30 | 2:44.60 | 78855 | 91214
8 | 20:16.15 | 3:01.25 | 91215 | 104814
9 | 23:17.40 | 2:29.60 | 104815 | 116049
10 | 25:47.25 | 3:07.05 | 116050 | 130079
11 | 28:54.30 | 4:16.45 | 130080 | 149324
12 | 33:11.00 | 1:39.28 | 149325 | 156777
13 | 34:50.28 | 7:03.40 | 156778 | 188542


Range status and errors

Selected range

Filename C:\Users\Meijin\Desktop\ALLexxess\Animals\2013 Mickie Most Years And More (5CD Box Set ABKCO Music)\1964 The Animals\The Animals - The Animals.wav

Peak level 100.0 %
Extraction speed 7.3 X
Range quality 99.9 %
Test CRC C3029BAD
Copy CRC C3029BAD
Copy OK

No errors occurred


AccurateRip summary

Track 1 accurately ripped (confidence 1) [A71DC702] (AR v2)
Track 2 accurately ripped (confidence 1) [F3C2FBB4] (AR v2)
Track 3 accurately ripped (confidence 1) [DBF7B04A] (AR v2)
Track 4 accurately ripped (confidence 1) [5B4A3881] (AR v2)
Track 5 accurately ripped (confidence 1) [AD0FB9F4] (AR v2)
Track 6 accurately ripped (confidence 1) [A7A16FDB] (AR v2)
Track 7 accurately ripped (confidence 1) [AC4B72C0] (AR v2)
Track 8 accurately ripped (confidence 1) [A24B9E14] (AR v2)
Track 9 accurately ripped (confidence 1) [199A1F64] (AR v2)
Track 10 accurately ripped (confidence 1) [58779995] (AR v2)
Track 11 accurately ripped (confidence 1) [5C0DBC48] (AR v2)
Track 12 accurately ripped (confidence 1) [B93A4B2F] (AR v2)
Track 13 accurately ripped (confidence 1) [A99CA849] (AR v2)

All tracks accurately ripped

End of status report

==== Log checksum ED21C11C3D39E34A4A9E2B8CAE36CB7C4277AAF4777EAAE21933DB67144EA92C ====


[CUETools log; Date: 04.06.2021 10:56:07; Version: 2.1.4]
[AccurateRip ID: 0012d066-00bb55fb-ba09d10d] found.
Track [ CRC | V2 ] Status
01 [d3ff9022|a71dc702] (0+7/7) Accurately ripped
02 [880dfb6f|f3c2fbb4] (0+7/7) Accurately ripped
03 [e285d8ee|dbf7b04a] (0+7/7) Accurately ripped
04 [a747e183|5b4a3881] (0+7/7) Accurately ripped
05 [ca305aae|ad0fb9f4] (0+7/7) Accurately ripped
06 [39757fe6|a7a16fdb] (0+8/8) Accurately ripped
07 [345e4e65|ac4b72c0] (0+8/8) Accurately ripped
08 [6a34ea0e|a24b9e14] (0+8/8) Accurately ripped
09 [fb4abc5c|199a1f64] (0+8/8) Accurately ripped
10 [a86980db|58779995] (0+8/8) Accurately ripped
11 [f4f975bf|5c0dbc48] (0+7/7) Accurately ripped
12 [78a9a601|b93a4b2f] (0+7/7) Accurately ripped
13 [ae6a6624|a99ca849] (0+7/7) Accurately ripped

Track Peak [ CRC32 ] [W/O NULL] [ LOG ]
– 100,0 [C3029BAD] [E54F2A9F] CRC32
01 99,5 [EE530FCE] [8B6FFE28]
02 100,0 [EF6C68AD] [96FBA79C]
03 99,1 [5BC55C43] [10D5CF00]
04 100,0 [CDB26CDC] [FDCACECA]
05 99,8 [8281871B] [42663967]
06 100,0 [D8AED0BF] [7057F6FA]
07 99,8 [E0F76B3A] [844B53B3]
08 100,0 [FD897587] [B616651A]
09 99,9 [D6E16DC1] [F1FFD7F7]
10 99,3 [EDE9881B] [361C3D1A]
11 99,4 [DCF4B1A6] [1DE3AA98]
12 99,4 [231B1888] [6DB170AD]
13 100,0 [07812D3A] [BD770452]


The Animals - The Mickie Most Years And More (2013) [5CD Box Set] Repost

Tracklist CD03. 1965 - Animal Tracks:

01. We Gotta Get Out Of This Place 03:15
02. Take It Easy Baby 02:54
03. Bring It On Home To Me 02:43
04. The Story Of Bo Diddley 05:45
05. Don't Let Me Be Misunderstood 02:29
06. I Can't Believe It 03:32
07. Club A-Go-Go 02:20
08. Roberta 02:05
09. Bury My Body 02:51
10. For Miss Caulker 03:58

Bonus Tracks:
11. Roadrunner 02:50
12. Don't Want Much 03:24
13. We Gotta Get Out Of This Place (U.K. Single Version) 03:14
14. It's My Life 03:07
15. I'm Gonna Change The World 03:35

Exact Audio Copy V1.0 beta 3 from 29. August 2011

EAC extraction logfile from 1. February 2014, 10:23

The Animals / Animal Tracks

Used drive : PLEXTOR BD-R PX-B950SA Adapter: 6 ID: 0

Read mode : Secure
Utilize accurate stream : Yes
Defeat audio cache : Yes
Make use of C2 pointers : No

Read offset correction : 6
Overread into Lead-In and Lead-Out : No
Fill up missing offset samples with silence : Yes
Delete leading and trailing silent blocks : No
Null samples used in CRC calculations : Yes
Used interface : Native Win32 interface for Win NT & 2000

Used output format : Internal WAV Routines
Sample format : 44.100 Hz; 16 Bit; Stereo


TOC of the extracted CD

Track | Start | Length | Start sector | End sector
––––––––––––––––––––––––––––-
1 | 0:00.00 | 3:15.62 | 0 | 14686
2 | 3:15.62 | 2:54.01 | 14687 | 27737
3 | 6:09.63 | 2:43.64 | 27738 | 40026
4 | 8:53.52 | 5:45.23 | 40027 | 65924
5 | 14:39.00 | 2:29.28 | 65925 | 77127
6 | 17:08.28 | 3:32.15 | 77128 | 93042
7 | 20:40.43 | 2:20.64 | 93043 | 103606
8 | 23:01.32 | 2:05.32 | 103607 | 113013
9 | 25:06.64 | 2:51.74 | 113014 | 125912
10 | 27:58.63 | 3:58.49 | 125913 | 143811
11 | 31:57.37 | 2:50.11 | 143812 | 156572
12 | 34:47.48 | 3:24.18 | 156573 | 171890
13 | 38:11.66 | 3:14.46 | 171891 | 186486
14 | 41:26.37 | 3:07.58 | 186487 | 200569
15 | 44:34.20 | 3:35.00 | 200570 | 216694


Range status and errors

Selected range

Filename C:\Users\Meijin\Desktop\ALLexxess\Animals\2013 Mickie Most Years And More (5CD Box Set ABKCO Music)\1965 Animal Tracks\The Animals - Animal Tracks.wav

Peak level 100.0 %
Extraction speed 7.7 X
Range quality 100.0 %
Test CRC 55A959D7
Copy CRC 55A959D7
Copy OK

No errors occurred


AccurateRip summary

Track 1 not present in database
Track 2 not present in database
Track 3 not present in database
Track 4 accurately ripped (confidence 1) [3B103EB8] (AR v2)
Track 5 accurately ripped (confidence 1) [14B15E80] (AR v2)
Track 6 accurately ripped (confidence 1) [0DA1E6A7] (AR v2)
Track 7 accurately ripped (confidence 1) [98884E8F] (AR v2)
Track 8 accurately ripped (confidence 1) [E8B520B3] (AR v2)
Track 9 accurately ripped (confidence 1) [996EF46D] (AR v2)
Track 10 accurately ripped (confidence 1) [DC0435DB] (AR v2)
Track 11 accurately ripped (confidence 1) [B2D83A71] (AR v2)
Track 12 accurately ripped (confidence 1) [C5195AD8] (AR v2)
Track 13 accurately ripped (confidence 1) [867C2A16] (AR v2)
Track 14 accurately ripped (confidence 1) [E62281A7] (AR v2)
Track 15 accurately ripped (confidence 1) [9BEA1B63] (AR v2)

12 track(s) accurately ripped
3 track(s) not present in the AccurateRip database

Some tracks could not be verified as accurate

End of status report

==== Log checksum 13DFBD439279EA237D2549A4A9BA97232112B20B477BE0ADE358C2708033944F ====


[CUETools log; Date: 04.06.2021 10:58:42; Version: 2.1.4]
[AccurateRip ID: 001a8196-012b1fb6-d70b490f] found.
Track [ CRC | V2 ] Status
01 [6f242df2|6a773f2c] (00+09/09) Accurately ripped
02 [6ed04c1e|6a3fa760] (00+09/09) Accurately ripped
03 [3c4d814f|8a428f36] (00+09/09) Accurately ripped
04 [3328302c|3b103eb8] (00+10/10) Accurately ripped
05 [8b2591cc|14b15e80] (00+10/10) Accurately ripped
06 [5640e5c2|0da1e6a7] (00+10/10) Accurately ripped
07 [246e7c29|98884e8f] (00+10/10) Accurately ripped
08 [e3ef078e|e8b520b3] (00+10/10) Accurately ripped
09 [ffe12b43|996ef46d] (00+10/10) Accurately ripped
10 [7cb9e372|dc0435db] (00+10/10) Accurately ripped
11 [132f2442|b2d83a71] (00+10/10) Accurately ripped
12 [da9e64b6|c5195ad8] (00+09/09) Accurately ripped
13 [4c88a10f|867c2a16] (00+10/10) Accurately ripped
14 [f71c3489|e62281a7] (00+10/10) Accurately ripped
15 [7ce33ccd|9bea1b63] (00+09/09) Accurately ripped

Track Peak [ CRC32 ] [W/O NULL] [ LOG ]
– 100,0 [55A959D7] [B8F611BC] CRC32
01 98,6 [24DE962A] [D3B9C4D7]
02 98,1 [25CAE829] [428B9C7F]
03 99,0 [9E6EB0D9] [2441C44B]
04 100,0 [31F4F331] [34DB43B1]
05 98,0 [DD607386] [4324D4AD]
06 98,2 [7635CC03] [746C0396]
07 98,3 [AAE068F7] [07CF6B9A]
08 98,3 [4EA98A61] [2145E955]
09 98,2 [7EC5301D] [749E08D9]
10 100,0 [45BE75F5] [B337A2F0]
11 99,3 [FC2C2A4B] [35A62108]
12 100,0 [EA61881A] [6327F665]
13 100,0 [D40E5B56] [3ED02BBC]
14 98,8 [756F17B2] [C2E3D4F0]
15 98,0 [19CB651F] [A349B611]


The Animals - The Mickie Most Years And More (2013) [5CD Box Set] Repost

Tracklist CD04. 1965 - The Animals On Tour:

01. Boom Boom 03:19
02. How You've Changed 03:15
03. Mess Around 02:21
04. Bright Lights, Big City 02:55
05. I Believe To My Soul 03:25
06. Worried Life Blues 04:14
07. Let The Good Times Roll 01:56
08. Ain't Got You 02:29
09. Hallelujah, I Love Her So 02:47
10. I'm Crying 02:47
11. Dimples 03:18
12. She Said Yeah 02:21

Bonus Tracks:
13. Baby What's Wrong 02:50
14. F-E-E-L 02:43
15. New Year's Radio Spot 01:01

Exact Audio Copy V1.0 beta 3 from 29. August 2011

EAC extraction logfile from 1. February 2014, 9:57

The Animals / The Animals On Tour

Used drive : PLEXTOR BD-R PX-B950SA Adapter: 6 ID: 0

Read mode : Secure
Utilize accurate stream : Yes
Defeat audio cache : Yes
Make use of C2 pointers : No

Read offset correction : 6
Overread into Lead-In and Lead-Out : No
Fill up missing offset samples with silence : Yes
Delete leading and trailing silent blocks : No
Null samples used in CRC calculations : Yes
Used interface : Native Win32 interface for Win NT & 2000

Used output format : Internal WAV Routines
Sample format : 44.100 Hz; 16 Bit; Stereo


TOC of the extracted CD

Track | Start | Length | Start sector | End sector
––––––––––––––––––––––––––––-
1 | 0:00.00 | 3:19.44 | 0 | 14968
2 | 3:19.44 | 3:15.27 | 14969 | 29620
3 | 6:34.71 | 2:21.58 | 29621 | 40253
4 | 8:56.54 | 2:55.74 | 40254 | 53452
5 | 11:52.53 | 3:25.66 | 53453 | 68893
6 | 15:18.44 | 4:14.00 | 68894 | 87943
7 | 19:32.44 | 1:56.11 | 87944 | 96654
8 | 21:28.55 | 2:29.19 | 96655 | 107848
9 | 23:57.74 | 2:47.52 | 107849 | 120425
10 | 26:45.51 | 2:47.57 | 120426 | 133007
11 | 29:33.33 | 3:18.19 | 133008 | 147876
12 | 32:51.52 | 2:21.07 | 147877 | 158458
13 | 35:12.59 | 2:50.28 | 158459 | 171236
14 | 38:03.12 | 2:43.41 | 171237 | 183502
15 | 40:46.53 | 1:01.44 | 183503 | 188121


Range status and errors

Selected range

Filename C:\Users\Meijin\Desktop\ALLexxess\Animals\2013 Mickie Most Years And More (5CD Box Set ABKCO Music)\1965 The Animals On Tour\The Animals - The Animals On Tour.wav

Peak level 100.0 %
Extraction speed 7.3 X
Range quality 99.9 %
Test CRC 23D255F9
Copy CRC 23D255F9
Copy OK

No errors occurred


AccurateRip summary

Track 1 accurately ripped (confidence 1) [2DCE3D5D] (AR v2)
Track 2 accurately ripped (confidence 1) [0B342A7B] (AR v2)
Track 3 accurately ripped (confidence 1) [3778851C] (AR v2)
Track 4 accurately ripped (confidence 1) [CEED10DA] (AR v2)
Track 5 accurately ripped (confidence 1) [56E56264] (AR v2)
Track 6 accurately ripped (confidence 1) [65E974C1] (AR v2)
Track 7 accurately ripped (confidence 1) [13824BF4] (AR v2)
Track 8 accurately ripped (confidence 1) [45144E37] (AR v2)
Track 9 accurately ripped (confidence 1) [E163BBC1] (AR v2)
Track 10 accurately ripped (confidence 1) [705EAF52] (AR v2)
Track 11 accurately ripped (confidence 1) [DAD93408] (AR v2)
Track 12 accurately ripped (confidence 1) [324C36A5] (AR v2)
Track 13 accurately ripped (confidence 1) [161FD241] (AR v2)
Track 14 accurately ripped (confidence 1) [05DAEFCD] (AR v2)
Track 15 accurately ripped (confidence 1) [504D0777] (AR v2)

All tracks accurately ripped

End of status report

==== Log checksum 8FC149618485218D63EE4C7DE7915CEF151C89AED13AA7D4D2332B2C4BF966E6 ====


[CUETools log; Date: 04.06.2021 11:00:39; Version: 2.1.4]
[AccurateRip ID: 001872df-01126096-c909cc0f] found.
Track [ CRC | V2 ] Status
01 [61cbf584|2dce3d5d] (0+8/8) Accurately ripped
02 [a1bd0824|0b342a7b] (0+8/8) Accurately ripped
03 [d9c393eb|3778851c] (0+8/8) Accurately ripped
04 [e9d1dba0|ceed10da] (0+8/8) Accurately ripped
05 [68902961|56e56264] (0+8/8) Accurately ripped
06 [39362e4e|65e974c1] (0+8/8) Accurately ripped
07 [30958f84|13824bf4] (0+8/8) Accurately ripped
08 [1715a068|45144e37] (0+8/8) Accurately ripped
09 [36de4cf9|e163bbc1] (0+8/8) Accurately ripped
10 [9ac16707|705eaf52] (0+8/8) Accurately ripped
11 [3bbc42d7|dad93408] (0+8/8) Accurately ripped
12 [b53b3ac4|324c36a5] (0+8/8) Accurately ripped
13 [b1807da7|161fd241] (0+8/8) Accurately ripped
14 [526aa626|05daefcd] (0+7/7) Accurately ripped
15 [b0db71a4|504d0777] (0+7/7) Accurately ripped

Track Peak [ CRC32 ] [W/O NULL] [ LOG ]
– 100,0 [23D255F9] [088F0C93] CRC32
01 100,0 [F0EAE228] [0229DC03]
02 99,6 [10571167] [B544A47A]
03 99,6 [5218482A] [C3CF62F8]
04 99,4 [224DB9F1] [00E4C830]
05 99,9 [D8C7A5BF] [F4797229]
06 98,9 [A8B0684F] [A4CF0A17]
07 99,3 [4A73CFE8] [15747877]
08 98,9 [57121307] [66A680C4]
09 99,4 [B5FCBA81] [A24AAADB]
10 100,0 [D91069E4] [E26D002C]
11 99,8 [1BC3A1AE] [6928FD88]
12 99,9 [BB71847C] [683C6758]
13 99,5 [15DDCF49] [A2A44C70]
14 99,7 [71058B57] [811D75B4]
15 94,6 [C62E5645] [C66B9BDD]


The Animals - The Mickie Most Years And More (2013) [5CD Box Set] Repost

Tracklist CD05. 1966 - Animalization:

01. Don't Bring Me Down 03:16
02. One Monkey Don't Stop No Show 03:21
03. You're On My Mind 02:55
04. Cheating 02:28
05. She'll Return It 02:45
06. Inside-Looking Out 03:48
07. See See Rider 04:01
08. Gin House Blues 04:38
09. Maudie 04:02
10. What Am I Living For 03:14
11. Sweet Little Sixteen 03:08
12. I Put A Spell On You 02:58

Bonus Tracks:
13. Don't Bring Me Down (Stereo) 03:16
14. Cheating (Stereo) 02:23
15. See See Rider (Stereo) 04:00

Exact Audio Copy V1.0 beta 3 from 29. August 2011

EAC extraction logfile from 26. January 2014, 11:38

The Animals / Animalization

Used drive : PLEXTOR BD-R PX-B950SA Adapter: 6 ID: 0

Read mode : Secure
Utilize accurate stream : Yes
Defeat audio cache : Yes
Make use of C2 pointers : No

Read offset correction : 6
Overread into Lead-In and Lead-Out : No
Fill up missing offset samples with silence : Yes
Delete leading and trailing silent blocks : No
Null samples used in CRC calculations : Yes
Used interface : Native Win32 interface for Win NT & 2000

Used output format : Internal WAV Routines
Sample format : 44.100 Hz; 16 Bit; Stereo


TOC of the extracted CD

Track | Start | Length | Start sector | End sector
––––––––––––––––––––––––––––-
1 | 0:00.00 | 3:16.57 | 0 | 14756
2 | 3:16.57 | 3:21.63 | 14757 | 29894
3 | 6:38.45 | 2:55.32 | 29895 | 43051
4 | 9:34.02 | 2:28.02 | 43052 | 54153
5 | 12:02.04 | 2:45.55 | 54154 | 66583
6 | 14:47.59 | 3:48.28 | 66584 | 83711
7 | 18:36.12 | 4:01.20 | 83712 | 101806
8 | 22:37.32 | 4:38.72 | 101807 | 122728
9 | 27:16.29 | 4:02.70 | 122729 | 140948
10 | 31:19.24 | 3:14.28 | 140949 | 155526
11 | 34:33.52 | 3:08.20 | 155527 | 169646
12 | 37:41.72 | 2:58.41 | 169647 | 183037
13 | 40:40.38 | 3:16.62 | 183038 | 197799
14 | 43:57.25 | 2:23.67 | 197800 | 208591
15 | 46:21.17 | 4:00.44 | 208592 | 226635


Range status and errors

Selected range

Filename C:\Users\Meijin\Desktop\ALLexxess\Animals\2013 Mickie Most Years And More (5CD Box Set ABKCO Music)\1966 Animalization\The Animals - Animalization.wav

Peak level 100.0 %
Extraction speed 7.8 X
Range quality 100.0 %
Test CRC 9912011C
Copy CRC 9912011C
Copy OK

No errors occurred


AccurateRip summary

Track 1 accurately ripped (confidence 1) [A2B7DF73] (AR v2)
Track 2 accurately ripped (confidence 1) [4F125CBF] (AR v2)
Track 3 accurately ripped (confidence 1) [482C426A] (AR v2)
Track 4 accurately ripped (confidence 1) [3C9AD154] (AR v2)
Track 5 accurately ripped (confidence 1) [86E1FE66] (AR v2)
Track 6 accurately ripped (confidence 1) [140D2C19] (AR v2)
Track 7 accurately ripped (confidence 1) [59C9B219] (AR v2)
Track 8 accurately ripped (confidence 1) [37A841C5] (AR v2)
Track 9 accurately ripped (confidence 1) [36611BC7] (AR v2)
Track 10 accurately ripped (confidence 1) [87C4ED9E] (AR v2)
Track 11 accurately ripped (confidence 1) [E9652C1B] (AR v2)
Track 12 accurately ripped (confidence 1) [052C053B] (AR v2)
Track 13 accurately ripped (confidence 1) [3A7DC9E8] (AR v2)
Track 14 accurately ripped (confidence 1) [BAF563E6] (AR v2)
Track 15 accurately ripped (confidence 1) [1348D2DD] (AR v2)

All tracks accurately ripped

End of status report

==== Log checksum 415EA938F2042155107272D04DC3B76FCC2E9438521885425A8C1B170C34A785 ====


[CUETools log; Date: 04.06.2021 11:03:30; Version: 2.1.4]
[AccurateRip ID: 001b72df-01393594-e00bcd0f] found.
Track [ CRC | V2 ] Status
01 [66d34b49|a2b7df73] (0+7/7) Accurately ripped
02 [7a65bdbf|4f125cbf] (0+8/8) Accurately ripped
03 [256a572d|482c426a] (0+8/8) Accurately ripped
04 [7d374d2a|3c9ad154] (0+8/8) Accurately ripped
05 [661a60bd|86e1fe66] (0+8/8) Accurately ripped
06 [a52b9b9a|140d2c19] (0+8/8) Accurately ripped
07 [1f39ad97|59c9b219] (0+8/8) Accurately ripped
08 [7e9982e1|37a841c5] (0+8/8) Accurately ripped
09 [62460c6d|36611bc7] (0+8/8) Accurately ripped
10 [02eba5fa|87c4ed9e] (0+8/8) Accurately ripped
11 [e9035b83|e9652c1b] (0+8/8) Accurately ripped
12 [8d59677c|052c053b] (0+8/8) Accurately ripped
13 [2c642d16|3a7dc9e8] (0+8/8) Accurately ripped
14 [2d459beb|baf563e6] (0+8/8) Accurately ripped
15 [e2f1a36c|1348d2dd] (0+8/8) Accurately ripped

Track Peak [ CRC32 ] [W/O NULL] [ LOG ]
– 100,0 [9912011C] [67F3AD69] CRC32
01 97,0 [9E50C14D] [F713032B]
02 92,5 [B26E1297] [37E5F025]
03 96,7 [5B1741FC] [7B69796A]
04 100,0 [5CBE2E68] [E04A2C89]
05 97,9 [4EC7F658] [68E98F07]
06 98,3 [5B8406AE] [1442D38E]
07 97,9 [77F0B89C] [44688E50]
08 97,8 [80566A71] [994ED97F]
09 96,8 [EBCDDEB5] [A03D89EE]
10 96,7 [49D6EE69] [78AF8697]
11 97,6 [F65D2C5A] [EFD4DFA5]
12 97,2 [8D024BBF] [1211E02D]
13 97,3 [FCEE97A8] [456C4B65]
14 100,0 [5CB99A2D] [684F784F]
15 98,0 [9FBE2DA9] [CD9F37C8]


The Animals - The Mickie Most Years And More (2013) [5CD Box Set] Repost

All thanks go to the original releaser

The Animals in my Blog

Download The Animals - The Mickie Most Years And More (2013):