Subcategories

The B-52's - Wild Planet (1980)

Posted By: Designol
The B-52's - Wild Planet (1980)

The B-52's - Wild Planet (1980)
EAC | FLAC | Image (Cue&Log) ~ 221 Mb | Mp3 (CBR320) ~ 95 Mb | Scans included
New Wave, Post-Punk, Dance-Rock | Label: Island | # 252 587 | 00:34:57

Conventional wisdom has it that all the B-52's' subsequent releases are highly inferior to their debut. While Wild Planet is not the rarefied wonder their first platter is, it's still darn good. The songs here are generally faster, tighter, and punchier than previously, though production values are not as wonderfully quirky and detailed; fewer songs here are as over-the-top crazy as the first album's "Rock Lobster" or "52 Girls." These formless selections continue to exhibit a cunning mix of girl group, garage band, surf, and television theme song influences, all propelled along by an itchy dance beat. "Give Me Back My Man" allows Cindy Wilson a unique opportunity to croon a broad, expressive melodic line. Fred Schneider parades his inimitably nervous vocals on chucklesome ditties like "Quiche Lorraine" and "Strobe Light." The best songs here are "Private Idaho," a wonderfully jittery number that employs a variant on the famous melodic snippet from the Twilight Zone theme music, and "Devil in My Car," a delightfully loopy hoot that lays the craziness on very thickly. Performances and sound quality are fine. This album is well worth hearing and recommended.

Review by David Cleary, Allmusic.com

The B-52's at Allmusic
The B-52's Website
The B-52's at Wiki

Tracklist:

01. Party Out Of Bounds (3:22)
02. Dirty Back Road (3:21)
03. Runnin' Around (3:10)
04. Give Me Back My Man (4:02)
05. Private Idaho (3:38)
06. Devil In My Car (4:29)
07. Quiche Lorraine (3:59)
08. Strobe Light (4:01)
09. 53 Miles West Of Venus (4:54)


Exact Audio Copy V0.99 prebeta 5 from 4. May 2009

EAC extraction logfile from 3. November 2010, 15:50

The B-52's / Wild Planet (252 587)

Used drive : MATSHITADVD-R UJ-825 Adapter: 0 ID: 1

Read mode : Secure
Utilize accurate stream : Yes
Defeat audio cache : Yes
Make use of C2 pointers : No

Read offset correction : 102
Overread into Lead-In and Lead-Out : No
Fill up missing offset samples with silence : Yes
Delete leading and trailing silent blocks : No
Null samples used in CRC calculations : Yes
Used interface : Native Win32 interface for Win NT & 2000

Used output format : User Defined Encoder
Selected bitrate : 768 kBit/s
Quality : High
Add ID3 tag : No
Command line compressor : C:\Program Files\Exact Audio Copy\Flac\flac.exe
Additional command line options : -8 -V %s


TOC of the extracted CD

Track | Start | Length | Start sector | End sector
––––––––––––––––––––––––––––-
1 | 0:00.00 | 3:22.32 | 0 | 15181
2 | 3:22.32 | 3:21.15 | 15182 | 30271
3 | 6:43.47 | 3:10.08 | 30272 | 44529
4 | 9:53.55 | 4:01.65 | 44530 | 62669
5 | 13:55.45 | 3:37.72 | 62670 | 79016
6 | 17:33.42 | 4:29.25 | 79017 | 99216
7 | 22:02.67 | 3:58.50 | 99217 | 117116
8 | 26:01.42 | 4:01.30 | 117117 | 135221
9 | 30:02.72 | 4:53.70 | 135222 | 157266


Range status and errors

Selected range

Filename C:\Olaf der Weisse\The B-52's .1980 . Wild Planet (252 587)\The B-52's - Wild Planet (252 587).wav

Peak level 86.0 %
Range quality 100.0 %
Test CRC 8CC2CCE1
Copy CRC 8CC2CCE1
Copy OK

No errors occurred


AccurateRip summary

Track 1 accurately ripped (confidence 16) [D7B9B25A]
Track 2 accurately ripped (confidence 16) [355F84A1]
Track 3 accurately ripped (confidence 16) [6BFC69B7]
Track 4 accurately ripped (confidence 16) [DB3D078C]
Track 5 accurately ripped (confidence 15) [C95D4607]
Track 6 accurately ripped (confidence 15) [BD64D3C2]
Track 7 accurately ripped (confidence 16) [6C26538D]
Track 8 accurately ripped (confidence 16) [EF641F70]
Track 9 accurately ripped (confidence 16) [C7BFFA1A]

All tracks accurately ripped

End of status report

[CUETools log; Date: 11.07.2018 16:50:59; Version: 2.1.4]
[CTDB TOCID: evdnZ6I.1bi_xK4i6DyhezkuklY-] found.
Track | CTDB Status
1 | (74/74) Accurately ripped
2 | (74/74) Accurately ripped
3 | (73/74) Accurately ripped
4 | (74/74) Accurately ripped
5 | (73/74) Accurately ripped
6 | (74/74) Accurately ripped
7 | (74/74) Accurately ripped
8 | (73/74) Accurately ripped
9 | (73/74) Accurately ripped
[AccurateRip ID: 000b4c8e-00540b24-67083009] found.
Track [ CRC | V2 ] Status
01 [d7b9b25a|c33b18dd] (27+34/61) Accurately ripped
02 [355f84a1|a39f5691] (26+34/60) Accurately ripped
03 [6bfc69b7|24e95c35] (26+34/60) Accurately ripped
04 [db3d078c|0c3d4c7a] (27+34/61) Accurately ripped
05 [c95d4607|de744819] (26+34/60) Accurately ripped
06 [bd64d3c2|f146766f] (25+34/59) Accurately ripped
07 [6c26538d|87a570c3] (26+33/59) Accurately ripped
08 [ef641f70|db11c355] (26+33/59) Accurately ripped
09 [c7bffa1a|470d94bf] (26+34/60) Accurately ripped

Track Peak [ CRC32 ] [W/O NULL] [ LOG ]
– 86,0 [8CC2CCE1] [FC53C2FC] CRC32
01 81,0 [27499315] [FE1F51D7]
02 67,0 [1C969A6D] [D13B064A]
03 78,6 [91B15007] [D56D1EE1]
04 74,8 [15CF1465] [9C4330D0]
05 66,6 [8CD68DEB] [9DEA1FEC]
06 79,1 [BEA441A5] [26B0E39C]
07 86,0 [30271641] [B8D86CA5]
08 74,7 [7FC43E18] [48E2FEC5]
09 81,5 [6660DACF] [7DDE58A8]

foobar2000 1.2 / Dynamic Range Meter 1.1.1
log date: 2018-07-11 16:34:23

––––––––––––––––––––––––––––––––––––––––
Analyzed: The B-52's / Wild Planet (252 587)
––––––––––––––––––––––––––––––––––––––––

DR Peak RMS Duration Track
––––––––––––––––––––––––––––––––––––––––
DR13 -1.82 dB -17.21 dB 3:22 01-Party Out Of Bounds
DR15 -3.48 dB -19.36 dB 3:21 02-Dirty Back Road
DR13 -2.09 dB -17.40 dB 3:10 03-Runnin' Around
DR12 -2.52 dB -17.49 dB 4:02 04-Give Me Back My Man
DR12 -3.53 dB -17.85 dB 3:38 05-Private Idaho
DR12 -2.03 dB -15.95 dB 4:29 06-Devil In My Car
DR14 -1.31 dB -16.86 dB 3:59 07-Quiche Lorraine
DR12 -2.53 dB -16.75 dB 4:01 08-Strobe Light
DR13 -1.77 dB -16.98 dB 4:54 09-53 Miles West Of Venus
––––––––––––––––––––––––––––––––––––––––

Number of tracks: 9
Official DR value: DR13

Samplerate: 44100 Hz
Channels: 2
Bits per sample: 16
Bitrate: 826 kbps
Codec: FLAC
================================================================================

The B-52's - Wild Planet (1980)

The B-52's - Wild Planet (1980)