Tags
Language
Tags

The Beatles - Compact Disc EP. Collection (1992) [15CD Box Set]

Posted By:
The Beatles - Compact Disc EP. Collection (1992) [15CD Box Set]

The Beatles - Compact Disc EP. Collection (1992)
EAC | Flac(Image) + Cue + Log & MP3 CBR 320Kbps
Capitol C2-15852 | ~ 602 or 401 Mb | Artwork(jpg) -> 352 Mb
Rock / Beat / Rock & Roll

At one level, one would have to be a collector, an Anglophile, or a 1960s pop culture enthusiast to consider this 14-CD set a good deal. In the U.K., the EP ("extended play" single), which contains more tracks than an ordinary single and fewer than an album, has always been a far more popular format than it is in the U.S. During their heyday, the Beatles regularly released EPs in Great Britain, a total of 13 of them, in fact, between June 1963 and December of 1967, and they're all assembled in this box, complete with original art and sleeves in miniature. What that means, of course, is that you get a bunch of CDs, each of which only has four songs on it. That's not an easy way to enjoy the music contained herein, so on a practical level this box has its limitations. But on another level, it's an interesting way to hear and understand the way in which the group's music not only was sold, but the way in which it changed the way people bought music and listened to it.

The recording history of the Beatles is usually defined by their 45-rpm singles and their 33-and-a-third-rpm LP releases, for the obvious reason that these were the dominant formats, both in England and the United States as well as the rest of the world, and were the most enduring as well. As referenced above, however, in England the group also managed to release 13 EP 45s, single-sized discs that contained four songs each, between 1963 and 1967. A byproduct of the battle between the single and LP formats, the EP was an awkward compromise, during an era in which most listeners – outside of the specialized fields of jazz fans, classical music aficionados, and stereo and hi-fi enthusiasts – tended to reserve their purchasing of LPs to special occasions, such as Christmas or as birthday presents. That went triple for teenagers – only Elvis Presley's LPs sold especially well among early rock & rollers – and was even more true in England, where, in an economy that remained stunted by World War II for decades afterwards, there was far less disposable cash among the middle and working classes than there was in America. The Beatles would go a long way toward changing those buying habits on both sides of the Atlantic, simply by making their LPs too good and substantial to be ignored, even by casual fans. But when they started out, EMI in England had every reason to include EPs on their schedule of releases by the group, because of the huge gap between single purchasers and album buyers, comprising millions of teenagers. (There were also two EPs released during their early period of American fame, neither of which sold especially well.)

In England, the single and the LP were considered distinctly separate entities – the EP was where they met. Whereas it could take a year – or many years in the Beatles' case – for a group's hit singles to be compiled on an album in England, an EP released four or five months after a single might contain the same hit, presented with three additional songs, usually culled from album sessions. They were a way of reselling earlier hits, getting them back into the commerce stream for new fans, and also getting a second use out of tracks that had already appeared on LP, as well as presenting an artist's work in new contexts. A few acts did make something out of the format – the Rolling Stones, during 1964 and early 1965, found them an excellent vehicle for their stylings of American rock & roll numbers and blues standards that weren't quite worthy of inclusion on an LP, or commercial enough to drive a single's A-side. It bought them time between proper singles and full albums, and served as an outlet for their early, non-original repertoire before the Jagger-Richards songwriting team got up to speed. It also allowed them to present a bracing portion of a live set on the Got Live If You Want It! EP, without committing themselves to a full LP.

The Animals, whose in-house songwriting was also limited and whose repertoire was heavily weighted toward R&B standards, were probably more comfortable working in the four-song EP format than on 12- or 14-song LPs; their EP releases gave them a chance to sell their harder R&B and blues sides (which would end up on their albums) alongside reissues of the somewhat poppier single A-sides favored by their producer, Mickie Most. And Gerry & the Pacemakers, whose in-house songwriting was also a limited quantity, also made better use of the EP format than the LP, releasing most of their music on the former while issuing no more than a pair of LPs – an inimitable live set, as fine as any full LP they ever did, was immortalized on their EP Gerry in California, near the end of their hitmaking years.

The Beatles had none of these shortcomings, and their EPs were a different story. With one exception, they were more a matter of marketing by their label than a creative canvas for the group, although one can be certain that Beatles members (and certainly their manager, Brian Epstein) had some control over how they were designed and released. Although the group would eventually be responsible for making LP purchases routine for teenagers as well as adults, when they started out there were still millions of Britons who didn't purchase LPs except at Christmas, if then. The Beatles' first EP, Twist and Shout, appeared in July of 1963, repackaging four songs from the winter of 1962-1963, but it did more than that – for listeners who might only have known "Please Please Me" from the album of that name, or the group's singles from the radio, this platter focused on distinctly different but equally valid and compelling songs off the debut album, starting with the raw, hard-rocking "Twist and Shout" that closed the album, and surrounded it with three of the prettiest harmony numbers off the LP, showcasing the singing of three group members. All of this was aimed at that portion of a public who were still discovering the group and who might not have known these varied aspects of the Beatles' work.

Their second EP, The Beatles' Hits, showed up in September to help bridge the gap between the Please Please Me and With the Beatles albums, and the run-up to the release of "I Want to Hold Your Hand" – it compiled three early hits and a B-side, only one of which had appeared previously on LP. This all may seem like ancient history in the 21st century, but in 1963 there were still a lot of people discovering the group for the first time as the calendar advanced, and these releases gave them something to buy, months after those singles were gone from stores. The Beatles (No. 1), issued in November, did the same thing with four songs from Please Please Me in the midst of the unprecedented success of With the Beatles and "I Want to Hold Your Hand." These releases, in mono, were also very popular in a time when most pop listeners had not quite yet embraced stereo – they were a lot less expensive than the LPs but, at eight to ten minutes in running time, offered a lot more music than a single.

All My Loving, the following February, threw together tracks off the two prior LPs, intermingling the choicer rock & roll and the ballads. One reason why these releases were never issued in America – where EPs were never very popular – was that in the United States Beatles LPs sold extremely well, as did almost all of the releases involving the group, and between radio stations, parties, dances, and every other place where records were played, it seemed like every Beatles album song was getting lots of exposure all of the time. In England, however, there was still a point to exposing the band's work in different combinations and focuses – each successive EP, if not a great creative endeavor, spotlighted sides of the group from the immediate past that were either worth revisiting or overlooked, in part, amid the success of whatever single was out. And whether by design or happenstance, most of their EPs contained at least one song that made it into their concert repertoire (which, after 1963, never contained more than a dozen numbers).

Eventually, these discs became superfluous, as the group's audience got into the habit of buying LPs, and as the Beatles began writing songs that were more difficult to compile this way. A 17-month gap separated their next-to-last from their last EP – Nowhere Man, reissuing one side of the double-sided hit single and three cuts off of Rubber Soul, showed up in July of 1966; after that had come the Sgt. Pepper's album and a bunch of singles, before running up against the Magical Mystery Tour film. The latter only yielded 19 minutes of Beatles songs, enough for one side of an LP but too much for an EP – so they made it a unique double-disc EP for British release in December of 1967. It's arguable that the Yellow Submarine soundtrack should have been treated similarly, but instead the Beatles followed the format that had worked in America with their soundtracks, grouping the band's songs with instrumental soundtrack music from the movie. The EP was mostly consigned to history by then, due in part to the Beatles' success in making the LP so substantial.

By the time the Magical Mystery Tour EP came out, stereo sound was available in the format, and this box contains that EP in both its stereo and mono versions. The whole release is enjoyable, especially for listeners with carousel or other multi-disc format players. Collectors will also appreciate the packaging – the Beatles' EPs might not have been as creative as the Stones' work in the format, but the photography and design (complete with annotation, which wasn't common on these discs) were some of the handsomest seen in the format, and the glossy, stiff-paper reproduction here is especially pleasing to the eye. It's intended for specialized tastes and listeners, and might well bug the hell out of casual fans, except for the packaging, but it is never less than interesting for the serious listener or collector.

by Bruce Eder, allmusic
The Beatles - Compact Disc EP. Collection (1992):

The Beatles - Compact Disc EP. Collection (1992) [15CD Box Set]

Tracklist CD1 - The Beatles' Hits:

01. From Me To You 2:01
02. Thank You Girl 2:07
03. Please Please Me 2:04
04. Love Me Do 2:20

Exact Audio Copy V1.3 from 2. September 2016

EAC extraction logfile from 20. April 2019, 10:25

The Beatles / The Beatles' Hits (Disc 1)

Used drive : ASUS DRW-24D5MT Adapter: 1 ID: 0

Read mode : Secure
Utilize accurate stream : Yes
Defeat audio cache : Yes
Make use of C2 pointers : No

Read offset correction : 6
Overread into Lead-In and Lead-Out : No
Fill up missing offset samples with silence : Yes
Delete leading and trailing silent blocks : No
Null samples used in CRC calculations : Yes
Used interface : Native Win32 interface for Win NT & 2000

Used output format : User Defined Encoder
Selected bitrate : 768 kBit/s
Quality : High
Add ID3 tag : No
Command line compressor : C:\Program Files (x86)\Exact Audio Copy\Flac\flac.exe
Additional command line options : -V -8 -T "Genre=%genre%" -T "Artist=%artist%" -T "Title=%title%" -T "Album=%albumtitle%" -T "Date=%year%" -T "Tracknumber=%tracknr%" -T "Comment=%comment%" %source%


TOC of the extracted CD

Track | Start | Length | Start sector | End sector
––––––––––––––––––––––––––––-
1 | 0:00.00 | 2:01.20 | 0 | 9094
2 | 2:01.20 | 2:07.35 | 9095 | 18654
3 | 4:08.55 | 2:03.70 | 18655 | 27949
4 | 6:12.50 | 2:19.72 | 27950 | 38446


Range status and errors

Selected range

Filename I:\dafnaplus\The Beatles - Compact Disc EP. Collection\01 The Beatles' Hits\The Beatles - The Beatles' Hits (Disc 1).wav

Peak level 88.3 %
Extraction speed 1.9 X
Range quality 99.9 %
Test CRC B720F07B
Copy CRC B720F07B
Copy OK

No errors occurred


AccurateRip summary

Track 1 accurately ripped (confidence 19) [96F88E5E] (AR v2)
Track 2 accurately ripped (confidence 19) [BB156A03] (AR v2)
Track 3 accurately ripped (confidence 19) [8BA138C8] (AR v2)
Track 4 accurately ripped (confidence 19) [D78E0A8C] (AR v2)

All tracks accurately ripped

End of status report

–– CUETools DB Plugin V2.1.6

[CTDB TOCID: xPAB1bp9JWQrWmb0NpMst1S1MYg-] found
Submit result: xPAB1bp9JWQrWmb0NpMst1S1MYg- has been confirmed
Track | CTDB Status
1 | (58/58) Accurately ripped
2 | (58/58) Accurately ripped
3 | (58/58) Accurately ripped
4 | (58/58) Accurately ripped


==== Log checksum 9F5876C7338DF91CFA115015B5F8F03B5FA0491B951E116C8B16E5C53437CF44 ====


Tracklist CD2 - Twist And Shout:

01. Twist And Shout 2:39
02. A Taste Of Honey 2:06
03. Do You Want To Know A Secret 2:00
04. There's A Place 1:50

Exact Audio Copy V1.3 from 2. September 2016

EAC extraction logfile from 20. April 2019, 10:41

The Beatles / Twist And Shout (Disc 2)

Used drive : ASUS DRW-24D5MT Adapter: 1 ID: 0

Read mode : Secure
Utilize accurate stream : Yes
Defeat audio cache : Yes
Make use of C2 pointers : No

Read offset correction : 6
Overread into Lead-In and Lead-Out : No
Fill up missing offset samples with silence : Yes
Delete leading and trailing silent blocks : No
Null samples used in CRC calculations : Yes
Used interface : Native Win32 interface for Win NT & 2000

Used output format : User Defined Encoder
Selected bitrate : 768 kBit/s
Quality : High
Add ID3 tag : No
Command line compressor : C:\Program Files (x86)\Exact Audio Copy\Flac\flac.exe
Additional command line options : -V -8 -T "Genre=%genre%" -T "Artist=%artist%" -T "Title=%title%" -T "Album=%albumtitle%" -T "Date=%year%" -T "Tracknumber=%tracknr%" -T "Comment=%comment%" %source%


TOC of the extracted CD

Track | Start | Length | Start sector | End sector
––––––––––––––––––––––––––––-
1 | 0:00.00 | 2:39.27 | 0 | 11951
2 | 2:39.27 | 2:05.63 | 11952 | 21389
3 | 4:45.15 | 2:00.10 | 21390 | 30399
4 | 6:45.25 | 1:49.40 | 30400 | 38614


Range status and errors

Selected range

Filename I:\dafnaplus\The Beatles - Compact Disc EP. Collection\02 Twist And Shout\The Beatles - Twist And Shout (Disc 2).wav

Peak level 99.6 %
Extraction speed 4.7 X
Range quality 100.0 %
Test CRC 9ACD0819
Copy CRC 9ACD0819
Copy OK

No errors occurred


AccurateRip summary

Track 1 accurately ripped (confidence 20) [5D02A444] (AR v2)
Track 2 accurately ripped (confidence 20) [6535A1E9] (AR v2)
Track 3 accurately ripped (confidence 20) [A9D9E877] (AR v2)
Track 4 accurately ripped (confidence 20) [1603A601] (AR v2)

All tracks accurately ripped

End of status report

–– CUETools DB Plugin V2.1.6

[CTDB TOCID: X70y4DrgSjS4GS2ZuIg2BbxDu50-] found
Submit result: X70y4DrgSjS4GS2ZuIg2BbxDu50- has been confirmed
Track | CTDB Status
1 | (59/59) Accurately ripped
2 | (59/59) Accurately ripped
3 | (59/59) Accurately ripped
4 | (59/59) Accurately ripped


==== Log checksum 0171627DE2071EF52770BCB1792EF2B8611C3750120FC30487E9EBB19C94BA29 ====


Tracklist CD3 - The Beatles (No. 1):

01. I Saw Her Standing There 2:57
02. Misery 1:51
03. Anna (Go To Him) 3:00
04. Chains 2:24

Exact Audio Copy V1.3 from 2. September 2016

EAC extraction logfile from 20. April 2019, 11:00

The Beatles / The Beatles (No. 1) (Disc 3)

Used drive : ASUS DRW-24D5MT Adapter: 1 ID: 0

Read mode : Secure
Utilize accurate stream : Yes
Defeat audio cache : Yes
Make use of C2 pointers : No

Read offset correction : 6
Overread into Lead-In and Lead-Out : No
Fill up missing offset samples with silence : Yes
Delete leading and trailing silent blocks : No
Null samples used in CRC calculations : Yes
Used interface : Native Win32 interface for Win NT & 2000

Used output format : User Defined Encoder
Selected bitrate : 768 kBit/s
Quality : High
Add ID3 tag : No
Command line compressor : C:\Program Files (x86)\Exact Audio Copy\Flac\flac.exe
Additional command line options : -V -8 -T "Genre=%genre%" -T "Artist=%artist%" -T "Title=%title%" -T "Album=%albumtitle%" -T "Date=%year%" -T "Tracknumber=%tracknr%" -T "Comment=%comment%" %source%


TOC of the extracted CD

Track | Start | Length | Start sector | End sector
––––––––––––––––––––––––––––-
1 | 0:00.32 | 2:57.05 | 32 | 13311
2 | 2:57.37 | 1:51.20 | 13312 | 21656
3 | 4:48.57 | 3:00.30 | 21657 | 35186
4 | 7:49.12 | 2:24.18 | 35187 | 46004


Range status and errors

Selected range

Filename I:\dafnaplus\The Beatles - Compact Disc EP. Collection\03 The Beatles (No. 1)\The Beatles - The Beatles (No. 1) (Disc 3).wav

Peak level 95.3 %
Extraction speed 1.2 X
Range quality 100.0 %
Test CRC BA36FBD8
Copy CRC BA36FBD8
Copy OK

No errors occurred


AccurateRip summary

Track 1 accurately ripped (confidence 17) [6E9EB9A5] (AR v2)
Track 2 accurately ripped (confidence 17) [BC259BC9] (AR v2)
Track 3 accurately ripped (confidence 17) [80F2BA2D] (AR v2)
Track 4 accurately ripped (confidence 17) [C3D1A009] (AR v2)

All tracks accurately ripped

End of status report

–– CUETools DB Plugin V2.1.6

[CTDB TOCID: VDMh4wPAIfW.qw0KG0NpwNl0zyM-] found
Submit result: VDMh4wPAIfW.qw0KG0NpwNl0zyM- has been confirmed
Track | CTDB Status
1 | (30/30) Accurately ripped
2 | (30/30) Accurately ripped
3 | (30/30) Accurately ripped
4 | (30/30) Accurately ripped


==== Log checksum 85C5F0E5150807E5928698CDA0C9CF0242CC5893D71E0FC3EEDB5217B539A7BF ====


Tracklist CD4 - All My Loving:

01. All My Loving 2:10
02. Ask Me Why 2:29
03. Money 2:52
04. P.S. I Love You 2:02

Exact Audio Copy V1.3 from 2. September 2016

EAC extraction logfile from 20. April 2019, 13:16

The Beatles / All My Loving (Disc 4)

Used drive : ASUS DRW-24D5MT Adapter: 1 ID: 0

Read mode : Secure
Utilize accurate stream : Yes
Defeat audio cache : Yes
Make use of C2 pointers : No

Read offset correction : 6
Overread into Lead-In and Lead-Out : No
Fill up missing offset samples with silence : Yes
Delete leading and trailing silent blocks : No
Null samples used in CRC calculations : Yes
Used interface : Native Win32 interface for Win NT & 2000

Used output format : User Defined Encoder
Selected bitrate : 768 kBit/s
Quality : High
Add ID3 tag : No
Command line compressor : C:\Program Files (x86)\Exact Audio Copy\Flac\flac.exe
Additional command line options : -V -8 -T "Genre=%genre%" -T "Artist=%artist%" -T "Title=%title%" -T "Album=%albumtitle%" -T "Date=%year%" -T "Tracknumber=%tracknr%" -T "Comment=%comment%" %source%


TOC of the extracted CD

Track | Start | Length | Start sector | End sector
––––––––––––––––––––––––––––-
1 | 0:00.32 | 2:10.28 | 32 | 9809
2 | 2:10.60 | 2:28.42 | 9810 | 20951
3 | 4:39.27 | 2:52.00 | 20952 | 33851
4 | 7:31.27 | 2:02.35 | 33852 | 43036


Range status and errors

Selected range

Filename I:\dafnaplus\The Beatles - Compact Disc EP. Collection\04 All My Loving\The Beatles - All My Loving (Disc 4).wav

Peak level 100.0 %
Extraction speed 1.2 X
Range quality 100.0 %
Test CRC FF9FBC25
Copy CRC FF9FBC25
Copy OK

No errors occurred


AccurateRip summary

Track 1 accurately ripped (confidence 18) [4E21D384] (AR v2)
Track 2 accurately ripped (confidence 18) [85123272] (AR v2)
Track 3 accurately ripped (confidence 18) [F23F92F3] (AR v2)
Track 4 accurately ripped (confidence 18) [19BF21DD] (AR v2)

All tracks accurately ripped

End of status report

–– CUETools DB Plugin V2.1.6

[CTDB TOCID: ibdcalwYwE0S2rBrAEcGVUhZdY4-] found
Submit result: ibdcalwYwE0S2rBrAEcGVUhZdY4- has been confirmed
Track | CTDB Status
1 | (27/27) Accurately ripped
2 | (27/27) Accurately ripped
3 | (27/27) Accurately ripped
4 | (27/27) Accurately ripped


==== Log checksum 4054251E82E68A0362D3473EBBBB5F04B95DC8191CE4F5985FCC5F069E1CF94D ====


Tracklist CD5 - Long Tall Sally:

01. Long Tall Sally 2:06
02. I Call Your Name 2:12
03. Slow Down 3:00
04. Matchbox 1:59

Exact Audio Copy V1.3 from 2. September 2016

EAC extraction logfile from 20. April 2019, 13:34

The Beatles / Long Tall Sally (Disc 5)

Used drive : ASUS DRW-24D5MT Adapter: 1 ID: 0

Read mode : Secure
Utilize accurate stream : Yes
Defeat audio cache : Yes
Make use of C2 pointers : No

Read offset correction : 6
Overread into Lead-In and Lead-Out : No
Fill up missing offset samples with silence : Yes
Delete leading and trailing silent blocks : No
Null samples used in CRC calculations : Yes
Used interface : Native Win32 interface for Win NT & 2000

Used output format : User Defined Encoder
Selected bitrate : 768 kBit/s
Quality : High
Add ID3 tag : No
Command line compressor : C:\Program Files (x86)\Exact Audio Copy\Flac\flac.exe
Additional command line options : -V -8 -T "Genre=%genre%" -T "Artist=%artist%" -T "Title=%title%" -T "Album=%albumtitle%" -T "Date=%year%" -T "Tracknumber=%tracknr%" -T "Comment=%comment%" %source%


TOC of the extracted CD

Track | Start | Length | Start sector | End sector
––––––––––––––––––––––––––––-
1 | 0:00.32 | 2:06.33 | 32 | 9514
2 | 2:06.65 | 2:12.35 | 9515 | 19449
3 | 4:19.25 | 2:59.57 | 19450 | 32931
4 | 7:19.07 | 1:58.43 | 32932 | 41824


Range status and errors

Selected range

Filename I:\dafnaplus\The Beatles - Compact Disc EP. Collection\05 Long Tall Sally\The Beatles - Long Tall Sally (Disc 5).wav

Peak level 90.8 %
Extraction speed 1.2 X
Range quality 100.0 %
Test CRC F77E5F2A
Copy CRC F77E5F2A
Copy OK

No errors occurred


AccurateRip summary

Track 1 accurately ripped (confidence 15) [E5F84D34] (AR v2)
Track 2 accurately ripped (confidence 15) [A3DBCA65] (AR v2)
Track 3 accurately ripped (confidence 15) [B6F2B795] (AR v2)
Track 4 accurately ripped (confidence 15) [18737289] (AR v2)

All tracks accurately ripped

End of status report

–– CUETools DB Plugin V2.1.6

[CTDB TOCID: gHzSkVN364UNaUEc7iCeg7b8bkk-] found
Submit result: gHzSkVN364UNaUEc7iCeg7b8bkk- has been confirmed
Track | CTDB Status
1 | (27/27) Accurately ripped
2 | (27/27) Accurately ripped
3 | (27/27) Accurately ripped
4 | (27/27) Accurately ripped


==== Log checksum 34295C8CFD96E71B086976B774A25613A84BCEC518C297DC78C9E05487E7D69B ====


Tracklist CD6 - Extracts From The Film A Hard Day's Night:

01. I Should Have Known Better 2:47
02. If I Fell 2:24
03. Tell Me Why 2:12
04. And I Love Her 2:29

Exact Audio Copy V1.3 from 2. September 2016

EAC extraction logfile from 21. April 2019, 17:41

The Beatles / Extracts From The Film 'A Hard Day's Night' (Disc 6)

Used drive : ASUS DRW-24D5MT Adapter: 1 ID: 0

Read mode : Secure
Utilize accurate stream : Yes
Defeat audio cache : Yes
Make use of C2 pointers : No

Read offset correction : 6
Overread into Lead-In and Lead-Out : No
Fill up missing offset samples with silence : Yes
Delete leading and trailing silent blocks : No
Null samples used in CRC calculations : Yes
Used interface : Native Win32 interface for Win NT & 2000

Used output format : User Defined Encoder
Selected bitrate : 768 kBit/s
Quality : High
Add ID3 tag : No
Command line compressor : C:\Program Files (x86)\Exact Audio Copy\Flac\flac.exe
Additional command line options : -V -8 -T "Genre=%genre%" -T "Artist=%artist%" -T "Title=%title%" -T "Album=%albumtitle%" -T "Date=%year%" -T "Tracknumber=%tracknr%" -T "Comment=%comment%" %source%


TOC of the extracted CD

Track | Start | Length | Start sector | End sector
––––––––––––––––––––––––––––-
1 | 0:00.32 | 2:46.45 | 32 | 12526
2 | 2:47.02 | 2:23.65 | 12527 | 23316
3 | 5:10.67 | 2:11.68 | 23317 | 33209
4 | 7:22.60 | 2:29.12 | 33210 | 44396


Range status and errors

Selected range

Filename I:\dafnaplus\The Beatles - Compact Disc EP. Collection\06 Extracts From The Film A Hard Day's Night\The Beatles - Extracts From The Film 'A Hard Day's Night' (Disc 6).wav

Peak level 97.0 %
Extraction speed 1.1 X
Range quality 99.9 %
Test CRC 764D353A
Copy CRC 764D353A
Copy OK

No errors occurred


AccurateRip summary

Track 1 accurately ripped (confidence 15) [8323358B] (AR v2)
Track 2 accurately ripped (confidence 15) [F5A84624] (AR v2)
Track 3 accurately ripped (confidence 15) [21966A50] (AR v2)
Track 4 accurately ripped (confidence 15) [724F936C] (AR v2)

All tracks accurately ripped

End of status report

–– CUETools DB Plugin V2.1.6

[CTDB TOCID: PZzgsL4uDqLNa1rnUlgTlKtV8.c-] found
Submit result: PZzgsL4uDqLNa1rnUlgTlKtV8.c- has been confirmed
Track | CTDB Status
1 | (27/27) Accurately ripped
2 | (27/27) Accurately ripped
3 | (27/27) Accurately ripped
4 | (27/27) Accurately ripped


==== Log checksum 6B4C0D4DA3D603F95C8915305218D8AE9281A10CB1CF3A98EA799971C0DFC9B6 ====


Tracklist CD7 - Extracts From The Album A Hard Day's Night:

01. Any Time At All 2:16
02. I'll Cry Instead 1:50
03. Things We Said Today 2:40
04. When I Get Home 2:16

Exact Audio Copy V1.3 from 2. September 2016

EAC extraction logfile from 21. April 2019, 17:58

The Beatles / Extracts From The Album 'A Hard Day's Night' (Disc 7)

Used drive : ASUS DRW-24D5MT Adapter: 1 ID: 0

Read mode : Secure
Utilize accurate stream : Yes
Defeat audio cache : Yes
Make use of C2 pointers : No

Read offset correction : 6
Overread into Lead-In and Lead-Out : No
Fill up missing offset samples with silence : Yes
Delete leading and trailing silent blocks : No
Null samples used in CRC calculations : Yes
Used interface : Native Win32 interface for Win NT & 2000

Used output format : User Defined Encoder
Selected bitrate : 768 kBit/s
Quality : High
Add ID3 tag : No
Command line compressor : C:\Program Files (x86)\Exact Audio Copy\Flac\flac.exe
Additional command line options : -V -8 -T "Genre=%genre%" -T "Artist=%artist%" -T "Title=%title%" -T "Album=%albumtitle%" -T "Date=%year%" -T "Tracknumber=%tracknr%" -T "Comment=%comment%" %source%


TOC of the extracted CD

Track | Start | Length | Start sector | End sector
––––––––––––––––––––––––––––-
1 | 0:00.32 | 2:16.13 | 32 | 10244
2 | 2:16.45 | 1:50.37 | 10245 | 18531
3 | 4:07.07 | 2:39.38 | 18532 | 30494
4 | 6:46.45 | 2:15.55 | 30495 | 40674


Range status and errors

Selected range

Filename I:\dafnaplus\The Beatles - Compact Disc EP. Collection\07 Extracts From The Album A Hard Day's Night\The Beatles - Extracts From The Album 'A Hard Day's Night' (Disc 7).wav

Peak level 100.0 %
Extraction speed 1.2 X
Range quality 100.0 %
Test CRC 151D027B
Copy CRC 151D027B
Copy OK

No errors occurred


AccurateRip summary

Track 1 accurately ripped (confidence 18) [0189FEC4] (AR v2)
Track 2 accurately ripped (confidence 18) [8F3E3651] (AR v2)
Track 3 accurately ripped (confidence 18) [2FD424B3] (AR v2)
Track 4 accurately ripped (confidence 18) [4FC2E747] (AR v2)

All tracks accurately ripped

End of status report

–– CUETools DB Plugin V2.1.6

[CTDB TOCID: lLeJobN_hgKHaF5Px.sEXRGLcZI-] found
Submit result: lLeJobN_hgKHaF5Px.sEXRGLcZI- has been confirmed
Track | CTDB Status
1 | (25/25) Accurately ripped
2 | (25/25) Accurately ripped
3 | (25/25) Accurately ripped
4 | (25/25) Accurately ripped


==== Log checksum DE3797DFAD3F51462C0DCB627F21056D5DF184F9F56B2D88E8E1ED825778F693 ====


Tracklist CD8 - Beatles For Sale:

01. No Reply 2:20
02. I'm A Loser 2:34
03. Rock And Roll Music 2:36
04. Eight Days A Week 2:44

Exact Audio Copy V1.3 from 2. September 2016

EAC extraction logfile from 21. April 2019, 18:22

The Beatles / Beatles For Sale (Disc 8)

Used drive : ASUS DRW-24D5MT Adapter: 1 ID: 0

Read mode : Secure
Utilize accurate stream : Yes
Defeat audio cache : Yes
Make use of C2 pointers : No

Read offset correction : 6
Overread into Lead-In and Lead-Out : No
Fill up missing offset samples with silence : Yes
Delete leading and trailing silent blocks : No
Null samples used in CRC calculations : Yes
Used interface : Native Win32 interface for Win NT & 2000

Used output format : User Defined Encoder
Selected bitrate : 768 kBit/s
Quality : High
Add ID3 tag : No
Command line compressor : C:\Program Files (x86)\Exact Audio Copy\Flac\flac.exe
Additional command line options : -V -8 -T "Genre=%genre%" -T "Artist=%artist%" -T "Title=%title%" -T "Album=%albumtitle%" -T "Date=%year%" -T "Tracknumber=%tracknr%" -T "Comment=%comment%" %source%


TOC of the extracted CD

Track | Start | Length | Start sector | End sector
––––––––––––––––––––––––––––-
1 | 0:00.32 | 2:19.50 | 32 | 10506
2 | 2:20.07 | 2:33.70 | 10507 | 22051
3 | 4:54.02 | 2:35.70 | 22052 | 33746
4 | 7:29.72 | 2:43.58 | 33747 | 46029


Range status and errors

Selected range

Filename I:\dafnaplus\The Beatles - Compact Disc EP. Collection\08 Beatles For Sale\The Beatles - Beatles For Sale (Disc 8).wav

Peak level 100.0 %
Extraction speed 1.2 X
Range quality 100.0 %
Test CRC 42ABB6D6
Copy CRC 42ABB6D6
Copy OK

No errors occurred


AccurateRip summary

Track 1 accurately ripped (confidence 18) [6A6100CC] (AR v2)
Track 2 accurately ripped (confidence 18) [752D38D9] (AR v2)
Track 3 accurately ripped (confidence 18) [DE57AC41] (AR v2)
Track 4 accurately ripped (confidence 18) [29945827] (AR v2)

All tracks accurately ripped

End of status report

–– CUETools DB Plugin V2.1.6

[CTDB TOCID: gT4GW.d1CaR7mKe37JBR05AiqJ8-] found
Submit result: gT4GW.d1CaR7mKe37JBR05AiqJ8- has been confirmed
Track | CTDB Status
1 | (26/26) Accurately ripped
2 | (26/26) Accurately ripped
3 | (26/26) Accurately ripped
4 | (26/26) Accurately ripped


==== Log checksum 005D88906EC1567CBFE2D60B9514DFB96ADD28DD261A9ADBB5D3D82FAA8ECFC8 ====


Tracklist CD9 - Beatles For Sale (No. 2):

01. I'll Follow The Sun 1:53
02. Baby's In Black 2:10
03. Words Of Love 2:16
04. I Don't Want To Spoil The Party 2:34

Exact Audio Copy V1.3 from 2. September 2016

EAC extraction logfile from 21. April 2019, 18:49

The Beatles / Beatles For Sale (No. 2) (Disc 9)

Used drive : ASUS DRW-24D5MT Adapter: 1 ID: 0

Read mode : Secure
Utilize accurate stream : Yes
Defeat audio cache : Yes
Make use of C2 pointers : No

Read offset correction : 6
Overread into Lead-In and Lead-Out : No
Fill up missing offset samples with silence : Yes
Delete leading and trailing silent blocks : No
Null samples used in CRC calculations : Yes
Used interface : Native Win32 interface for Win NT & 2000

Used output format : User Defined Encoder
Selected bitrate : 768 kBit/s
Quality : High
Add ID3 tag : No
Command line compressor : C:\Program Files (x86)\Exact Audio Copy\Flac\flac.exe
Additional command line options : -V -8 -T "Genre=%genre%" -T "Artist=%artist%" -T "Title=%title%" -T "Album=%albumtitle%" -T "Date=%year%" -T "Tracknumber=%tracknr%" -T "Comment=%comment%" %source%


TOC of the extracted CD

Track | Start | Length | Start sector | End sector
––––––––––––––––––––––––––––-
1 | 0:00.32 | 1:53.28 | 32 | 8534
2 | 1:53.60 | 2:09.62 | 8535 | 18271
3 | 4:03.47 | 2:15.63 | 18272 | 28459
4 | 6:19.35 | 2:33.57 | 28460 | 39991


Range status and errors

Selected range

Filename I:\dafnaplus\The Beatles - Compact Disc EP. Collection\09 Beatles For Sale (№ 2)\The Beatles - Beatles For Sale (No. 2) (Disc 9).wav

Peak level 99.1 %
Extraction speed 1.2 X
Range quality 100.0 %
Test CRC 8714B201
Copy CRC 8714B201
Copy OK

No errors occurred


AccurateRip summary

Track 1 accurately ripped (confidence 18) [AB297DDA] (AR v2)
Track 2 accurately ripped (confidence 18) [ABB3B348] (AR v2)
Track 3 accurately ripped (confidence 18) [37375A34] (AR v2)
Track 4 accurately ripped (confidence 18) [13CEA08B] (AR v2)

All tracks accurately ripped

End of status report

–– CUETools DB Plugin V2.1.6

[CTDB TOCID: 6FGA5O10oBPmStAMMt7.RP9yo1g-] found
Submit result: 6FGA5O10oBPmStAMMt7.RP9yo1g- has been confirmed
Track | CTDB Status
1 | (41/41) Accurately ripped
2 | (41/41) Accurately ripped
3 | (41/41) Accurately ripped
4 | (41/41) Accurately ripped


==== Log checksum DA89002202C6AC99701AFF2E598EC6A24266F0893964FEE2C36F6E54496749DF ====


Tracklist CD10 - The Beatles Million Sellers:

1. She Loves You 2:23
02. I Want To Hold Your Hand 2:28
03. Can't Buy Me Love 2:16
04. I Feel Fine 2:22

Exact Audio Copy V1.3 from 2. September 2016

EAC extraction logfile from 21. April 2019, 19:19

The Beatles / The Beatles Million Sellers (Disc 10)

Used drive : ASUS DRW-24D5MT Adapter: 1 ID: 0

Read mode : Secure
Utilize accurate stream : Yes
Defeat audio cache : Yes
Make use of C2 pointers : No

Read offset correction : 6
Overread into Lead-In and Lead-Out : No
Fill up missing offset samples with silence : Yes
Delete leading and trailing silent blocks : No
Null samples used in CRC calculations : Yes
Used interface : Native Win32 interface for Win NT & 2000

Used output format : User Defined Encoder
Selected bitrate : 768 kBit/s
Quality : High
Add ID3 tag : No
Command line compressor : C:\Program Files (x86)\Exact Audio Copy\Flac\flac.exe
Additional command line options : -V -8 -T "Genre=%genre%" -T "Artist=%artist%" -T "Title=%title%" -T "Album=%albumtitle%" -T "Date=%year%" -T "Tracknumber=%tracknr%" -T "Comment=%comment%" %source%


TOC of the extracted CD

Track | Start | Length | Start sector | End sector
––––––––––––––––––––––––––––-
1 | 0:00.32 | 2:23.35 | 32 | 10791
2 | 2:23.67 | 2:27.73 | 10792 | 21889
3 | 4:51.65 | 2:15.57 | 21890 | 32071
4 | 7:07.47 | 2:22.23 | 32072 | 42744


Range status and errors

Selected range

Filename I:\dafnaplus\The Beatles - Compact Disc EP. Collection\10 The Beatles Million Sellers\The Beatles - The Beatles Million Sellers (Disc 10).wav

Peak level 100.0 %
Extraction speed 1.2 X
Range quality 100.0 %
Test CRC 9349F59C
Copy CRC 9349F59C
Copy OK

No errors occurred


AccurateRip summary

Track 1 accurately ripped (confidence 19) [C5B3F313] (AR v2)
Track 2 accurately ripped (confidence 19) [8F1B2619] (AR v2)
Track 3 accurately ripped (confidence 18) [161ACE05] (AR v2)
Track 4 accurately ripped (confidence 18) [81CAF3EB] (AR v2)

All tracks accurately ripped

End of status report

–– CUETools DB Plugin V2.1.6

[CTDB TOCID: y4JhbkE..CuJZMWuFmUv6bTslOE-] found
Submit result: y4JhbkE..CuJZMWuFmUv6bTslOE- has been confirmed
Track | CTDB Status
1 | (24/24) Accurately ripped
2 | (24/24) Accurately ripped
3 | (24/24) Accurately ripped
4 | (24/24) Accurately ripped


==== Log checksum B2F2F2B79B236ED0423EC0E079B785E588A893BABB5A65C00005282701FBBF30 ====


Tracklist CD11 - Yesterday:

01. Yesterday 2:09
02. Act Naturally 2:32
03. You Like Me Too Much 2:39
04. It's Only Love 1:54

Exact Audio Copy V1.3 from 2. September 2016

EAC extraction logfile from 22. April 2019, 14:10

The Beatles / Yesterday (Disc 11)

Used drive : ASUS DRW-24D5MT Adapter: 1 ID: 0

Read mode : Secure
Utilize accurate stream : Yes
Defeat audio cache : Yes
Make use of C2 pointers : No

Read offset correction : 6
Overread into Lead-In and Lead-Out : No
Fill up missing offset samples with silence : Yes
Delete leading and trailing silent blocks : No
Null samples used in CRC calculations : Yes
Used interface : Native Win32 interface for Win NT & 2000

Used output format : User Defined Encoder
Selected bitrate : 768 kBit/s
Quality : High
Add ID3 tag : No
Command line compressor : C:\Program Files (x86)\Exact Audio Copy\Flac\flac.exe
Additional command line options : -V -8 -T "Genre=%genre%" -T "Artist=%artist%" -T "Title=%title%" -T "Album=%albumtitle%" -T "Date=%year%" -T "Tracknumber=%tracknr%" -T "Comment=%comment%" %source%


TOC of the extracted CD

Track | Start | Length | Start sector | End sector
––––––––––––––––––––––––––––-
1 | 0:00.32 | 2:09.18 | 32 | 9724
2 | 2:09.50 | 2:32.30 | 9725 | 21154
3 | 4:42.05 | 2:39.20 | 21155 | 33099
4 | 7:21.25 | 1:54.37 | 33100 | 41686


Range status and errors

Selected range

Filename I:\dafnaplus\The Beatles - Compact Disc EP. Collection\11 Yesterday\The Beatles - Yesterday (Disc 11).wav

Peak level 94.9 %
Extraction speed 1.2 X
Range quality 100.0 %
Test CRC 257676F8
Copy CRC 257676F8
Copy OK

No errors occurred


AccurateRip summary

Track 1 accurately ripped (confidence 19) [F00E45CA] (AR v2)
Track 2 accurately ripped (confidence 19) [07E85A11] (AR v2)
Track 3 accurately ripped (confidence 19) [9EB222D1] (AR v2)
Track 4 accurately ripped (confidence 19) [708A3165] (AR v2)

All tracks accurately ripped

End of status report

–– CUETools DB Plugin V2.1.6

[CTDB TOCID: oDT4uA1OnjITruDokKEUIujlvBU-] found
Submit result: oDT4uA1OnjITruDokKEUIujlvBU- has been confirmed
Track | CTDB Status
1 | (25/25) Accurately ripped
2 | (25/25) Accurately ripped
3 | (24/25) Accurately ripped
4 | (25/25) Accurately ripped


==== Log checksum 61D104A0AA4F56A70060AAC54C6BA9D2EA7EDCA831081619C7200107A0925AAA ====


Tracklist CD12 - Nowhere Man:

01. Nowhere Man 2:45
02. Drive My Car 2:31
03. Michelle 2:39
04. You Won't See Me 3:23

Exact Audio Copy V1.3 from 2. September 2016

EAC extraction logfile from 22. April 2019, 14:44

The Beatles / Nowhere Man (Disc 12)

Used drive : ASUS DRW-24D5MT Adapter: 1 ID: 0

Read mode : Secure
Utilize accurate stream : Yes
Defeat audio cache : Yes
Make use of C2 pointers : No

Read offset correction : 6
Overread into Lead-In and Lead-Out : No
Fill up missing offset samples with silence : Yes
Delete leading and trailing silent blocks : No
Null samples used in CRC calculations : Yes
Used interface : Native Win32 interface for Win NT & 2000

Used output format : User Defined Encoder
Selected bitrate : 768 kBit/s
Quality : High
Add ID3 tag : No
Command line compressor : C:\Program Files (x86)\Exact Audio Copy\Flac\flac.exe
Additional command line options : -V -8 -T "Genre=%genre%" -T "Artist=%artist%" -T "Title=%title%" -T "Album=%albumtitle%" -T "Date=%year%" -T "Tracknumber=%tracknr%" -T "Comment=%comment%" %source%


TOC of the extracted CD

Track | Start | Length | Start sector | End sector
––––––––––––––––––––––––––––-
1 | 0:00.32 | 2:44.68 | 32 | 12399
2 | 2:45.25 | 2:30.47 | 12400 | 23696
3 | 5:15.72 | 2:39.10 | 23697 | 35631
4 | 7:55.07 | 3:23.03 | 35632 | 50859


Range status and errors

Selected range

Filename I:\dafnaplus\The Beatles - Compact Disc EP. Collection\12 Nowhere Man\The Beatles - Nowhere Man (Disc 12).wav

Peak level 94.3 %
Extraction speed 1.2 X
Range quality 100.0 %
Test CRC 8F038D52
Copy CRC 8F038D52
Copy OK

No errors occurred


AccurateRip summary

Track 1 accurately ripped (confidence 17) [26953096] (AR v2)
Track 2 accurately ripped (confidence 17) [638F373D] (AR v2)
Track 3 accurately ripped (confidence 17) [526A6F43] (AR v2)
Track 4 accurately ripped (confidence 17) [A97FA08C] (AR v2)

All tracks accurately ripped

End of status report

–– CUETools DB Plugin V2.1.6

[CTDB TOCID: PBTxI_W5l73lRklHiEa0Zrrv9wA-] found
Submit result: PBTxI_W5l73lRklHiEa0Zrrv9wA- has been confirmed
Track | CTDB Status
1 | (24/24) Accurately ripped
2 | (24/24) Accurately ripped
3 | (24/24) Accurately ripped
4 | (24/24) Accurately ripped


==== Log checksum 280F5108649AE42B060221FB69D46BB48B83A000D0E841BFFA19A57C07F7AB53 ====


Tracklist CD13 - Magical Mystery Tour (Stereo Version):

01. Magical Mystery Tour 2:52
02. Your Mother Should Know 2:31
03. I Am The Walrus 4:37
04. The Fool On The Hill 3:00
05. Flying 2:17
06. Blue Jay Way 3:52

Exact Audio Copy V1.3 from 2. September 2016

EAC extraction logfile from 22. April 2019, 20:06

The Beatles / Magical Mystery Tour (Stereo Version) (Disc 13)

Used drive : ASUS DRW-24D5MT Adapter: 1 ID: 0

Read mode : Secure
Utilize accurate stream : Yes
Defeat audio cache : Yes
Make use of C2 pointers : No

Read offset correction : 6
Overread into Lead-In and Lead-Out : No
Fill up missing offset samples with silence : Yes
Delete leading and trailing silent blocks : No
Null samples used in CRC calculations : Yes
Used interface : Native Win32 interface for Win NT & 2000

Used output format : User Defined Encoder
Selected bitrate : 768 kBit/s
Quality : High
Add ID3 tag : No
Command line compressor : C:\Program Files (x86)\Exact Audio Copy\Flac\flac.exe
Additional command line options : -V -8 -T "Genre=%genre%" -T "Artist=%artist%" -T "Title=%title%" -T "Album=%albumtitle%" -T "Date=%year%" -T "Tracknumber=%tracknr%" -T "Comment=%comment%" %source%


TOC of the extracted CD

Track | Start | Length | Start sector | End sector
––––––––––––––––––––––––––––-
1 | 0:00.32 | 2:51.55 | 32 | 12911
2 | 2:52.12 | 2:30.45 | 12912 | 24206
3 | 5:22.57 | 4:36.50 | 24207 | 44956
4 | 9:59.32 | 3:00.33 | 44957 | 58489
5 | 12:59.65 | 2:17.00 | 58490 | 68764
6 | 15:16.65 | 3:52.05 | 68765 | 86169


Range status and errors

Selected range

Filename I:\dafnaplus\The Beatles - Compact Disc EP. Collection\13 Magical Mystery Tour (Stereo Version)\The Beatles - Magical Mystery Tour (Stereo Version) (Disc 13).wav

Peak level 100.0 %
Extraction speed 1.4 X
Range quality 100.0 %
Test CRC 0789BB0A
Copy CRC 0789BB0A
Copy OK

No errors occurred


AccurateRip summary

Track 1 accurately ripped (confidence 19) [40F05293] (AR v2)
Track 2 accurately ripped (confidence 18) [A3E2C961] (AR v2)
Track 3 accurately ripped (confidence 18) [E07E49C1] (AR v2)
Track 4 accurately ripped (confidence 18) [455BD97B] (AR v2)
Track 5 accurately ripped (confidence 18) [0B54F03C] (AR v2)
Track 6 accurately ripped (confidence 18) [9FFD8B4E] (AR v2)

All tracks accurately ripped

End of status report

–– CUETools DB Plugin V2.1.6

[CTDB TOCID: du1yUn3l.XVMPWWIEn2gql1yVjs-] found
Submit result: du1yUn3l.XVMPWWIEn2gql1yVjs- has been confirmed
Track | CTDB Status
1 | (42/42) Accurately ripped
2 | (42/42) Accurately ripped
3 | (42/42) Accurately ripped
4 | (42/42) Accurately ripped
5 | (42/42) Accurately ripped
6 | (42/42) Accurately ripped


==== Log checksum 4BE196D515F723B6E9B44F78C4B07CB1BCCF868E5A1713E8FF9C6D274A9D893D ====


Tracklist CD14 - Magical Mystery Tour (Mono Version):

01. Magical Mystery Tour 2:50
02. Your Mother Should Know 2:31
03. I Am The Walrus 4:36
04. The Fool On The Hill 3:00
05. Flying 2:17
06. Blue Jay Way 3:51

Exact Audio Copy V1.3 from 2. September 2016

EAC extraction logfile from 22. April 2019, 20:41

The Beatles / Magical Mystery Tour (Mono Version) (Disc 14)

Used drive : ASUS DRW-24D5MT Adapter: 1 ID: 0

Read mode : Secure
Utilize accurate stream : Yes
Defeat audio cache : Yes
Make use of C2 pointers : No

Read offset correction : 6
Overread into Lead-In and Lead-Out : No
Fill up missing offset samples with silence : Yes
Delete leading and trailing silent blocks : No
Null samples used in CRC calculations : Yes
Used interface : Native Win32 interface for Win NT & 2000

Used output format : User Defined Encoder
Selected bitrate : 768 kBit/s
Quality : High
Add ID3 tag : No
Command line compressor : C:\Program Files (x86)\Exact Audio Copy\Flac\flac.exe
Additional command line options : -V -8 -T "Genre=%genre%" -T "Artist=%artist%" -T "Title=%title%" -T "Album=%albumtitle%" -T "Date=%year%" -T "Tracknumber=%tracknr%" -T "Comment=%comment%" %source%


TOC of the extracted CD

Track | Start | Length | Start sector | End sector
––––––––––––––––––––––––––––-
1 | 0:00.32 | 2:50.28 | 32 | 12809
2 | 2:50.60 | 2:31.07 | 12810 | 24141
3 | 5:21.67 | 4:36.18 | 24142 | 44859
4 | 9:58.10 | 3:00.12 | 44860 | 58371
5 | 12:58.22 | 2:17.00 | 58372 | 68646
6 | 15:15.22 | 3:51.10 | 68647 | 85981


Range status and errors

Selected range

Filename I:\dafnaplus\The Beatles - Compact Disc EP. Collection\14 Magical Mystery Tour (Mono Version)\The Beatles - Magical Mystery Tour (Mono Version) (Disc 14).wav

Peak level 86.7 %
Extraction speed 1.3 X
Range quality 99.9 %
Test CRC 6763878A
Copy CRC 6763878A
Copy OK

No errors occurred


AccurateRip summary

Track 1 accurately ripped (confidence 18) [098B361B] (AR v2)
Track 2 accurately ripped (confidence 18) [BD5277F7] (AR v2)
Track 3 accurately ripped (confidence 18) [07BB3D68] (AR v2)
Track 4 accurately ripped (confidence 18) [4461C6C4] (AR v2)
Track 5 accurately ripped (confidence 18) [8B1CE93F] (AR v2)
Track 6 accurately ripped (confidence 18) [CFE740FC] (AR v2)

All tracks accurately ripped

End of status report

–– CUETools DB Plugin V2.1.6

[CTDB TOCID: U6ivDWRoLaEv1c5jB0tzvUOI3Ak-] found
Submit result: U6ivDWRoLaEv1c5jB0tzvUOI3Ak- has been confirmed
Track | CTDB Status
1 | (25/25) Accurately ripped
2 | (25/25) Accurately ripped
3 | (25/25) Accurately ripped
4 | (25/25) Accurately ripped
5 | (25/25) Accurately ripped
6 | (25/25) Accurately ripped


==== Log checksum AD1D9182AE3A470C5C9088F181F00E58BC6011B4FFC3A5135D2EEC44AAA7D77C ====


Tracklist CD15 - The Beatles:

01. The Inner Light 2:38
02. Baby You're A Rich Man 3:01
03. She's A Woman 3:06
04. This Boy 2:14

Exact Audio Copy V1.3 from 2. September 2016

EAC extraction logfile from 22. April 2019, 21:18

The Beatles / The Beatles (Disc 15)

Used drive : ASUS DRW-24D5MT Adapter: 1 ID: 0

Read mode : Secure
Utilize accurate stream : Yes
Defeat audio cache : Yes
Make use of C2 pointers : No

Read offset correction : 6
Overread into Lead-In and Lead-Out : No
Fill up missing offset samples with silence : Yes
Delete leading and trailing silent blocks : No
Null samples used in CRC calculations : Yes
Used interface : Native Win32 interface for Win NT & 2000

Used output format : User Defined Encoder
Selected bitrate : 768 kBit/s
Quality : High
Add ID3 tag : No
Command line compressor : C:\Program Files (x86)\Exact Audio Copy\Flac\flac.exe
Additional command line options : -V -8 -T "Genre=%genre%" -T "Artist=%artist%" -T "Title=%title%" -T "Album=%albumtitle%" -T "Date=%year%" -T "Tracknumber=%tracknr%" -T "Comment=%comment%" %source%


TOC of the extracted CD

Track | Start | Length | Start sector | End sector
––––––––––––––––––––––––––––-
1 | 0:00.32 | 2:38.35 | 32 | 11916
2 | 2:38.67 | 3:00.73 | 11917 | 25489
3 | 5:39.65 | 3:05.45 | 25490 | 39409
4 | 8:45.35 | 2:13.57 | 39410 | 49441


Range status and errors

Selected range

Filename I:\dafnaplus\The Beatles - Compact Disc EP. Collection\15 The Beatles\The Beatles - The Beatles (Disc 15).wav

Peak level 99.0 %
Extraction speed 1.2 X
Range quality 100.0 %
Test CRC 1BB046ED
Copy CRC 1BB046ED
Copy OK

No errors occurred


AccurateRip summary

Track 1 accurately ripped (confidence 16) [4F7B825B] (AR v2)
Track 2 accurately ripped (confidence 16) [453122A6] (AR v2)
Track 3 accurately ripped (confidence 16) [A06378A2] (AR v2)
Track 4 accurately ripped (confidence 16) [32921A37] (AR v2)

All tracks accurately ripped

End of status report

–– CUETools DB Plugin V2.1.6

[CTDB TOCID: plXk2BET1ehXCaLkxraEl.igbxs-] found
Submit result: plXk2BET1ehXCaLkxraEl.igbxs- has been confirmed
Track | CTDB Status
1 | (26/26) Accurately ripped
2 | (26/26) Accurately ripped
3 | (26/26) Accurately ripped
4 | (26/26) Accurately ripped


==== Log checksum 7BFB20FFEBACED69FB74DF9D546766B52C7C7F68432723194BF7E240A5215EFC ====


The Beatles - Compact Disc EP. Collection (1992) [15CD Box Set]

All thanks go to dafnaplus

The Beatles in my Blog

Download The Beatles - Compact Disc EP. Collection (1992):