Subcategories
Tags
Language
Tags

Talking Heads - The Best Of Talking Heads (2004)

Posted By: v3122
Talking Heads - The Best Of Talking Heads (2004)

Talking Heads - The Best Of Talking Heads (2004)
EAC | Flac(Image) + Cue + Log & MP3 CBR 320Kbps
Rhino, 8122-76488-2 | ~ 540 or 185 Mb | Artwork(jpg) -> 6.08 Mb
New Wave, Post Punk

Rhino's – or, more accurately, Sire/Warner/Rhino's – Best of Talking Heads follows 2003's box set Once in a Lifetime by a year, and it features the same remastering from that set. It also shares part of a title with the 1992 U.K. compilation The Best of Talking Heads: Once in a Lifetime, which was released the same year as the American double-disc overview Popular Favorites: Sand in the Vaseline. Given the similar titles, similar release dates, and similar track listings, it's easy to get confused at first, but all you need to know is that if you're looking for a comprehensive collection, get the Rhino box, and if you want a disc of hits, get this single-disc Rhino collection. Not that the 2004 Best of Talking Heads has every hit or well-known song – "I Zimbra," "Born Under Punches," "Crosseyed and Painless," "Swamp," and "Stay Up Late" could all have been here and all are missed – but at 18 tracks, this is a generous compilation and draws a better portrait of the band than not just the 1992 single-disc compilation, but arguably the patchwork Popular Favorites as well. For the casual fan, this is likely all they'll need to have, and for others, it's a good place to get acquainted with the band.

by Stephen Thomas Erlewine, allmusic
Talking Heads - The Best Of Talking Heads (2004):

Talking Heads - The Best Of Talking Heads (2004)

Tracklist:

01. Love > Building on Fire (02:59)
02. Psycho Killer (04:21)
03. Uh-Oh, Love Comes to Town (02:51)
04. Take Me to the River (05:04)
05. Found a Job (05:02)
06. Life During Wartime (03:42)
07. Heaven (04:03)
08. Memories Can’t Wait (03:32)
09. Once in a Lifetime (04:20)
10. Houses in Motion (04:32)
11. This Must Be the Place (Naive Melody) (04:56)
12. Girlfriend Is Better (05:46)
13. Burning Down the House (04:03)
14. Road to Nowhere (04:20)
15. And She Was (03:39)
16. Wild Wild Life (03:42)
17. Blind (05:01)
18. (Nothing but) Flowers (05:32)

Exact Audio Copy V1.0 beta 3 from 29. August 2011

EAC extraction logfile from 29. November 2012, 20:58

Talking Heads / The Best Of

Used drive : HL-DT-STDVDRAM GH24NS90 Adapter: 5 ID: 0

Read mode : Secure
Utilize accurate stream : Yes
Defeat audio cache : Yes
Make use of C2 pointers : No

Read offset correction : 6
Overread into Lead-In and Lead-Out : No
Fill up missing offset samples with silence : Yes
Delete leading and trailing silent blocks : No
Null samples used in CRC calculations : Yes
Used interface : Native Win32 interface for Win NT & 2000
Gap handling : Appended to previous track

Used output format : User Defined Encoder
Selected bitrate : 256 kBit/s
Quality : High
Add ID3 tag : No
Command line compressor : C:\Program Files (x86)\Exact Audio Copy\Flac\flac.exe
Additional command line options : -8 -V -T "ARTIST=%artist%" -T "TITLE=%title%" -T "ALBUM=%albumtitle%" -T "DATE=%year%" -T "TRACKNUMBER=%tracknr%" -T "TOTALTRACKS=%numtracks%" -T "GENRE=%genre%" -T "ALBUMARTIST=%albumartist%" -T "ALBUM ARTIST=%albumartist%" -T "COMMENT=EAC Secure Mode, Test & Copy, AccurateRip, FLAC -8" %source%


TOC of the extracted CD

Track | Start | Length | Start sector | End sector
––––––––––––––––––––––––––––-
1 | 0:00.00 | 2:58.65 | 0 | 13414
2 | 2:58.65 | 4:20.40 | 13415 | 32954
3 | 7:19.30 | 2:50.62 | 32955 | 45766
4 | 10:10.17 | 5:04.13 | 45767 | 68579
5 | 15:14.30 | 5:01.42 | 68580 | 91196
6 | 20:15.72 | 3:41.73 | 91197 | 107844
7 | 23:57.70 | 4:02.65 | 107845 | 126059
8 | 28:00.60 | 3:31.57 | 126060 | 141941
9 | 31:32.42 | 4:20.23 | 141942 | 161464
10 | 35:52.65 | 4:31.60 | 161465 | 181849
11 | 40:24.50 | 4:56.10 | 181850 | 204059
12 | 45:20.60 | 5:46.10 | 204060 | 230019
13 | 51:06.70 | 4:03.25 | 230020 | 248269
14 | 55:10.20 | 4:20.10 | 248270 | 267779
15 | 59:30.30 | 3:39.07 | 267780 | 284211
16 | 63:09.37 | 3:41.38 | 284212 | 300824
17 | 66:51.00 | 5:00.40 | 300825 | 323364
18 | 71:51.40 | 5:32.05 | 323365 | 348269


Track 1

Filename F:\Talking Heads\01 - Love - Building On Fire.wav

Pre-gap length 0:00:02.00

Peak level 98.8 %
Extraction speed 4.5 X
Track quality 100.0 %
Test CRC 10E91324
Copy CRC 10E91324
Accurately ripped (confidence 14) [8AB1138A] (AR v2)
Copy OK

Track 2

Filename F:\Talking Heads\02 - Psycho Killer.wav

Pre-gap length 0:00:00.64

Peak level 98.8 %
Extraction speed 5.2 X
Track quality 100.0 %
Test CRC F89C2A52
Copy CRC F89C2A52
Accurately ripped (confidence 14) [AC4670A1] (AR v2)
Copy OK

Track 3

Filename F:\Talking Heads\03 - Uh-Oh, Love Comes To Town.wav

Pre-gap length 0:00:00.60

Peak level 98.8 %
Extraction speed 5.3 X
Track quality 100.0 %
Test CRC 62C2603A
Copy CRC 62C2603A
Accurately ripped (confidence 13) [1872228D] (AR v2)
Copy OK

Track 4

Filename F:\Talking Heads\04 - Take Me To The River.wav

Peak level 83.1 %
Extraction speed 6.2 X
Track quality 100.0 %
Test CRC F22D5EEF
Copy CRC F22D5EEF
Accurately ripped (confidence 14) [68A870B2] (AR v2)
Copy OK

Track 5

Filename F:\Talking Heads\05 - Found A Job.wav

Pre-gap length 0:00:03.13

Peak level 88.1 %
Extraction speed 6.6 X
Track quality 100.0 %
Test CRC D6293A72
Copy CRC D6293A72
Accurately ripped (confidence 13) [C13EBDE1] (AR v2)
Copy OK

Track 6

Filename F:\Talking Heads\06 - Life During Wartime.wav

Pre-gap length 0:00:01.30

Peak level 98.8 %
Extraction speed 1.6 X
Track quality 100.0 %
Test CRC F3296315
Copy CRC F3296315
Accurately ripped (confidence 13) [E464173D] (AR v2)
Copy OK

Track 7

Filename F:\Talking Heads\07 - Heaven.wav

Peak level 93.4 %
Extraction speed 1.7 X
Track quality 100.0 %
Test CRC AD8FBF22
Copy CRC AD8FBF22
Accurately ripped (confidence 13) [4395BCA1] (AR v2)
Copy OK

Track 8

Filename F:\Talking Heads\08 - Memories Can't Wait.wav

Pre-gap length 0:00:01.58

Peak level 86.5 %
Extraction speed 1.7 X
Track quality 100.0 %
Test CRC C3B1376D
Copy CRC C3B1376D
Accurately ripped (confidence 13) [CBA03B62] (AR v2)
Copy OK

Track 9

Filename F:\Talking Heads\09 - Once In A Lifetime.wav

Pre-gap length 0:00:01.12

Peak level 98.8 %
Extraction speed 1.9 X
Track quality 100.0 %
Test CRC 862732E9
Copy CRC 862732E9
Accurately ripped (confidence 13) [D5F95625] (AR v2)
Copy OK

Track 10

Filename F:\Talking Heads\10 - Houses In Motion.wav

Pre-gap length 0:00:01.05

Peak level 99.8 %
Extraction speed 2.0 X
Track quality 100.0 %
Test CRC A6479557
Copy CRC A6479557
Accurately ripped (confidence 13) [926A1619] (AR v2)
Copy OK

Track 11

Filename F:\Talking Heads\11 - This Must Be The Place (Naive Melody).wav

Pre-gap length 0:00:01.10

Peak level 98.0 %
Extraction speed 1.9 X
Track quality 99.9 %
Test CRC 3D68B357
Copy CRC 3D68B357
Accurately ripped (confidence 13) [6D89EE44] (AR v2)
Copy OK

Track 12

Filename F:\Talking Heads\12 - Girlfriend Is Better.wav

Peak level 83.1 %
Extraction speed 2.2 X
Track quality 100.0 %
Test CRC 0E6512A8
Copy CRC 0E6512A8
Accurately ripped (confidence 13) [72CB8DF1] (AR v2)
Copy OK

Track 13

Filename F:\Talking Heads\13 - Burning Down The House.wav

Pre-gap length 0:00:00.48

Peak level 98.8 %
Extraction speed 1.9 X
Track quality 99.9 %
Test CRC D36533FE
Copy CRC D36533FE
Accurately ripped (confidence 14) [75DD6B26] (AR v2)
Copy OK

Track 14

Filename F:\Talking Heads\14 - Road To Nowhere.wav

Pre-gap length 0:00:26.19

Peak level 98.8 %
Extraction speed 2.2 X
Track quality 100.0 %
Test CRC 90F81766
Copy CRC 90F81766
Accurately ripped (confidence 12) [908E2592] (AR v2)
Copy OK

Track 15

Filename F:\Talking Heads\15 - And She Was.wav

Pre-gap length 0:00:01.08

Peak level 98.8 %
Extraction speed 2.0 X
Track quality 99.9 %
Test CRC 1D22A7E6
Copy CRC 1D22A7E6
Accurately ripped (confidence 13) [CA492FCD] (AR v2)
Copy OK

Track 16

Filename F:\Talking Heads\16 - Wild Wild Life.wav

Pre-gap length 0:00:01.22

Peak level 98.8 %
Extraction speed 2.3 X
Track quality 100.0 %
Test CRC B698D27B
Copy CRC B698D27B
Accurately ripped (confidence 13) [AE9AD313] (AR v2)
Copy OK

Track 17

Filename F:\Talking Heads\17 - Blind.wav

Pre-gap length 0:00:01.55

Peak level 98.8 %
Extraction speed 2.5 X
Track quality 100.0 %
Test CRC 044779E1
Copy CRC 044779E1
Accurately ripped (confidence 13) [69972784] (AR v2)
Copy OK

Track 18

Filename F:\Talking Heads\18 - (Nothing But) Flowers.wav

Pre-gap length 0:00:01.43

Peak level 98.8 %
Extraction speed 2.6 X
Track quality 100.0 %
Test CRC C43208D5
Copy CRC C43208D5
Accurately ripped (confidence 12) [61B7AE09] (AR v2)
Copy OK


All tracks accurately ripped

No errors occurred

End of status report

–– CUETools DB Plugin V2.1.3

[CTDB TOCID: ISD.hkHsfKl_AtSm86JpbmgYVp4-] found, Submit result: ISD.hkHsfKl_AtSm86JpbmgYVp4- has been confirmed
[8ba7db8a] (225/226) Accurately ripped
[10af04cb] (001/226) No match


==== Log checksum 8E83194B0DAADCD4B94736164C6C30BD3E76CA160E148196DA2DF7234A7A23AB ====


[CUETools log; Date: 07.04.2021 18:50:16; Version: 2.1.4]
CDDBId mismatch: E9122312 vs E3124F12
[AccurateRip ID: 0030dee3-0293fe88-e3124f12] disk not present in database.

Track Peak [ CRC32 ] [W/O NULL] [ LOG ]
– 99,8 [1C3CAD0D] [DDE73D4A]
01 98,8 [97F9D3FE] [3A7F0C04] [10E91324]
02 98,8 [DB24D947] [0B10CFAF] [F89C2A52]
03 98,8 [62C2603A] [17BCFAB8] CRC32
04 83,1 [C4C28F2B] [8DC107DF] [F22D5EEF]
05 88,1 [F38B76BC] [C6EE771B] [D6293A72]
06 98,8 [F3296315] [9CA3EEAB] CRC32
07 93,4 [C00983B5] [93386962] [AD8FBF22]
08 86,5 [46DE66C3] [DCF7C4FD] [C3B1376D]
09 98,8 [546B64EC] [5C151EF3] [862732E9]
10 99,8 [C75C6A8D] [050749A5] [A6479557]
11 98,0 [3D68B357] [4B5699FB] CRC32
12 83,1 [E0CB85E0] [5066C6C5] [0E6512A8]
13 98,8 [002D5DA5] [21DDB30C] [D36533FE]
14 98,8 [B48B1596] [64BE611B] [90F81766]
15 98,8 [83B92278] [97492345] [1D22A7E6]
16 98,8 [8D3E5EC2] [80F2939C] [B698D27B]
17 98,8 [687B001E] [5C9884BF] [044779E1]
18 98,8 [C43208D5] [B1266CFD] CRC32


Talking Heads - The Best Of Talking Heads (2004)

All thanks go to the original releaser

Talking Heads in my Blog

Download Talking Heads - The Best Of Talking Heads (2004):