Subcategories

The Brand New Heavies - Shelter (1997)

Posted By: Designol
The Brand New Heavies - Shelter (1997)

The Brand New Heavies - Shelter (1997)
EAC | FLAC | Tracks (Cue&Log) ~ 404 Mb | Mp3 (CBR320) ~ 133 Mb | Scans ~ 84 Mb
Acid Jazz, Funk, R&B | Label: FFRR | # 828 975-2 | Time: 00:58:23

By the time the Brand New Heavies released Shelter in 1997, urban R&B was shifting toward the more organic grooves that they helped pioneer in the early '90s. Although the Heavies were into acid jazz as well, they smoothed over many of the experimental elements of their music in the mid-'90s, leaving behind a seductive, earthy, and jazzy variation of urban soul. That provided the foundation for Shelter, their first album featuring Siedah Garrett as lead singer. Garrett's smooth voice helps push the band toward more conventional territory, yet their songwriting is stronger than most of the contemporaries, and their sound is funkier and more convincing. While there are no standout singles on Shelter, it's a uniformly engaging listen, illustrating that the Brand New Heavies are one of the great underrated urban R&B bands of the '90s.

Review by Leo Stanley, Allmusic.com

The Brand New Heavies - Shelter (1997)

The Brand New Heavies - Shelter (1997)



Tracklist:

01. I Like It (4:03)
02. Sometimes (4:46)
03. Shelter (5:01)
04. You Are The Universe (4:13)
05. Crying Water (4:17)
06. Day By Day (4:42)
07. Feels Like Right (4:21)
08. Highest High (4:28)
09. Stay Gone (4:56)
10. You've Got A Friend (3:48)
11. Once Is Twice Enough (3:59)
12. After Forever (5:23)
13. Last To Know (4:25)


Exact Audio Copy V1.0 beta 4 from 7. December 2014

EAC extraction logfile from 9. April 2017, 13:58

The Brand New Heavies / Shelter

Used drive : TSSTcorpCDDVDW SH-224DB Adapter: 1 ID: 1

Read mode : Secure
Utilize accurate stream : Yes
Defeat audio cache : Yes
Make use of C2 pointers : No

Read offset correction : 6
Overread into Lead-In and Lead-Out : No
Fill up missing offset samples with silence : Yes
Delete leading and trailing silent blocks : No
Null samples used in CRC calculations : Yes
Used interface : Native Win32 interface for Win NT & 2000
Gap handling : Appended to previous track

Used output format : User Defined Encoder
Selected bitrate : 896 kBit/s
Quality : High
Add ID3 tag : No
Command line compressor : C:\Program Files\Exact Audio Copy\Flac\flac.exe
Additional command line options : -6 -V -T "ARTIST=%artist%" -T "TITLE=%title%" -T "ALBUM=%albumtitle%" -T "DATE=%year%" -T "TRACKNUMBER=%tracknr%" -T "GENRE=%genre%" -T "COMMENT=%comment%" %source% -o %dest%


TOC of the extracted CD

Track | Start | Length | Start sector | End sector
––––––––––––––––––––––––––––-
1 | 0:00.00 | 4:03.15 | 0 | 18239
2 | 4:03.15 | 4:46.00 | 18240 | 39689
3 | 8:49.15 | 5:01.22 | 39690 | 62286
4 | 13:50.37 | 4:13.03 | 62287 | 81264
5 | 18:03.40 | 4:17.10 | 81265 | 100549
6 | 22:20.50 | 4:41.55 | 100550 | 121679
7 | 27:02.30 | 4:21.02 | 121680 | 141256
8 | 31:23.32 | 4:28.25 | 141257 | 161381
9 | 35:51.57 | 4:56.18 | 161382 | 183599
10 | 40:48.00 | 3:48.37 | 183600 | 200736
11 | 44:36.37 | 3:58.40 | 200737 | 218626
12 | 48:35.02 | 5:23.03 | 218627 | 242854
13 | 53:58.05 | 4:24.70 | 242855 | 262724


Track 1

Filename C:\New Folder\01 - I Like It.wav

Pre-gap length 0:00:02.00

Peak level 99.2 %
Extraction speed 1.7 X
Track quality 100.0 %
Test CRC 881A76CA
Copy CRC 881A76CA
Accurately ripped (confidence 59) [F4CD29AA] (AR v2)
Copy OK

Track 2

Filename C:\New Folder\02 - Sometimes.wav

Pre-gap length 0:00:00.03

Peak level 99.2 %
Extraction speed 2.0 X
Track quality 100.0 %
Test CRC 224417D6
Copy CRC 224417D6
Accurately ripped (confidence 59) [A39D1725] (AR v2)
Copy OK

Track 3

Filename C:\New Folder\03 - Shelter.wav

Pre-gap length 0:00:00.03

Peak level 99.2 %
Extraction speed 2.2 X
Track quality 100.0 %
Test CRC 493BFED0
Copy CRC 493BFED0
Accurately ripped (confidence 59) [E01EDD16] (AR v2)
Copy OK

Track 4

Filename C:\New Folder\04 - You Are The Universe.wav

Pre-gap length 0:00:00.02

Peak level 99.2 %
Extraction speed 2.3 X
Track quality 100.0 %
Test CRC A6C2074F
Copy CRC A6C2074F
Accurately ripped (confidence 59) [7B60C14A] (AR v2)
Copy OK

Track 5

Filename C:\New Folder\05 - Crying Water.wav

Pre-gap length 0:00:00.03

Peak level 99.3 %
Extraction speed 2.5 X
Track quality 100.0 %
Test CRC 32A0B459
Copy CRC 32A0B459
Accurately ripped (confidence 59) [32A921B7] (AR v2)
Copy OK

Track 6

Filename C:\New Folder\06 - Day By Day.wav

Pre-gap length 0:00:00.50

Peak level 99.3 %
Extraction speed 2.7 X
Track quality 100.0 %
Test CRC 2B5EDF6F
Copy CRC 2B5EDF6F
Accurately ripped (confidence 59) [A4E3EE37] (AR v2)
Copy OK

Track 7

Filename C:\New Folder\07 - Feels Like Right.wav

Pre-gap length 0:00:00.03

Peak level 99.2 %
Extraction speed 2.8 X
Track quality 100.0 %
Test CRC DF47E747
Copy CRC DF47E747
Accurately ripped (confidence 59) [E781F56F] (AR v2)
Copy OK

Track 8

Filename C:\New Folder\08 - Highest High.wav

Pre-gap length 0:00:00.02

Peak level 99.2 %
Extraction speed 3.0 X
Track quality 100.0 %
Test CRC 48AF5C08
Copy CRC 48AF5C08
Accurately ripped (confidence 59) [5E0236AD] (AR v2)
Copy OK

Track 9

Filename C:\New Folder\09 - Stay Gone.wav

Pre-gap length 0:00:00.02

Peak level 99.2 %
Extraction speed 3.1 X
Track quality 100.0 %
Test CRC 546A8E09
Copy CRC 546A8E09
Accurately ripped (confidence 58) [CB0E6D03] (AR v2)
Copy OK

Track 10

Filename C:\New Folder\10 - You've Got A Friend.wav

Pre-gap length 0:00:00.03

Peak level 99.2 %
Extraction speed 3.1 X
Track quality 100.0 %
Test CRC EF8D283E
Copy CRC EF8D283E
Accurately ripped (confidence 58) [C0918DE9] (AR v2)
Copy OK

Track 11

Filename C:\New Folder\11 - Once Is Twice Enough.wav

Pre-gap length 0:00:00.02

Peak level 99.2 %
Extraction speed 3.3 X
Track quality 100.0 %
Test CRC ED206F9A
Copy CRC ED206F9A
Accurately ripped (confidence 58) [E8A7B6FC] (AR v2)
Copy OK

Track 12

Filename C:\New Folder\12 - After Forever.wav

Pre-gap length 0:00:01.50

Peak level 99.2 %
Extraction speed 2.9 X
Track quality 99.9 %
Test CRC 7592E510
Copy CRC 7592E510
Accurately ripped (confidence 57) [4008CA66] (AR v2)
Copy OK

Track 13

Filename C:\New Folder\13 - Last To Know.wav

Pre-gap length 0:00:00.03

Peak level 99.2 %
Extraction speed 2.8 X
Track quality 99.9 %
Test CRC F8C7997C
Copy CRC F8C7997C
Accurately ripped (confidence 58) [2D04995F] (AR v2)
Copy OK


All tracks accurately ripped

No errors occurred

End of status report

–– CUETools DB Plugin V2.1.4

[CTDB TOCID: bHMC4SQpIT9CttjLnqT3hQ9Ir8U-] found
Submit result: bHMC4SQpIT9CttjLnqT3hQ9Ir8U- has been confirmed
Track | CTDB Status
1 | (108/110) Accurately ripped
2 | (108/110) Accurately ripped
3 | (108/110) Accurately ripped
4 | (108/110) Accurately ripped
5 | (108/110) Accurately ripped
6 | (108/110) Accurately ripped
7 | (107/110) Accurately ripped
8 | (107/110) Accurately ripped
9 | (108/110) Accurately ripped
10 | (108/110) Accurately ripped
11 | (107/110) Accurately ripped
12 | (106/110) Accurately ripped
13 | (105/110) Accurately ripped


==== Log checksum 4678725D14CA8AE7C8BD4C5BD0C35A64767E61B78EA6CDED1EE9A07E36482D2F ====

foobar2000 1.2 / Dynamic Range Meter 1.1.1
log date: 2017-04-17 19:58:53

––––––––––––––––––––––––––––––––––––––––
Analyzed: The Brand New Heavies / Shelter
––––––––––––––––––––––––––––––––––––––––

DR Peak RMS Duration Track
––––––––––––––––––––––––––––––––––––––––
DR9 -0.07 dB -11.17 dB 4:03 01-I Like It
DR9 -0.07 dB -10.53 dB 4:46 02-Sometimes
DR10 -0.07 dB -11.81 dB 5:01 03-Shelter
DR9 -0.07 dB -10.32 dB 4:13 04-You Are The Universe
DR10 -0.06 dB -11.76 dB 4:17 05-Crying Water
DR8 -0.05 dB -10.19 dB 4:42 06-Day By Day
DR10 -0.07 dB -12.66 dB 4:21 07-Feels Like Right
DR9 -0.07 dB -10.02 dB 4:28 08-Highest High
DR10 -0.07 dB -12.27 dB 4:56 09-Stay Gone
DR10 -0.07 dB -11.71 dB 3:48 10-You've Got A Friend
DR8 -0.07 dB -9.58 dB 3:59 11-Once Is Twice Enough
DR10 -0.07 dB -11.67 dB 5:23 12-After Forever
DR9 -0.07 dB -10.54 dB 4:25 13-Last To Know
––––––––––––––––––––––––––––––––––––––––

Number of tracks: 13
Official DR value: DR9

Samplerate: 44100 Hz
Channels: 2
Bits per sample: 16
Bitrate: 1002 kbps
Codec: FLAC
================================================================================

The Brand New Heavies - Shelter (1997)

The Brand New Heavies - Shelter (1997)

All thanks to original releaser - alekow

More interesting music in My Blog