Subcategories

The Byrds - There Is A Season (2006) 4 CD Box Set + Bonus DVD [Re-Up]

Posted By: Designol
The Byrds - There Is A Season (2006) 4 CD Box Set + Bonus DVD [Re-Up]

The Byrds - There Is A Season (2006) 4 CD Box Set + Bonus DVD
EAC | FLAC | Image (Cue&Log) ~ 1.72 Gb | Mp3 (CBR320) ~ 676 Mb | Time: 04:41:14
DVD5 | VIDEO_TS | PAL 720x576 (4:3) VBR | Audio: LPCM 2.0, 1536 Kbps | ~ 1.6 Gb | 00:25:39
Rock, Psychedelic, Folk-Rock, Country-Rock | Columbia/Legacy | # 82876877002 | Scans ~ 325 Mb

There Is a Season is a four-CD box set by the American rock band The Byrds that was released on September 26, 2006 by Columbia/Legacy. It comprises 99 tracks and includes material from every one of the band's twelve studio albums, presented in roughly chronological order. In addition to the four CDs, the set also includes a bonus DVD featuring ten previously unissued television performances.

As there was a four-CD box set of the Byrds back in 1990, the point of putting out another four-CD Byrds box set about 15 years later wasn't all that clear, unless it was a mercenary exercise to get more mileage of the band's durable catalog. Yet appear this 2006 box set did, with many of the same tracks that had appeared on the 1990 Byrds box set, though there are some appreciable differences. The span of There Is a Season is a little wider, taking in some of the demos they recorded prior to the "Mr. Tambourine Man" single, and also fitting in a couple of Gene Clark songs from their 1973 reunion album. While all the hit singles and most of the group's most popular album tracks are on both sets, the secondary songs filling out the boxes vary, with There Is a Season putting out some material that wasn't officially issued until after the 1990 box set (on expanded CD editions of their albums and Live at the Fillmore West February 1969). Conversely, the earlier box set has some LP cuts and obscurities that failed to make the cut for There Is a Season.

Of course, There Is a Season does contain a lot of significant, and often great, folk-rock music; no package with 99 Byrds songs could fail to do that. As for what it offers the serious Byrds collector – who's probably at least as apt to consider buying this as a general Byrds fan – there isn't all that much. There are five previously unissued tracks, none of them extraordinary, including a 1967 Swedish radio version of "He Was a Friend of Mine," a couple live September 1970 Fillmore East performances, and a couple live cuts from February 1970. There are oddities from soundtracks and live compilation albums, including the Candy soundtrack version of "Child of the Universe," "Nothin' to It" (done by the Byrds on the early-'70s album Earl Scruggs: His Family and Friends), and a couple live 1973 performances from the Banjoman movie. It's well-sequenced enough that it does give a solid sense of the band's growth and accomplishment through their folk-rock, psychedelic, and country-rock phases, though there's no getting around the fact that it starts to get steadily less exciting after it passes the halfway point.

The big added attraction on There Is a Season is not on the CDs, but on the bonus DVD disc, which contains ten TV clips of the group from 1965-1967. All of these, mind you, are mimed and not live, but it's still a fun (if brief, lasting just 26 minutes) assortment of glimpses of the band in their most creative era on U.S., U.K., and Swedish programs. Even here, however, there could have been room for improvement, as there's some more interesting footage of the Byrds from this era, including their live set in the mid-'60s movie The Big TNT Show and versions of "Long Tall Sally" and "Not Fade Away" (neither of which they released on record in any form). Is this nitpicking? Probably. But if you're going to lay out more than 50 dollars for an anthology that likely contains some or much material you already own, you have the right to make the point.

Review by Richie Unterberger, Allmusic.com



The Byrds - There Is A Season (2006) 4 CD Box Set + Bonus DVD [Re-Up]

The Byrds - There Is A Season (2006) 4 CD Box Set + Bonus DVD [Re-Up]

The Byrds - There Is A Season (2006) 4 CD Box Set + Bonus DVD [Re-Up]





The Byrds - There Is A Season (2006) 4 CD Box Set + Bonus DVD [Re-Up]

CD 1:


Tracklist:

01. The Only Girl I Adore (by The Jet Set) (02:26)
02. Please Let Me Love You (by The Beefeaters) (02:23)
03. Don't Be Long (by The Beefeaters) (01:56)
04. The Airport Song (02:03)
05. You Movin' (02:08)
06. You Showed Me (02:04)
07. Mr. Tambourine Man (02:32)
08. I'll Feel A Whole Lot Better (02:34)
09. You Won't Have To Cry (02:10)
10. Here Without You (02:39)
11. The Bells Of Rhymney (03:33)
12. All I Really Want To Do (Single Version) (02:05)
13. I Knew I'd Want You (02:17)
14. Chimes Of Freedom (03:54)
15. She Has A Way (02:27)
16. It's All Over Now, Baby Blue (03:05)
17. Turn! Turn! Turn! (To Everything There Is A Season) (03:52)
18. It Won't Be Wrong (02:00)
19. Set You Free This Time (02:51)
20. The World Turns All Around Her (02:15)
21. The Day Walk (03:03)
22. If You're Gone (02:47)
23. The Times They Are A-Changin' (Withdrawn Version) (01:56)
24. She Don't Care About Time (Single Version) (02:32)
25. Stranger In A Strange Land (Instrumental) (03:03)


Exact Audio Copy V1.0 beta 1 from 15. November 2010

EAC extraction logfile from 31. May 2011, 14:45

The Byrds / There Is A Season CD1

Used drive : HL-DT-STDVDRAM GSA-H60N Adapter: 2 ID: 0

Read mode : Secure
Utilize accurate stream : Yes
Defeat audio cache : Yes
Make use of C2 pointers : No

Read offset correction : 667
Overread into Lead-In and Lead-Out : No
Fill up missing offset samples with silence : Yes
Delete leading and trailing silent blocks : No
Null samples used in CRC calculations : Yes
Used interface : Native Win32 interface for Win NT & 2000

Used output format : Internal WAV Routines
Sample format : 44.100 Hz; 16 Bit; Stereo


TOC of the extracted CD

Track | Start | Length | Start sector | End sector
––––––––––––––––––––––––––––-
1 | 0:00.00 | 2:26.35 | 0 | 10984
2 | 2:26.35 | 2:23.57 | 10985 | 21766
3 | 4:50.17 | 1:56.40 | 21767 | 30506
4 | 6:46.57 | 2:03.55 | 30507 | 39786
5 | 8:50.37 | 2:08.65 | 39787 | 49451
6 | 10:59.27 | 2:04.50 | 49452 | 58801
7 | 13:04.02 | 2:32.35 | 58802 | 70236
8 | 15:36.37 | 2:34.50 | 70237 | 81836
9 | 18:11.12 | 2:10.63 | 81837 | 91649
10 | 20:22.00 | 2:39.05 | 91650 | 103579
11 | 23:01.05 | 3:33.32 | 103580 | 119586
12 | 26:34.37 | 2:05.28 | 119587 | 128989
13 | 28:39.65 | 2:17.17 | 128990 | 139281
14 | 30:57.07 | 3:54.08 | 139282 | 156839
15 | 34:51.15 | 2:27.67 | 156840 | 167931
16 | 37:19.07 | 3:05.58 | 167932 | 181864
17 | 40:24.65 | 3:52.27 | 181865 | 199291
18 | 44:17.17 | 2:00.63 | 199292 | 208354
19 | 46:18.05 | 2:51.55 | 208355 | 221234
20 | 49:09.60 | 2:15.55 | 221235 | 231414
21 | 51:25.40 | 3:03.20 | 231415 | 245159
22 | 54:28.60 | 2:47.72 | 245160 | 257756
23 | 57:16.57 | 1:56.70 | 257757 | 266526
24 | 59:13.52 | 2:32.13 | 266527 | 277939
25 | 61:45.65 | 3:03.70 | 277940 | 291734


Range status and errors

Selected range

Filename C:\Documents and Settings\Администратор\Рабочий стол\Rip by ALLexxess\2006 The Byrds. There Is A Season (4CD + DVD Box Set Columbia - Legacy Records)\CD1\The Byrds - There Is A Season CD1.wav

Peak level 100.0 %
Extraction speed 0.2 X
Range quality 99.9 %
Test CRC 7CE7FD8C
Copy CRC 7CE7FD8C
Copy OK

No errors occurred


AccurateRip summary

Track 1 accurately ripped (confidence 12) [4A2EFB9B]
Track 2 accurately ripped (confidence 12) [3E631F4F]
Track 3 accurately ripped (confidence 12) [D15BAC26]
Track 4 accurately ripped (confidence 12) [0F3035C3]
Track 5 accurately ripped (confidence 12) [BB67B249]
Track 6 accurately ripped (confidence 12) [2F19F1A5]
Track 7 accurately ripped (confidence 12) [85861D06]
Track 8 accurately ripped (confidence 12) [DF385341]
Track 9 accurately ripped (confidence 12) [0C4F3810]
Track 10 accurately ripped (confidence 12) [827D6A1E]
Track 11 accurately ripped (confidence 12) [0B10CB50]
Track 12 accurately ripped (confidence 12) [440B51C4]
Track 13 accurately ripped (confidence 12) [780A4C65]
Track 14 accurately ripped (confidence 12) [01C944CE]
Track 15 accurately ripped (confidence 12) [84668847]
Track 16 accurately ripped (confidence 12) [F2BF4933]
Track 17 accurately ripped (confidence 12) [9FCFC131]
Track 18 accurately ripped (confidence 12) [4480C2AA]
Track 19 accurately ripped (confidence 12) [540BF333]
Track 20 accurately ripped (confidence 12) [F3536496]
Track 21 accurately ripped (confidence 11) [79F18AF4]
Track 22 accurately ripped (confidence 12) [B796DDF7]
Track 23 accurately ripped (confidence 12) [AB06A496]
Track 24 accurately ripped (confidence 12) [0B2A7A3F]
Track 25 accurately ripped (confidence 12) [96D50D47]

All tracks accurately ripped

End of status report

==== Log checksum D7A6BCB17B6873BADFBA13017E20606DC95CF98725B95204CAB44512BC7A8D73 ====

foobar2000 1.2 / Dynamic Range Meter 1.1.1
log date: 2017-02-04 21:08:52

––––––––––––––––––––––––––––––––––––––––
Analyzed: The Byrds / There Is A Season CD1
––––––––––––––––––––––––––––––––––––––––

DR Peak RMS Duration Track
––––––––––––––––––––––––––––––––––––––––
DR11 0.00 dB -13.08 dB 2:26 01-The Only Girl I Adore (by The Jet Set)
DR7 -3.00 dB -12.10 dB 2:24 02-Please Let Me Love You (by The Beefeaters)
DR7 -3.00 dB -11.22 dB 1:57 03-Don't Be Long (by The Beefeaters)
DR12 -1.20 dB -15.82 dB 2:04 04-The Airport Song
DR10 0.00 dB -11.42 dB 2:09 05-You Movin'
DR11 0.00 dB -12.02 dB 2:05 06-You Showed Me
DR10 -0.10 dB -12.11 dB 2:32 07-Mr. Tambourine Man
DR10 -0.10 dB -11.58 dB 2:35 08-I'll Feel A Whole Lot Better
DR10 -0.10 dB -11.66 dB 2:11 09-You Won't Have To Cry
DR10 -0.10 dB -11.67 dB 2:39 10-Here Without You
DR10 -0.10 dB -11.55 dB 3:33 11-The Bells Of Rhymney
DR9 -1.70 dB -11.43 dB 2:05 12-All I Really Want To Do (Single Version)
DR10 -0.10 dB -12.05 dB 2:17 13-I Knew I'd Want You
DR10 -0.10 dB -12.82 dB 3:54 14-Chimes Of Freedom
DR10 -0.10 dB -12.32 dB 2:28 15-She Has A Way
DR11 -0.10 dB -13.14 dB 3:06 16-It's All Over Now, Baby Blue
DR10 -0.60 dB -12.91 dB 3:52 17-Turn! Turn! Turn! (To Everything There Is A Season)
DR11 -0.10 dB -12.22 dB 2:01 18-It Won't Be Wrong
DR12 -0.63 dB -14.62 dB 2:52 19-Set You Free This Time
DR9 -0.10 dB -11.34 dB 2:16 20-The World Turns All Around Her
DR11 -0.10 dB -13.73 dB 3:03 21-The Day Walk
DR11 -0.10 dB -13.06 dB 2:48 22-If You're Gone
DR10 -1.32 dB -12.66 dB 1:57 23-The Times They Are A-Changin' (Withdrawn Version)
DR10 -0.36 dB -12.17 dB 2:32 24-She Don't Care About Time (Single Version)
DR12 0.00 dB -13.13 dB 3:04 25-Stranger In A Strange Land (Instrumental)
––––––––––––––––––––––––––––––––––––––––

Number of tracks: 25
Official DR value: DR10

Samplerate: 44100 Hz
Channels: 2
Bits per sample: 16
Bitrate: 801 kbps
Codec: FLAC
================================================================================




The Byrds - There Is A Season (2006) 4 CD Box Set + Bonus DVD [Re-Up]

CD 2:


Tracklist:

01. Eight Miles High (03:37)
02. Why (Single Version) (03:01)
03. 5D (Fifth Dimension) (02:35)
04. Wild Mountain Thyme (02:32)
05. Mr. Spaceman (02:12)
06. I See You (02:40)
07. What's Happening?!?! (02:37)
08. I Know My Rider (02:46)
09. So You Want To Be A Rock 'N' Roll Star (02:08)
10. Have You Seen Her Face (02:42)
11. Renaissance Fair (01:54)
12. Time Between (01:55)
13. Everybody's Been Burned (03:07)
14. My Back Pages (03:10)
15. It Happens Each Day (02:47)
16. He Was A Friend Of Mine (Live) (02:39)
17. Lady Friend (02:33)
18. Old John Roberston (Single Version) (01:52)
19. Goin' Back (03:28)
20. Draft Morning (02:43)
21. Wasn't Born To Follow (02:04)
22. Tribal Gathering (02:04)
23. Dolphin's Smile (02:01)
24. Triad (03:31)
25. Universal Mind Decoder (Instrumental) (03:27)


Exact Audio Copy V1.0 beta 1 from 15. November 2010

EAC extraction logfile from 31. May 2011, 19:46

The Byrds / There Is A Season CD2

Used drive : HL-DT-STDVDRAM GSA-H60N Adapter: 2 ID: 0

Read mode : Secure
Utilize accurate stream : Yes
Defeat audio cache : Yes
Make use of C2 pointers : No

Read offset correction : 667
Overread into Lead-In and Lead-Out : No
Fill up missing offset samples with silence : Yes
Delete leading and trailing silent blocks : No
Null samples used in CRC calculations : Yes
Used interface : Native Win32 interface for Win NT & 2000

Used output format : Internal WAV Routines
Sample format : 44.100 Hz; 16 Bit; Stereo


TOC of the extracted CD

Track | Start | Length | Start sector | End sector
––––––––––––––––––––––––––––-
1 | 0:00.00 | 3:37.20 | 0 | 16294
2 | 3:37.20 | 3:01.15 | 16295 | 29884
3 | 6:38.35 | 2:35.45 | 29885 | 41554
4 | 9:14.05 | 2:32.72 | 41555 | 53026
5 | 11:47.02 | 2:12.05 | 53027 | 62931
6 | 13:59.07 | 2:40.55 | 62932 | 74986
7 | 16:39.62 | 2:37.68 | 74987 | 86829
8 | 19:17.55 | 2:46.20 | 86830 | 99299
9 | 22:04.00 | 2:08.30 | 99300 | 108929
10 | 24:12.30 | 2:42.50 | 108930 | 121129
11 | 26:55.05 | 1:54.30 | 121130 | 129709
12 | 28:49.35 | 1:55.70 | 129710 | 138404
13 | 30:45.30 | 3:07.72 | 138405 | 152501
14 | 33:53.27 | 3:10.68 | 152502 | 166819
15 | 37:04.20 | 2:47.27 | 166820 | 179371
16 | 39:51.47 | 2:39.15 | 179372 | 191311
17 | 42:30.62 | 2:33.33 | 191312 | 202819
18 | 45:04.20 | 1:52.65 | 202820 | 211284
19 | 46:57.10 | 3:28.60 | 211285 | 226944
20 | 50:25.70 | 2:43.15 | 226945 | 239184
21 | 53:09.10 | 2:04.00 | 239185 | 248484
22 | 55:13.10 | 2:04.20 | 248485 | 257804
23 | 57:17.30 | 2:01.50 | 257805 | 266929
24 | 59:19.05 | 3:31.72 | 266930 | 282826
25 | 62:51.02 | 3:27.28 | 282827 | 298379


Range status and errors

Selected range

Filename C:\Documents and Settings\Администратор\Рабочий стол\Rip by ALLexxess\2006 The Byrds. There Is A Season (4CD + DVD Box Set Columbia - Legacy Records)\CD2\The Byrds - There Is A Season CD2.wav

Peak level 100.0 %
Extraction speed 0.3 X
Range quality 100.0 %
Test CRC 2DC9A86E
Copy CRC 2DC9A86E
Copy OK

No errors occurred


AccurateRip summary

Track 1 accurately ripped (confidence 10) [37D35D2D]
Track 2 accurately ripped (confidence 10) [E5A57EF4]
Track 3 accurately ripped (confidence 10) [FE9D79A5]
Track 4 accurately ripped (confidence 10) [F453BCCD]
Track 5 accurately ripped (confidence 10) [74B669C6]
Track 6 accurately ripped (confidence 10) [C6531701]
Track 7 accurately ripped (confidence 10) [31239754]
Track 8 accurately ripped (confidence 10) [748BBFD5]
Track 9 accurately ripped (confidence 10) [7FEE30CE]
Track 10 accurately ripped (confidence 10) [6E6090BE]
Track 11 accurately ripped (confidence 10) [44896A99]
Track 12 accurately ripped (confidence 10) [011E510C]
Track 13 accurately ripped (confidence 10) [99445445]
Track 14 accurately ripped (confidence 10) [327B4B09]
Track 15 accurately ripped (confidence 10) [7F696799]
Track 16 accurately ripped (confidence 10) [30A4C88B]
Track 17 accurately ripped (confidence 10) [5E2B3978]
Track 18 accurately ripped (confidence 10) [D3E1E0B1]
Track 19 accurately ripped (confidence 10) [7E9CE26C]
Track 20 accurately ripped (confidence 10) [83015D8B]
Track 21 accurately ripped (confidence 10) [5A178A7A]
Track 22 accurately ripped (confidence 10) [52A5C7AA]
Track 23 accurately ripped (confidence 10) [57E67C9D]
Track 24 accurately ripped (confidence 10) [D52E635F]
Track 25 accurately ripped (confidence 10) [6C4001FE]

All tracks accurately ripped

End of status report

==== Log checksum 52FF94B65812D4AB9828CF5748BE97259BDDD8CDDCBD0E0D634BBAE0EBCAC3B7 ====

foobar2000 1.2 / Dynamic Range Meter 1.1.1
log date: 2017-02-04 21:09:21

––––––––––––––––––––––––––––––––––––––––
Analyzed: The Byrds / There Is A Season CD2
––––––––––––––––––––––––––––––––––––––––

DR Peak RMS Duration Track
––––––––––––––––––––––––––––––––––––––––
DR11 -0.10 dB -12.68 dB 3:37 01-Eight Miles High
DR8 -2.14 dB -11.15 dB 3:01 02-Why (Single Version)
DR10 -0.10 dB -10.96 dB 2:36 03-5D (Fifth Dimension)
DR10 -0.10 dB -12.20 dB 2:33 04-Wild Mountain Thyme
DR10 -0.10 dB -11.66 dB 2:12 05-Mr. Spaceman
DR10 -0.10 dB -11.99 dB 2:41 06-I See You
DR10 -0.10 dB -12.97 dB 2:38 07-What's Happening?!?!
DR11 -0.10 dB -12.94 dB 2:46 08-I Know My Rider
DR9 -0.28 dB -11.58 dB 2:08 09-So You Want To Be A Rock 'N' Roll Star
DR9 -0.90 dB -11.57 dB 2:43 10-Have You Seen Her Face
DR10 -0.10 dB -11.95 dB 1:54 11-Renaissance Fair
DR10 -0.10 dB -11.57 dB 1:56 12-Time Between
DR10 0.00 dB -12.34 dB 3:08 13-Everybody's Been Burned
DR10 0.00 dB -12.18 dB 3:11 14-My Back Pages
DR10 0.00 dB -12.28 dB 2:47 15-It Happens Each Day
DR9 -1.25 dB -12.54 dB 2:39 16-He Was A Friend Of Mine (Live)
DR8 -2.23 dB -11.34 dB 2:33 17-Lady Friend
DR9 -1.60 dB -11.92 dB 1:53 18-Old John Roberston (Single Version)
DR11 -0.10 dB -13.20 dB 3:29 19-Goin' Back
DR11 -0.10 dB -13.36 dB 2:43 20-Draft Morning
DR8 -0.10 dB -10.19 dB 2:04 21-Wasn't Born To Follow
DR9 -0.10 dB -11.57 dB 2:04 22-Tribal Gathering
DR10 -0.10 dB -13.39 dB 2:02 23-Dolphin's Smile
DR9 -0.10 dB -12.01 dB 3:32 24-Triad
DR12 -0.10 dB -13.34 dB 3:27 25-Universal Mind Decoder (Instrumental)
––––––––––––––––––––––––––––––––––––––––

Number of tracks: 25
Official DR value: DR10

Samplerate: 44100 Hz
Channels: 2
Bits per sample: 16
Bitrate: 794 kbps
Codec: FLAC
================================================================================




The Byrds - There Is A Season (2006) 4 CD Box Set + Bonus DVD [Re-Up]

CD 3:


Tracklist:
01. You Ain't Goin' Nowhere (02:35)
02. I Am A Pilgrim (03:39)
03. The Christian Life (Gram Parsons Vocal Version) (02:29)
04. You Don't Miss Your Waters (Gram Parsons Vocal Version) (03:49)
05. Hickory Wind (03:32)
06. One Hundred Years From Now (Gram Parsons Vocal Version) (02:53)
07. Lazy Days (Alternate Version) (03:18)
08. Pretty Polly (Alternate Version) (03:34)
09. This Wheel's On Fire (Alternate Version) (03:54)
10. Drug Store Truck Drivin' Man (03:54)
11. Candy (03:38)
12. Child Of The Universe (Candy Soundtrack Version) (03:11)
13. Pretty Boy Floyd (Live) (02:48)
14. Buckaroo (Instrumental / Live) (02:04)
15. King Apathy III (Live) (03:13)
16. Sing Me Back Home (Live) (03:05)
17. Lay Lady Lay (Alternate Version) (03:18)
18. Oil In My Lamp (Alternate Version) (02:03)
19. Tulsa County (02:48)
20. Jesus Is Just Alright (02:10)
21. Chestnut Mare (05:08)
22. Just A Season (03:52)
23. Kathleen's Song (Alternate Version) (02:39)
24. All The Things (Alternate Version) (04:56)


Exact Audio Copy V1.0 beta 1 from 15. November 2010

EAC extraction logfile from 31. May 2011, 20:59

The Byrds / There Is A Season CD3

Used drive : HL-DT-STDVDRAM GSA-H60N Adapter: 2 ID: 0

Read mode : Secure
Utilize accurate stream : Yes
Defeat audio cache : Yes
Make use of C2 pointers : No

Read offset correction : 667
Overread into Lead-In and Lead-Out : No
Fill up missing offset samples with silence : Yes
Delete leading and trailing silent blocks : No
Null samples used in CRC calculations : Yes
Used interface : Native Win32 interface for Win NT & 2000

Used output format : Internal WAV Routines
Sample format : 44.100 Hz; 16 Bit; Stereo


TOC of the extracted CD

Track | Start | Length | Start sector | End sector
––––––––––––––––––––––––––––-
1 | 0:00.00 | 2:35.20 | 0 | 11644
2 | 2:35.20 | 3:39.67 | 11645 | 28136
3 | 6:15.12 | 2:29.38 | 28137 | 39349
4 | 8:44.50 | 3:49.40 | 39350 | 56564
5 | 12:34.15 | 3:32.05 | 56565 | 72469
6 | 16:06.20 | 2:53.37 | 72470 | 85481
7 | 18:59.57 | 3:18.48 | 85482 | 100379
8 | 22:18.30 | 3:34.70 | 100380 | 116499
9 | 25:53.25 | 3:54.70 | 116500 | 134119
10 | 29:48.20 | 3:54.15 | 134120 | 151684
11 | 33:42.35 | 3:38.10 | 151685 | 168044
12 | 37:20.45 | 3:11.60 | 168045 | 182429
13 | 40:32.30 | 2:48.00 | 182430 | 195029
14 | 43:20.30 | 2:04.55 | 195030 | 204384
15 | 45:25.10 | 3:13.72 | 204385 | 218931
16 | 48:39.07 | 3:05.28 | 218932 | 232834
17 | 51:44.35 | 3:18.45 | 232835 | 247729
18 | 55:03.05 | 2:03.27 | 247730 | 256981
19 | 57:06.32 | 2:48.70 | 256982 | 269651
20 | 59:55.27 | 2:10.65 | 269652 | 279466
21 | 62:06.17 | 5:08.60 | 279467 | 302626
22 | 67:15.02 | 3:52.28 | 302627 | 320054
23 | 71:07.30 | 2:39.70 | 320055 | 332049
24 | 73:47.25 | 4:56.42 | 332050 | 354291


Range status and errors

Selected range

Filename C:\Documents and Settings\Администратор\Рабочий стол\Rip by ALLexxess\2006 The Byrds. There Is A Season (4CD + DVD Box Set Columbia - Legacy Records)\CD3\The Byrds - There Is A Season CD3.wav

Peak level 100.0 %
Extraction speed 0.4 X
Range quality 100.0 %
Test CRC 0A4CB395
Copy CRC 0A4CB395
Copy OK

No errors occurred


AccurateRip summary

Track 1 accurately ripped (confidence 10) [EECAE842]
Track 2 accurately ripped (confidence 10) [C346CB70]
Track 3 accurately ripped (confidence 10) [A1112493]
Track 4 accurately ripped (confidence 10) [7298B7F2]
Track 5 accurately ripped (confidence 10) [9B54AC53]
Track 6 accurately ripped (confidence 10) [074507E6]
Track 7 accurately ripped (confidence 10) [65651A00]
Track 8 accurately ripped (confidence 10) [B98503D6]
Track 9 accurately ripped (confidence 10) [67B857E0]
Track 10 accurately ripped (confidence 10) [00E7A887]
Track 11 accurately ripped (confidence 10) [B9ECD466]
Track 12 accurately ripped (confidence 10) [03EC4870]
Track 13 accurately ripped (confidence 10) [4DA7CA55]
Track 14 accurately ripped (confidence 10) [F66C1B0C]
Track 15 accurately ripped (confidence 10) [AE5305A0]
Track 16 accurately ripped (confidence 10) [08F55ECF]
Track 17 accurately ripped (confidence 10) [18DD5896]
Track 18 accurately ripped (confidence 10) [EBAEF314]
Track 19 accurately ripped (confidence 10) [9FAF9141]
Track 20 accurately ripped (confidence 10) [A0A3BB9E]
Track 21 accurately ripped (confidence 10) [6D353752]
Track 22 accurately ripped (confidence 10) [DBBF87D7]
Track 23 accurately ripped (confidence 10) [5B4B47ED]
Track 24 accurately ripped (confidence 10) [A6DD476D]

All tracks accurately ripped

End of status report

==== Log checksum FFADB690A0D25D051773AF53A2DF6B1E3FF9864461C81B62F221A48639AAA49F ====

foobar2000 1.2 / Dynamic Range Meter 1.1.1
log date: 2017-02-04 21:09:57

––––––––––––––––––––––––––––––––––––––––
Analyzed: The Byrds / There Is A Season CD3
––––––––––––––––––––––––––––––––––––––––

DR Peak RMS Duration Track
––––––––––––––––––––––––––––––––––––––––
DR11 0.00 dB -12.71 dB 2:35 01-You Ain't Goin' Nowhere
DR11 0.00 dB -12.85 dB 3:40 02-I Am A Pilgrim
DR10 0.00 dB -11.49 dB 2:30 03-The Christian Life (Gram Parsons Vocal Version)
DR10 0.00 dB -11.59 dB 3:50 04-You Don't Miss Your Waters (Gram Parsons Vocal Version)
DR11 0.00 dB -13.09 dB 3:32 05-Hickory Wind
DR12 0.00 dB -12.97 dB 2:53 06-One Hundred Years From Now (Gram Parsons Vocal Version)
DR10 -0.01 dB -12.63 dB 3:19 07-Lazy Days (Alternate Version)
DR11 -0.01 dB -13.39 dB 3:35 08-Pretty Polly (Alternate Version)
DR9 -0.10 dB -11.50 dB 3:55 09-This Wheel's On Fire (Alternate Version)
DR11 -0.10 dB -12.21 dB 3:54 10-Drug Store Truck Drivin' Man
DR10 -0.10 dB -11.52 dB 3:38 11-Candy
DR9 -0.01 dB -11.88 dB 3:12 12-Child Of The Universe (Candy Soundtrack Version)
DR10 -0.34 dB -12.34 dB 2:48 13-Pretty Boy Floyd (Live)
DR11 -1.10 dB -13.00 dB 2:05 14-Buckaroo (Instrumental / Live)
DR9 -0.35 dB -11.08 dB 3:14 15-King Apathy III (Live)
DR10 0.00 dB -11.91 dB 3:05 16-Sing Me Back Home (Live)
DR9 -0.10 dB -12.90 dB 3:19 17-Lay Lady Lay (Alternate Version)
DR11 -0.10 dB -13.27 dB 2:03 18-Oil In My Lamp (Alternate Version)
DR10 -0.90 dB -12.75 dB 2:49 19-Tulsa County
DR9 -1.10 dB -11.77 dB 2:11 20-Jesus Is Just Alright
DR10 0.00 dB -12.73 dB 5:09 21-Chestnut Mare
DR10 0.00 dB -11.67 dB 3:52 22-Just A Season
DR10 0.00 dB -12.50 dB 2:40 23-Kathleen's Song (Alternate Version)
DR10 0.00 dB -11.60 dB 4:57 24-All The Things (Alternate Version)
––––––––––––––––––––––––––––––––––––––––

Number of tracks: 24
Official DR value: DR10

Samplerate: 44100 Hz
Channels: 2
Bits per sample: 16
Bitrate: 866 kbps
Codec: FLAC
================================================================================


The Byrds - There Is A Season (2006) 4 CD Box Set + Bonus DVD [Re-Up]

CD 4:


Tracklist:

01. Lover Of The Bayou (Live) (03:39)
02. Positively 4th Street (Live) (03:06)
03. Old Blue (Live) (03:30)
04. It's Alright, Ma (I'm Only Bleeding) (Live) (02:52)
05. Ballad Of Easy Rider (Live) (02:10)
06. You All Look Alike (Live) (03:08)
07. Nashville West (Instrumental / Live) (02:12)
08. Willin' (Live) (03:13)
09. Black Mountain Rag (Instrumental / Live) (01:19)
10. Baby What You Want Me to Do (Live) (03:48)
11. I Trust (Live) (04:03)
12. Take A Whiff (On Me) (Live) (02:56)
13. Glory, Glory (04:00)
14. Byrdgrass (Instrumental) (01:44)
15. Pale Blue (02:23)
16. I Wanna Grow Up To Be A Politician (02:03)
17. Nothin' To It (Instrumental) (01:39)
18. Tiffany Queen (02:42)
19. Farther Along (02:58)
20. Bugler (03:08)
21. Mr. Tambourine Man (Banjoman Soundtrack Version / Live) (02:59)
22. Roll Over Beethoven (Banjoman Soundtrack Version / Live) (03:02)
23. Full Circle (02:43)
24. Changing Heart (02:43)
25. Paths Of Victory (03:10)


Exact Audio Copy V1.0 beta 1 from 15. November 2010

EAC extraction logfile from 31. May 2011, 22:12

The Byrds / There Is A Season CD4

Used drive : HL-DT-STDVDRAM GSA-H60N Adapter: 2 ID: 0

Read mode : Secure
Utilize accurate stream : Yes
Defeat audio cache : Yes
Make use of C2 pointers : No

Read offset correction : 667
Overread into Lead-In and Lead-Out : No
Fill up missing offset samples with silence : Yes
Delete leading and trailing silent blocks : No
Null samples used in CRC calculations : Yes
Used interface : Native Win32 interface for Win NT & 2000

Used output format : Internal WAV Routines
Sample format : 44.100 Hz; 16 Bit; Stereo


TOC of the extracted CD

Track | Start | Length | Start sector | End sector
––––––––––––––––––––––––––––-
1 | 0:00.00 | 3:39.12 | 0 | 16436
2 | 3:39.12 | 3:06.73 | 16437 | 30459
3 | 6:46.10 | 3:30.15 | 30460 | 46224
4 | 10:16.25 | 2:52.42 | 46225 | 59166
5 | 13:08.67 | 2:10.55 | 59167 | 68971
6 | 15:19.47 | 3:08.28 | 68972 | 83099
7 | 18:28.00 | 2:12.40 | 83100 | 93039
8 | 20:40.40 | 3:13.27 | 93040 | 107541
9 | 23:53.67 | 1:19.73 | 107542 | 113539
10 | 25:13.65 | 3:48.27 | 113540 | 130666
11 | 29:02.17 | 4:03.73 | 130667 | 148964
12 | 33:06.15 | 2:56.27 | 148965 | 162191
13 | 36:02.42 | 4:00.55 | 162192 | 180246
14 | 40:03.22 | 1:44.18 | 180247 | 188064
15 | 41:47.40 | 2:23.45 | 188065 | 198834
16 | 44:11.10 | 2:03.15 | 198835 | 208074
17 | 46:14.25 | 1:39.60 | 208075 | 215559
18 | 47:54.10 | 2:42.07 | 215560 | 227716
19 | 50:36.17 | 2:58.35 | 227717 | 241101
20 | 53:34.52 | 3:08.03 | 241102 | 255204
21 | 56:42.55 | 2:59.07 | 255205 | 268636
22 | 59:41.62 | 3:02.48 | 268637 | 282334
23 | 62:44.35 | 2:43.42 | 282335 | 294601
24 | 65:28.02 | 2:43.70 | 294602 | 306896
25 | 68:11.72 | 3:10.03 | 306897 | 321149


Range status and errors

Selected range

Filename C:\Documents and Settings\Администратор\Рабочий стол\Rip by ALLexxess\2006 The Byrds. There Is A Season (4CD + DVD Box Set Columbia - Legacy Records)\CD4\The Byrds - There Is A Season CD4.wav

Peak level 100.0 %
Extraction speed 0.2 X
Range quality 99.9 %
Test CRC 4F912AEA
Copy CRC 4F912AEA
Copy OK

No errors occurred


AccurateRip summary

Track 1 accurately ripped (confidence 10) [A6D26CA0]
Track 2 accurately ripped (confidence 10) [B96BE5EA]
Track 3 accurately ripped (confidence 10) [204EEC4C]
Track 4 accurately ripped (confidence 10) [25FC2BF9]
Track 5 accurately ripped (confidence 10) [A8291FF6]
Track 6 accurately ripped (confidence 10) [BF7F457C]
Track 7 accurately ripped (confidence 10) [9A262803]
Track 8 accurately ripped (confidence 10) [7A0129D5]
Track 9 accurately ripped (confidence 10) [4E312787]
Track 10 accurately ripped (confidence 10) [51E63811]
Track 11 accurately ripped (confidence 10) [484F3327]
Track 12 accurately ripped (confidence 10) [B5052996]
Track 13 accurately ripped (confidence 10) [5A2030F0]
Track 14 accurately ripped (confidence 10) [EFA5702A]
Track 15 accurately ripped (confidence 10) [68503109]
Track 16 accurately ripped (confidence 10) [42F146E5]
Track 17 accurately ripped (confidence 10) [548D9136]
Track 18 accurately ripped (confidence 10) [C66E6AD5]
Track 19 accurately ripped (confidence 10) [ABC2F8A1]
Track 20 accurately ripped (confidence 10) [087ADB7E]
Track 21 accurately ripped (confidence 10) [11EA4D17]
Track 22 accurately ripped (confidence 10) [03D66A36]
Track 23 accurately ripped (confidence 10) [556C215F]
Track 24 accurately ripped (confidence 10) [37627B93]
Track 25 accurately ripped (confidence 10) [60EFFF6E]

All tracks accurately ripped

End of status report

==== Log checksum 705362697CAED4637590CAF107879F669D66EFED03E1231D34499A3AC5305B90 ====

foobar2000 1.2 / Dynamic Range Meter 1.1.1
log date: 2017-02-04 21:10:25

––––––––––––––––––––––––––––––––––––––––
Analyzed: The Byrds / There Is A Season CD4
––––––––––––––––––––––––––––––––––––––––

DR Peak RMS Duration Track
––––––––––––––––––––––––––––––––––––––––
DR11 0.00 dB -11.92 dB 3:39 01-Lover Of The Bayou (Live)
DR10 -0.34 dB -11.63 dB 3:07 02-Positively 4th Street (Live)
DR10 0.00 dB -11.40 dB 3:30 03-Old Blue (Live)
DR10 -2.70 dB -16.93 dB 2:53 04-It's Alright, Ma (I'm Only Bleeding) (Live)
DR9 -1.91 dB -15.14 dB 2:11 05-Ballad Of Easy Rider (Live)
DR9 0.00 dB -10.20 dB 3:08 06-You All Look Alike (Live)
DR10 0.00 dB -11.24 dB 2:13 07-Nashville West (Instrumental / Live)
DR15 -0.05 dB -18.88 dB 3:13 08-Willin' (Live)
DR13 0.00 dB -16.72 dB 1:20 09-Black Mountain Rag (Instrumental / Live)
DR9 -0.01 dB -11.86 dB 3:48 10-Baby What You Want Me to Do (Live)
DR11 -0.01 dB -13.33 dB 4:04 11-I Trust (Live)
DR9 0.00 dB -12.59 dB 2:56 12-Take A Whiff (On Me) (Live)
DR10 0.00 dB -11.86 dB 4:01 13-Glory, Glory
DR11 -2.40 dB -15.81 dB 1:44 14-Byrdgrass (Instrumental)
DR9 -0.38 dB -11.80 dB 2:24 15-Pale Blue
DR10 0.00 dB -12.44 dB 2:03 16-I Wanna Grow Up To Be A Politician
DR12 -0.01 dB -13.95 dB 1:40 17-Nothin' To It (Instrumental)
DR9 -0.81 dB -11.37 dB 2:42 18-Tiffany Queen
DR9 -3.05 dB -14.29 dB 2:58 19-Farther Along
DR10 -0.52 dB -12.76 dB 3:08 20-Bugler
DR12 -0.68 dB -15.22 dB 2:59 21-Mr. Tambourine Man (Banjoman Soundtrack Version / Live)
DR10 0.00 dB -12.18 dB 3:03 22-Roll Over Beethoven (Banjoman Soundtrack Version / Live)
DR10 -0.21 dB -12.97 dB 2:44 23-Full Circle
DR10 -0.21 dB -12.22 dB 2:44 24-Changing Heart
DR11 0.00 dB -12.98 dB 3:10 25-Paths Of Victory
––––––––––––––––––––––––––––––––––––––––

Number of tracks: 25
Official DR value: DR10

Samplerate: 44100 Hz
Channels: 2
Bits per sample: 16
Bitrate: 866 kbps
Codec: FLAC
================================================================================


The Byrds - There Is A Season (2006) 4 CD Box Set + Bonus DVD [Re-Up]

Bonus DVD:
DVD 5 | Video: PAL 720x576 (4:3) VBR | Audio: LPCM 1536 Kbps | 1.6 Gb | Time: 00:25:39


Tracklist:

01. Mr. Tambourine Man
02. I'll Feel A Whole Lot Better
03. All I Really Want To Do
04. Turn! Turn! Turn!
05. It Won't Be Wrong
06. Set You Free This Time
07. So You Want To Be A Rock 'N' Roll Star
08. Mr. Tambourine Man
09. Eight Miles High
10. Mr. Spaceman


I 20:18:02 DVD Decrypter Version 3.5.4.0 started!
I 20:18:02 Microsoft Windows XP Professional (5.1, Build 2600 : Service Pack 3)
I 20:18:02 Initialising SPTI…
I 20:18:02 Searching for SCSI / ATAPI devices…
I 20:18:02 Found 1 DVD-RAM/±RW!
W 20:18:02 Possible Structure Protection Found!
W 20:18:02 1 area has been marked as 'suspect'.
W 20:18:02 Dummy sectors will be inserted where necessary.
I 20:18:29 Operation Started!
I 20:18:29 Source Device: [2:0:0] HL-DT-ST DVDRAM GSA-H60N CV02 (J:) (ATA)
I 20:18:29 Source Media Type: DVD-ROM
I 20:18:29 Source Media Region Code: 1; 2; 3; 4; 5; 6
I 20:18:29 Source Media Copyright Protection System Type: CSS/CPPM
I 20:18:29 Source Media Implementation Identifier: Spruce Technologies
I 20:18:29 Destination Folder: C:\Documents and Settings\Администратор\Рабочий стол\Rip by ALLexxess\2006 The Byrds. There Is A Season (4CD + DVD Box Set Columbia - Legacy Records)\DVD\
I 20:18:29 File Splitting: По файлу
I 20:18:29 Remove Structure Protection: Yes
I 20:18:29 Bad Sector Removal Method: Normal
I 20:18:29 Detect Mastering Errors: No
I 20:18:29 Multi Angle Processing: No
I 20:18:29 Remove Macrovision Protection: Yes
I 20:18:29 Stream Processing: No
I 20:18:29 Copying VIDEO_TS.IFO… (LBA: 286 - 293) - KEY: N/A
I 20:18:29 Decrypting VIDEO_TS.VOB… (LBA: 294 - 370) - KEY: C0 75 9C A2 09
I 20:18:29 Copying VIDEO_TS.BUP… (LBA: 371 - 378) - KEY: N/A
I 20:18:29 Copying VTS_01_0.IFO… (LBA: 379 - 389) - KEY: N/A
I 20:18:29 Decrypting VTS_01_0.VOB… (LBA: 390 - 15738) - KEY: C0 75 9C A2 09
I 20:18:36 Decrypting VTS_01_1.VOB… (LBA: 15739 - 34433) - KEY: C0 75 9C A2 09
I 20:18:44 Copying VTS_01_0.BUP… (LBA: 34434 - 34444) - KEY: N/A
I 20:18:44 Copying VTS_02_0.IFO… (LBA: 34445 - 34462) - KEY: N/A
I 20:18:44 Decrypting VTS_02_0.VOB… (LBA: 34463 - 34539) - KEY: D5 CA 6F 01 9D
I 20:18:44 Decrypting VTS_02_1.VOB… (LBA: 34540 - 558741) - KEY: D5 CA 6F 01 9D
I 20:21:46 Decrypting VTS_02_2.VOB… (LBA: 558742 - 798803) - KEY: D5 CA 6F 01 9D
I 20:22:52 Copying VTS_02_0.BUP… (LBA: 798804 - 798821) - KEY: N/A
I 20:22:53 Copying VTS_03_0.IFO… (LBA: 798822 - 798830) - KEY: N/A
I 20:22:53 Decrypting VTS_03_0.VOB… (LBA: 798831 - 798907) - KEY: CD 7E 37 B9 91
I 20:22:53 Decrypting VTS_03_1.VOB… (LBA: 798908 - 817602) - KEY: CD 7E 37 B9 91
I 20:22:58 Copying VTS_03_0.BUP… (LBA: 817603 - 817611) - KEY: N/A
I 20:22:58 Operation Successfully Completed! - Duration: 00:04:28
I 20:22:58 Average Read Rate: 6 099 KB/s (4.4x) - Maximum Read Rate: 7 822 KB/s (5.6x)

The Byrds - There Is A Season (2006) 4 CD Box Set + Bonus DVD [Re-Up]

The Byrds - There Is A Season (2006) 4 CD Box Set + Bonus DVD [Re-Up]

The Byrds - There Is A Season (2006) 4 CD Box Set + Bonus DVD [Re-Up]

The Byrds - There Is A Season (2006) 4 CD Box Set + Bonus DVD [Re-Up]

The Byrds - There Is A Season (2006) 4 CD Box Set + Bonus DVD [Re-Up]

The Byrds - There Is A Season (2006) 4 CD Box Set + Bonus DVD [Re-Up]

The Byrds - There Is A Season (2006) 4 CD Box Set + Bonus DVD [Re-Up]

All thanks to ALLexxess for original rips

More interesting music in My Blog