Subcategories

The Cranberries - The Complete Sessions 1991-1999 aka Treasure Box (2002) 4 CD Box Set [Re-Up]

Posted By: Designol
The Cranberries - The Complete Sessions 1991-1999 aka Treasure Box (2002) 4 CD Box Set [Re-Up]

The Cranberries - The Complete Sessions 1991-1999 aka Treasure Box (2002) 4 CD Box Set [Re-Up]

The Cranberries - The Complete Sessions 1991-1999 aka Treasure Box (2002) 4 CDs
EAC | FLAC | Image (Cue&Log) ~ 1.95 Gb | Mp3 (CBR320) ~ 752 Gb | Scans included
Adult Alternative Pop/Rock, Celtic Rock | Label: Island | # 586 707-2 | Time: 04:33:05

2002 box-set featuring the Cranberries first four studio albums. Each album has been digitally remastered and features bonus tracks. Four standard jewel cases housed in a slipcase.

Island Records has shown some confidence in the career of the Cranberries by assembling this collection, which compiles all of the band's studio recordings of the 1990s. Each of the four discs contains one of the Cranberries' albums from the decade, Everybody Else Is Doing It, So Why Can't We?, No Need to Argue, To the Faithful Departed, and Bury the Hatchet, followed by five or six bonus tracks that were released originally as single B-sides, remixes, or on various-artists albums. Taken together, the recordings trace the band's recording journey through the '90s, from its beginnings as a relatively melodic Celtic-tinged and romantically inclined outfit on its debut, to an increasingly hard rock posture and an overtly political lyrical concern on the second and third albums, and back to a lighter approach on the fourth album. The high points remain the hits: "Linger," "Dreams," "Zombie," "Ode to My Family," "I Can't Be With You," "Ridiculous Thoughts," "Salvation," "When You're Gone," "Free to Decide," "Promises," and "Animal Instincts." But there are songs among the bonus tracks that are more than just throwaways; "Liar," "I Don't Need," and "So Cold in Ireland," to name three, are good enough to have been included on the Cranberries' regular albums. The occasional covers of other artists' hits, the Carpenters' "(They Long to Be) Close to You" and Fleetwood Mac's "Go Your Own Way," are illuminating, though the band embarrasses itself performing Ave Maria with Pavarotti (a track that, despite the stated restriction to studio recordings, was recorded live). At this point, the Cranberries might be better served by a carefully selected hits collection than they are by these collected works. But their fans may welcome the chance to have all their '90s recordings in one place, as long as they don't mind buying the albums again.

Review by William Ruhlmann, Allmusic.com

The Cranberries - The Complete Sessions 1991-1999 aka Treasure Box (2002) 4 CD Box Set [Re-Up]






The Cranberries - The Complete Sessions 1991-1999 aka Treasure Box (2002) 4 CD Box Set [Re-Up]

CD1: Everybody Else Is Doing It, So Why Can't We? (1993) The Complete Sessions 1991-1993
EAC | FLAC | Image (Cue&Log) ~ 408 Mb | Mp3 (CBR320) ~ 165 Mb
Label: Island Records | # 586 708-2 | Time: 00:59:35 | Scans included

Title aside, what the Cranberries were doing wasn't that common at the time, at least in mainstream pop terms; grunge and G-funk had done their respective big splashes via Nirvana and Dr. Dre when Everybody came out first in the U.K. and then in America some months later. Lead guitarist Noel Hogan is in many ways the true center of the band at this point, co-writing all but three songs with O'Riordan and showing an amazing economy in his playing, and having longtime Smiths/Morrissey producer Stephen Street behind the boards meant that the right blend of projection and delicacy still held sway. One can tell he likes Johnny Marr and his ability to do the job just right: check out the quick strums and blasts on "Pretty" or the concluding part of the lovely "Waltzing Back." O'Riordan herself offers up a number of romantic ponderings and considerations lyrically (as well as playing perfectly fine acoustic guitar), and her undisputed vocal ability suits the material perfectly. The two best cuts were the deserved smashes: "Dreams," a brisk, charging number combining low-key tension and full-on rock, and the melancholic, string-swept break-up song "Linger." If Everybody is in the end a derivative pleasure – and O'Riordan's vocal acrobatics would never again be so relatively calm in comparison – a pleasure it remains nonetheless, the work of a young band creating a fine little synthesis.

Review by Ned Raggett, Allmusic.com

Tracklist:

01. I Still Do (03:17)
02. Dreams (04:32)
03. Sunday (03:30)
04. Pretty (02:16)
05. Waltzing Back (03:38)
06. Not Sorry (04:20)
07. Linger (04:34)
08. Wanted (02:08)
09. Still Can't… (03:40)
10. I Will Always (02:42)
11. How (02:51)
12. Put Me Down (03:34)
13. Reason (02:02)
14. Them (03:43)
15. What You Were (03:41)
16. Liar (02:22)
17. Pretty (Pret A Porter Movie Remix) (03:41)
18. How (Radical Mix) (02:58)


Exact Audio Copy V0.99 prebeta 5 from 4. May 2009

EAC extraction logfile from 4. May 2010, 19:50

The Cranberries / Everybody Else Is Doing It So Why Can't We? (The Complete Sessions 1991-1993)

Used drive : PLEXTOR DVDR PX-810SA Adapter: 2 ID: 1

Read mode : Secure
Utilize accurate stream : Yes
Defeat audio cache : Yes
Make use of C2 pointers : No

Read offset correction : 48
Overread into Lead-In and Lead-Out : No
Fill up missing offset samples with silence : Yes
Delete leading and trailing silent blocks : No
Null samples used in CRC calculations : Yes
Used interface : Installed external ASPI interface

Used output format : Internal WAV Routines
Sample format : 44.100 Hz; 16 Bit; Stereo


TOC of the extracted CD

Track | Start | Length | Start sector | End sector
––––––––––––––––––––––––––––-
1 | 0:00.00 | 3:17.40 | 0 | 14814
2 | 3:17.40 | 4:32.05 | 14815 | 35219
3 | 7:49.45 | 3:30.68 | 35220 | 51037
4 | 11:20.38 | 2:16.15 | 51038 | 61252
5 | 13:36.53 | 3:38.00 | 61253 | 77602
6 | 17:14.53 | 4:20.20 | 77603 | 97122
7 | 21:34.73 | 4:34.57 | 97123 | 117729
8 | 26:09.55 | 2:07.73 | 117730 | 127327
9 | 28:17.53 | 3:40.00 | 127328 | 143827
10 | 31:57.53 | 2:42.10 | 143828 | 155987
11 | 34:39.63 | 2:51.50 | 155988 | 168862
12 | 37:31.38 | 3:33.73 | 168863 | 184910
13 | 41:05.36 | 2:02.03 | 184911 | 194063
14 | 43:07.39 | 3:42.73 | 194064 | 210786
15 | 46:50.37 | 3:41.61 | 210787 | 227422
16 | 50:32.23 | 2:22.45 | 227423 | 238117
17 | 52:54.68 | 3:41.20 | 238118 | 254712
18 | 56:36.13 | 2:58.29 | 254713 | 268091


Range status and errors

Selected range

Filename J:\Treasure box\TC_TBOX_CD1\The Cranberries - Everybody Else Is Doing It So Why Can't We (The Complete Sessions 1991-1993).wav

Peak level 100.0 %
Range quality 100.0 %
Copy CRC 822B655F
Copy OK

No errors occurred

End of status report

[CUETools log; Date: 04.04.2013 13:25:46; Version: 2.1.1]
[CTDB TOCID: nRKTHXvoXuiN0z.OFLP_VFhW08s-] found.
[ CTDBID ] Status
[574cc368] (78/78) Accurately ripped
[AccurateRip ID: 00281d21-021197b7-1b0df612] found.
Track [ CRC ] Status
01 [3a0fbe16] (49/84) Accurately ripped
02 [7e268975] (49/84) Accurately ripped
03 [445607f2] (49/84) Accurately ripped
04 [92f2266d] (49/84) Accurately ripped
05 [2897d42d] (50/85) Accurately ripped
06 [8ecbc8c0] (49/84) Accurately ripped
07 [0c01c16f] (47/82) Accurately ripped
08 [9a2827c7] (48/83) Accurately ripped
09 [98b02c4a] (49/84) Accurately ripped
10 [84f08eb2] (50/85) Accurately ripped
11 [892a4423] (50/85) Accurately ripped
12 [10524cac] (50/84) Accurately ripped
13 [8834a2e8] (50/85) Accurately ripped
14 [6330efe4] (51/86) Accurately ripped
15 [7be3186c] (50/85) Accurately ripped
16 [d9057c56] (50/85) Accurately ripped
17 [a5b87198] (50/85) Accurately ripped
18 [442943e0] (50/85) Accurately ripped
Offsetted by -1351:
01 [caedd654] (02/84) Accurately ripped
02 [a4564549] (02/84) Accurately ripped
03 [0aaf27bc] (02/84) Accurately ripped
04 [2d0b311d] (02/84) Accurately ripped
05 [abc0f23b] (02/85) Accurately ripped
06 [846258c5] (02/84) Accurately ripped
07 [c3e625d9] (02/82) Accurately ripped
08 [0bbd69bd] (02/83) Accurately ripped
09 [04229e56] (02/84) Accurately ripped
10 [417cd0fb] (02/85) Accurately ripped
11 [18fd73da] (02/85) Accurately ripped
12 [3b4ee8d2] (02/84) Accurately ripped
13 [72e729f1] (02/85) Accurately ripped
14 [7356fd10] (02/86) Accurately ripped
15 [f162d866] (02/85) Accurately ripped
16 [7044b774] (02/85) Accurately ripped
17 [56f6d2cc] (02/85) Accurately ripped
18 [0c58b5c4] (02/85) Accurately ripped
Offsetted by -675:
01 [761462f1] (03/84) Accurately ripped
02 [a5e2bbc0] (03/84) Accurately ripped
03 [b94a2e3a] (03/84) Accurately ripped
04 [59feaee9] (03/84) Accurately ripped
05 [7e47e501] (03/85) Accurately ripped
06 [3086a9b9] (03/84) Accurately ripped
07 [cf6a1ff5] (03/82) Accurately ripped
08 [4ff915a4] (03/83) Accurately ripped
09 [fca156df] (03/84) Accurately ripped
10 [6a706ddf] (03/85) Accurately ripped
11 [87ae43fb] (03/85) Accurately ripped
12 [0ea071c1] (03/84) Accurately ripped
13 [07b329d5] (03/85) Accurately ripped
14 [70602ec0] (03/86) Accurately ripped
15 [035615ce] (03/85) Accurately ripped
16 [042fb06c] (03/85) Accurately ripped
17 [afd4029c] (03/85) Accurately ripped
18 [fbef1c54] (03/85) Accurately ripped
Offsetted by -664:
01 [e100bbcf] (14/84) Accurately ripped
02 [14df328c] (14/84) Accurately ripped
03 [0268eb45] (14/84) Accurately ripped
04 [7c693222] (14/84) Accurately ripped
05 [35d44862] (14/85) Accurately ripped
06 [95e12ccb] (14/84) Accurately ripped
07 [c932309f] (14/82) Accurately ripped
08 [feb25335] (14/83) Accurately ripped
09 [094181cc] (14/84) Accurately ripped
10 [0966c29a] (14/85) Accurately ripped
11 [74e28935] (14/85) Accurately ripped
12 [0f75ff8e] (14/84) Accurately ripped
13 [e6e6f4d0] (14/85) Accurately ripped
14 [e0cd04c4] (14/86) Accurately ripped
15 [9aba9c7c] (14/85) Accurately ripped
16 [3a18a006] (14/85) Accurately ripped
17 [f0844bb8] (14/85) Accurately ripped
18 [2ce5d180] (14/85) Accurately ripped
Offsetted by 32:
01 [7e467f4a] (03/84) Accurately ripped
02 [56c0576d] (03/84) Accurately ripped
03 [a79356d7] (03/84) Accurately ripped
04 [7ee56283] (03/84) Accurately ripped
05 [2ab110c9] (03/85) Accurately ripped
06 [0c33f0ad] (03/84) Accurately ripped
07 [cb5f092f] (03/82) Accurately ripped
08 [f8fa0123] (03/83) Accurately ripped
09 [6e36371e] (03/84) Accurately ripped
10 [536010d2] (03/85) Accurately ripped
11 [cd7b48da] (03/85) Accurately ripped
12 [50523849] (03/84) Accurately ripped
13 [11857d08] (03/85) Accurately ripped
14 [aa3f0164] (03/86) Accurately ripped
15 [a8aa71ac] (03/85) Accurately ripped
16 [bbab1e16] (03/85) Accurately ripped
17 [04d08c18] (03/85) Accurately ripped
18 [2fb12460] (03/85) Accurately ripped
Offsetted by -646:
01 [b9737093] (00/84) No match but offset
02 [3cc5b660] (00/84) No match but offset
03 [4c61d655] (00/84) No match but offset
04 [0afead3a] (00/84) No match but offset
05 [4cf39473] (00/85) No match but offset
06 [bf7ac214] (00/84) No match but offset
07 [04d6a8fb] (00/82) No match but offset
08 [af5d53d5] (00/83) No match but offset
09 [7965b0e0] (00/84) No match but offset
10 [0d857bcc] (00/85) No match but offset
11 [bed5e8ae] (00/85) No match but offset
12 [9786c9b3] (00/84) No match but offset
13 [54246f82] (00/85) No match but offset
14 [98c4ee9c] (00/86) No match but offset
15 [63eabeb0] (00/85) No match but offset
16 [a995cb02] (00/85) No match but offset
17 [e601daa0] (00/85) No match but offset
18 [f1623fc8] (00/85) No match but offset

Track Peak [ CRC32 ] [W/O NULL] [ LOG ]
– 100,0 [822B655F] [6C605790] CRC32
01 99,9 [68DA4E15] [F1841788]
02 92,0 [92D13241] [02CD44EF]
03 99,1 [01084305] [8EB3E069]
04 95,4 [B389055C] [02994D9A]
05 99,9 [F59EDA8F] [766F32ED]
06 95,3 [117E647F] [E1006982]
07 85,1 [BF70931A] [B2F03BF6]
08 97,5 [4ED44F9F] [16D4D4BF]
09 86,1 [E333A760] [12A26D04]
10 96,1 [D85FD55B] [4F08CA56]
11 93,2 [16AA4499] [3F5CF3E4]
12 95,9 [A4208B9E] [F0A31C10]
13 75,0 [61BF7601] [0139F905]
14 93,0 [FEC628FE] [55A71B8B]
15 100,0 [85C10C69] [D501DAF7]
16 89,1 [2D33A3E1] [D9ADC075]
17 81,6 [37ADFADF] [79521025]
18 91,6 [C3742AD6] [82A34F9B]

foobar2000 1.2 / Dynamic Range Meter 1.1.1
log date: 2013-04-04 13:38:43

––––––––––––––––––––––––––––––––––––––––
Analyzed: The Cranberries / Everybody Else Is Doing It So Why Can't We? (The Complete Sessions 1991-1993)
––––––––––––––––––––––––––––––––––––––––

DR Peak RMS Duration Track
––––––––––––––––––––––––––––––––––––––––
DR13 -0.01 dB -15.12 dB 3:18 01-I Still Do
DR13 -0.72 dB -15.38 dB 4:32 02-Dreams
DR14 -0.08 dB -16.32 dB 3:31 03-Sunday
DR15 -0.41 dB -18.27 dB 2:16 04-Pretty
DR15 -0.01 dB -17.65 dB 3:38 05-Waltzing Back
DR12 -0.42 dB -15.95 dB 4:20 06-Not Sorry
DR13 -1.40 dB -16.87 dB 4:35 07-Linger
DR14 -0.22 dB -15.43 dB 2:08 08-Wanted
DR13 -1.29 dB -15.87 dB 3:40 09-Still Can't…
DR13 -0.34 dB -16.60 dB 2:42 10-I Will Always
DR12 -0.61 dB -14.98 dB 2:52 11-How
DR12 -0.36 dB -15.33 dB 3:34 12-Put Me Down
DR10 -2.49 dB -13.91 dB 2:02 13-Reason
DR10 -0.62 dB -14.61 dB 3:43 14-Them
DR15 0.00 dB -17.67 dB 3:42 15-What You Were
DR10 -1.00 dB -12.84 dB 2:23 16-Liar
DR11 -1.76 dB -15.11 dB 3:41 17-Pretty (Pret A Porter Movie Remix)
DR12 -0.76 dB -14.96 dB 2:58 18-How (Radical Mix)
––––––––––––––––––––––––––––––––––––––––

Number of tracks: 18
Official DR value: DR13

Samplerate: 44100 Hz
Channels: 2
Bits per sample: 16
Bitrate: 863 kbps
Codec: FLAC
================================================================================




The Cranberries - The Complete Sessions 1991-1999 aka Treasure Box (2002) 4 CD Box Set [Re-Up]

CD2: No Need to Argue (1994) The Complete Sessions 1994-1995
EAC | FLAC | Image (Cue&Log) ~ 493 Mb | Mp3 (CBR320) ~ 192 Mb
Label: Island Records | # 586 709-2 | Time: 01:12:14 | Scans included

With their surprise success behind them, the Cranberries went ahead and essentially created a sequel to Everybody Else is Doing It, So Why Can't We with only tiny variations, with mixed results. The fact that the album is essentially a redo of previously established stylistic ground isn't apparent in just the production, handled again by Stephen Street, or the overall sound, or even that one particularly fine song is called "Dreaming My Dreams." Everybody wasn't a laugh riot, to be sure, but No Need to Argue starts to see O'Riordan take a more commanding and self-conscious role that ended up not standing the band in good stead later. Lead single "Zombie" is the offender in this regard – the heavy rock trudge isn't immediately suited for the band's strengths (notably, O'Riordan wrote this without Noel Hogan) – while the subject matter (the continuing Northern Ireland tensions) ends up sounding trivialized. Opening cut "Ode to My Family" is actually one of the band's best, with a lovely string arrangement created by O'Riordan, her overdubbed vocals showing her distinct vocal tics. Where No Need succeeds best is when the Cranberries stick at what they know, resulting in a number of charmers like "Twenty One," the uilleann pipes-touched "Daffodil's Lament," which has an epic sweep that doesn't overbear like "Zombie," and the evocative "Disappointment."

Review by Ned Raggett, Allmusic.com

Tracklist:

01. Ode To My Family (04:31)
02. I Can't Be With You (03:07)
03. Twenty One (03:07)
04. Zombie (05:06)
05. Empty (03:26)
06. Everything I Said (03:52)
07. The Icicle Melts (02:54)
08. Disappointment (04:14)
09. Ridiculous Thoughts (04:31)
10. Dreaming My Dreams (03:37)
11. Yeat's Grave (02:59)
12. Daffodil Lament (06:14)
13. No Need To Argue (02:57)
14. Away (02:38)
15. I Don't Need (03:32)
16. (They Long To Be) Close To You (02:41)
17. So Cold In Ireland (04:45)
18. Zombie (Camel's Hump Mix) (07:54)


Exact Audio Copy V0.99 prebeta 5 from 4. May 2009

EAC extraction logfile from 4. May 2010, 20:11

The Cranberries / No Need To Argue (The Complete Sessions 1994-1995)

Used drive : PLEXTOR DVDR PX-810SA Adapter: 2 ID: 1

Read mode : Secure
Utilize accurate stream : Yes
Defeat audio cache : Yes
Make use of C2 pointers : No

Read offset correction : 48
Overread into Lead-In and Lead-Out : No
Fill up missing offset samples with silence : Yes
Delete leading and trailing silent blocks : No
Null samples used in CRC calculations : Yes
Used interface : Installed external ASPI interface

Used output format : Internal WAV Routines
Sample format : 44.100 Hz; 16 Bit; Stereo


TOC of the extracted CD

Track | Start | Length | Start sector | End sector
––––––––––––––––––––––––––––-
1 | 0:00.00 | 4:31.40 | 0 | 20364
2 | 4:31.40 | 3:07.63 | 20365 | 34452
3 | 7:39.28 | 3:07.67 | 34453 | 48544
4 | 10:47.20 | 5:06.33 | 48545 | 71527
5 | 15:53.53 | 3:26.12 | 71528 | 86989
6 | 19:19.65 | 3:52.58 | 86990 | 104447
7 | 23:12.48 | 2:54.00 | 104448 | 117497
8 | 26:06.48 | 4:14.55 | 117498 | 136602
9 | 30:21.28 | 4:31.15 | 136603 | 156942
10 | 34:52.43 | 3:37.00 | 156943 | 173217
11 | 38:29.43 | 2:59.42 | 173218 | 186684
12 | 41:29.10 | 6:14.05 | 186685 | 214739
13 | 47:43.15 | 2:57.19 | 214740 | 228033
14 | 50:40.34 | 2:38.55 | 228034 | 239938
15 | 53:19.14 | 3:32.23 | 239939 | 255861
16 | 56:51.37 | 2:41.50 | 255862 | 267986
17 | 59:33.12 | 4:45.23 | 267987 | 289384
18 | 64:18.35 | 7:54.62 | 289385 | 324996


Range status and errors

Selected range

Filename J:\Treasure box\TC_TBOX_CD2\The Cranberries - No Need To Argue (The Complete Sessions 1994-1995).wav

Peak level 100.0 %
Range quality 100.0 %
Copy CRC A9DAFFDA
Copy OK

No errors occurred

End of status report

[CUETools log; Date: 04.04.2013 13:26:28; Version: 2.1.1]
[CTDB TOCID: C0e6lBek4cPYIYtCAvu9PpdksfM-] found.
[ CTDBID ] Status
[7a1dee5b] (117/118) Accurately ripped
[f82eb4bb] (001/118) NotFound
[AccurateRip ID: 002d238c-0259f5d6-f510ed12] found.
Track [ CRC ] Status
01 [831e61f5] (026/119) Accurately ripped
02 [cab2c97c] (027/123) Accurately ripped
03 [b7309a04] (027/122) Accurately ripped
04 [441c1e86] (027/122) Accurately ripped
05 [2dd23253] (027/123) Accurately ripped
06 [7aec3a18] (027/123) Accurately ripped
07 [8984f0a9] (028/124) Accurately ripped
08 [6eb9ffef] (026/123) Accurately ripped
09 [668d68a6] (027/124) Accurately ripped
10 [43699d33] (027/124) Accurately ripped
11 [72547c10] (027/124) Accurately ripped
12 [1353ae47] (027/123) Accurately ripped
13 [32830e37] (027/124) Accurately ripped
14 [c8105869] (027/123) Accurately ripped
15 [1356503c] (027/123) Accurately ripped
16 [44d72998] (026/122) Accurately ripped
17 [3a336c4c] (027/123) Accurately ripped
18 [0f7b46cb] (025/121) Accurately ripped
Offsetted by -1357:
01 [f1690299] (002/119) Accurately ripped
02 [4a1eb2b7] (002/123) Accurately ripped
03 [a22a1c7a] (002/122) Accurately ripped
04 [fcc78b24] (002/122) Accurately ripped
05 [53ce82d6] (002/123) Accurately ripped
06 [a4fcffec] (002/123) Accurately ripped
07 [7094a47c] (002/124) Accurately ripped
08 [ce7643ce] (002/123) Accurately ripped
09 [00d63930] (002/124) Accurately ripped
10 [0df709e3] (002/124) Accurately ripped
11 [9834be28] (002/124) Accurately ripped
12 [97495982] (002/123) Accurately ripped
13 [e6a52f97] (002/124) Accurately ripped
14 [5609ad13] (002/123) Accurately ripped
15 [1f55c76c] (002/123) Accurately ripped
16 [871ddb0f] (002/122) Accurately ripped
17 [2878fabd] (002/123) Accurately ripped
18 [7166bb68] (002/121) Accurately ripped
Offsetted by -664:
01 [fbaee659] (069/119) Accurately ripped
02 [687da880] (071/123) Accurately ripped
03 [6bab9312] (070/122) Accurately ripped
04 [d615b2ee] (070/122) Accurately ripped
05 [09d323f1] (071/123) Accurately ripped
06 [2a8abe39] (071/123) Accurately ripped
07 [d720085a] (071/124) Accurately ripped
08 [c48339a7] (071/123) Accurately ripped
09 [68d09c80] (071/124) Accurately ripped
10 [763181a5] (071/124) Accurately ripped
11 [bcaa3b78] (071/124) Accurately ripped
12 [ccb913c5] (070/123) Accurately ripped
13 [d2576337] (071/124) Accurately ripped
14 [d8b61d19] (070/123) Accurately ripped
15 [a7a3c6bc] (070/123) Accurately ripped
16 [1639b4e0] (070/122) Accurately ripped
17 [a195c9c4] (070/123) Accurately ripped
18 [8c2d1ee3] (070/121) Accurately ripped
Offsetted by -4:
01 [30e2e4f3] (002/119) Accurately ripped
02 [d0b6060d] (002/123) Accurately ripped
03 [780fad73] (002/122) Accurately ripped
04 [640c4e25] (002/122) Accurately ripped
05 [17d61815] (002/123) Accurately ripped
06 [e2b46cb7] (002/123) Accurately ripped
07 [a8435ac9] (002/124) Accurately ripped
08 [996f1f32] (002/123) Accurately ripped
09 [f0664827] (002/124) Accurately ripped
10 [d2128c46] (002/124) Accurately ripped
11 [a2af2f78] (002/124) Accurately ripped
12 [b1596a36] (002/123) Accurately ripped
13 [fbf4e9b7] (002/124) Accurately ripped
14 [0c0501b1] (002/123) Accurately ripped
15 [8afa3ffc] (002/123) Accurately ripped
16 [492fa8e4] (002/122) Accurately ripped
17 [cbc99b20] (002/123) Accurately ripped
18 [997c590f] (002/121) Accurately ripped
Offsetted by -646:
01 [f8eba9cc] (000/119) No match but offset
02 [b8c2e959] (000/123) No match but offset
03 [852f7659] (000/122) No match but offset
04 [9252d568] (000/122) No match but offset
05 [333a7187] (000/123) No match but offset
06 [d26afb40] (000/123) No match but offset
07 [4b99c79a] (000/124) No match but offset
08 [30d749b5] (000/123) No match but offset
09 [383d5470] (000/124) No match but offset
10 [a4e89927] (000/124) No match but offset
11 [93f2c7df] (000/124) No match but offset
12 [98bccd86] (000/123) No match but offset
13 [c7d70777] (000/124) No match but offset
14 [a6e92355] (000/123) No match but offset
15 [8d420fdc] (000/123) No match but offset
16 [02ab780a] (000/122) No match but offset
17 [1271f70a] (000/123) No match but offset
18 [1f284cb1] (000/121) No match but offset

Track Peak [ CRC32 ] [W/O NULL] [ LOG ]
– 99,9 [A9DAFFDA] [1258F2B0] CRC32
01 92,9 [C05753F1] [DB6DC5F8]
02 93,9 [880602AB] [903A421E]
03 91,0 [91B7BB63] [F688BDCE]
04 99,4 [CDCB7628] [39995C44]
05 88,2 [2ACE6A8D] [879F9050]
06 95,3 [C7C3B075] [F56AAD96]
07 95,6 [B3768724] [8E081EC8]
08 93,2 [A510FD52] [38796CCF]
09 94,2 [763C5121] [F09900F2]
10 92,1 [CBADD2A8] [056C576A]
11 98,3 [F116EF26] [9567BF2D]
12 96,6 [6420E3CA] [6D57960D]
13 88,6 [91877FA5] [882C85D0]
14 99,8 [D641149D] [9457461A]
15 96,7 [FB30150E] [9304CA35]
16 91,8 [35CBEBCE] [5D5B7F26]
17 99,8 [F0404A21] [86327748]
18 99,9 [5CB37FA4] [EB2B5EFB]

foobar2000 1.2 / Dynamic Range Meter 1.1.1
log date: 2013-04-04 13:39:10

––––––––––––––––––––––––––––––––––––––––
Analyzed: The Cranberries / No Need To Argue (The Complete Sessions 1994-1995)
––––––––––––––––––––––––––––––––––––––––

DR Peak RMS Duration Track
––––––––––––––––––––––––––––––––––––––––
DR10 -0.63 dB -13.19 dB 4:32 01-Ode To My Family
DR10 -0.54 dB -12.58 dB 3:08 02-I Can't Be With You
DR13 -0.82 dB -15.34 dB 3:08 03-Twenty One
DR10 -0.05 dB -12.45 dB 5:06 04-Zombie
DR11 -1.08 dB -14.73 dB 3:26 05-Empty
DR11 -0.42 dB -14.48 dB 3:53 06-Everything I Said
DR10 -0.38 dB -12.54 dB 2:54 07-The Icicle Melts
DR11 -0.60 dB -14.36 dB 4:15 08-Disappointment
DR10 -0.51 dB -12.99 dB 4:31 09-Ridiculous Thoughts
DR12 -0.71 dB -15.22 dB 3:37 10-Dreaming My Dreams
DR11 -0.14 dB -13.10 dB 3:00 11-Yeat's Grave
DR10 -0.30 dB -14.25 dB 6:14 12-Daffodil Lament
DR13 -1.04 dB -17.22 dB 2:57 13-No Need To Argue
DR13 -0.01 dB -16.06 dB 2:39 14-Away
DR11 -0.29 dB -13.20 dB 3:32 15-I Don't Need
DR9 -0.74 dB -12.33 dB 2:42 16-(They Long To Be) Close To You
DR10 -0.01 dB -13.29 dB 4:45 17-So Cold In Ireland
DR8 0.00 dB -11.40 dB 7:55 18-Zombie (Camel's Hump Mix)
––––––––––––––––––––––––––––––––––––––––

Number of tracks: 18
Official DR value: DR11

Samplerate: 44100 Hz
Channels: 2
Bits per sample: 16
Bitrate: 874 kbps
Codec: FLAC
================================================================================




The Cranberries - The Complete Sessions 1991-1999 aka Treasure Box (2002) 4 CD Box Set [Re-Up]

CD3: To the Faithful Departed (1996) The Complete Sessions 1996-1997
EAC | FLAC | Image (Cue&Log) ~ 542 Mb | Mp3 (CBR320) ~ 202 Mb
Label: Island Records | # 586 710-2 | Time: 01:12:32 | Scans included

To the Faithful Departed turned out to be where the Cranberries' best intentions finally and thoroughly tripped them up. Switching producers to Bruce Fairbairn was a troubling enough move to begin with; Stephen Street's ear for the band's dynamics was note-perfect, but Fairbairn's work with arena-rock monsters like Aerosmith meant that on Departed everything was scaled up accordingly. The results may have been more commercial, but they took the identity of the band with it – the opening song "Hollywood" was a sludgefest that, ironically, didn't give the band the muscular kick that propelled songs like "Zombie." O'Riordan, meanwhile, decided she was a generation's spokesperson, fully taking over the songwriting, except on a couple of cuts with Noel Hogan, penning some appropriate liner notes, and running with it. Songtitles say it all – "War Child," "I Just Shot John Lennon," complete with cheesy gun shots, and perhaps most painfully obvious at the end, "Bosnia." Then there's lead single "Salvation," which preaches against heroin addiction in a manner worthy of afterschool specials and with about as much depth. Not that good songs can't and haven't been written on these subjects, of course, but O'Riordan, lacking a truly individual or unique take on them, is not the person to be writing them. Or singing them – her wails and yelps now run rampant, being less voice-as-instrument as it is signature calling card to be employed throughout. There are bright points – every so often Hogan's guitar comes through at its best, and there's the retro-'50s finger-snapping "When You're Gone" and the nicely arranged "Electric Blue." Still, when compared to No Need and especially Everybody, Departed completely suffers in comparison.

Review by Ned Raggett, Allmusic.com

Tracklist:

01. Hollywood (05:08)
02. Salvation (02:24)
03. When You're Gone (04:56)
04. Free To Decide (04:25)
05. War Child (03:50)
06. Forever Yellow Skies (04:09)
07. The Rebels (03:20)
08. Intermission (02:01)
09. I Just Shot John Lennon (02:41)
10. Electric Blue (04:51)
11. I'm Still Remembering (04:49)
12. Will You Remember (02:49)
13. Joe (03:22)
14. Bosnia (05:40)
15. Cordell (03:41)
16. The Picture I View (02:28)
17. Ave Maria (04:13)
18. Go Your Own Way (04:03)
19. God Be With You (03:34)


Exact Audio Copy V0.99 prebeta 5 from 4. May 2009

EAC extraction logfile from 4. May 2010, 20:52

The Cranberries / To The Faithful Departed (The Complete Sessions 1996-1997)

Used drive : PLEXTOR DVDR PX-810SA Adapter: 2 ID: 1

Read mode : Secure
Utilize accurate stream : Yes
Defeat audio cache : Yes
Make use of C2 pointers : No

Read offset correction : 48
Overread into Lead-In and Lead-Out : No
Fill up missing offset samples with silence : Yes
Delete leading and trailing silent blocks : No
Null samples used in CRC calculations : Yes
Used interface : Installed external ASPI interface

Used output format : Internal WAV Routines
Sample format : 44.100 Hz; 16 Bit; Stereo


TOC of the extracted CD

Track | Start | Length | Start sector | End sector
––––––––––––––––––––––––––––-
1 | 0:00.00 | 5:08.13 | 0 | 23112
2 | 5:08.13 | 2:23.70 | 23113 | 33907
3 | 7:32.08 | 4:56.58 | 33908 | 56165
4 | 12:28.66 | 4:25.05 | 56166 | 76045
5 | 16:53.71 | 3:50.15 | 76046 | 93310
6 | 20:44.11 | 4:09.52 | 93311 | 112037
7 | 24:53.63 | 3:20.15 | 112038 | 127052
8 | 28:14.03 | 2:01.69 | 127053 | 136196
9 | 30:15.72 | 2:41.30 | 136197 | 148301
10 | 32:57.27 | 4:51.25 | 148302 | 170151
11 | 37:48.52 | 4:48.72 | 170152 | 191823
12 | 42:37.49 | 2:49.25 | 191824 | 204523
13 | 45:26.74 | 3:22.05 | 204524 | 219678
14 | 48:49.04 | 5:40.37 | 219679 | 245215
15 | 54:29.41 | 3:41.17 | 245216 | 261807
16 | 58:10.58 | 2:28.48 | 261808 | 272955
17 | 60:39.31 | 4:13.45 | 272956 | 291975
18 | 64:53.01 | 4:03.25 | 291976 | 310225
19 | 68:56.26 | 3:34.55 | 310226 | 326330


Range status and errors

Selected range

Filename J:\Treasure box\TC_TBOX_CD3\The Cranberries - To The Faithful Departed (The Complete Sessions 1996-1997).wav

Peak level 100.0 %
Range quality 100.0 %
Copy CRC 2E0A9EDE
Copy OK

No errors occurred

End of status report

[CUETools log; Date: 04.04.2013 13:27:06; Version: 2.1.1]
[CTDB TOCID: 5Nyg.1Uxk.AvrdRY1Sm8BW9PViw-] found.
[ CTDBID ] Status
[d1ab12c9] (42/42) Accurately ripped
[AccurateRip ID: 00325dda-02bc9776-2010ff13] found.
Track [ CRC ] Status
01 [5afa393a] (43/61) Accurately ripped
02 [87be7d7e] (43/61) Accurately ripped
03 [d5769d28] (43/61) Accurately ripped
04 [79d15637] (43/61) Accurately ripped
05 [01ae2e7e] (43/61) Accurately ripped
06 [b191afe1] (43/61) Accurately ripped
07 [1e3fc154] (43/61) Accurately ripped
08 [e208689f] (43/61) Accurately ripped
09 [31d9f929] (43/61) Accurately ripped
10 [ef643e3d] (43/60) Accurately ripped
11 [ce188c62] (43/61) Accurately ripped
12 [e63af798] (43/61) Accurately ripped
13 [d3355f65] (43/61) Accurately ripped
14 [b1625213] (43/61) Accurately ripped
15 [85da8bab] (43/61) Accurately ripped
16 [39d6eaae] (43/61) Accurately ripped
17 [ad8dc234] (43/60) Accurately ripped
18 [e00eb9ca] (43/61) Accurately ripped
19 [d71ac365] (43/61) Accurately ripped
Offsetted by -747:
01 [8788fea3] (03/61) Accurately ripped
02 [6d5b6c40] (03/61) Accurately ripped
03 [c1fc72ff] (03/61) Accurately ripped
04 [5dd9e617] (03/61) Accurately ripped
05 [2baa78cb] (03/61) Accurately ripped
06 [067f7132] (03/61) Accurately ripped
07 [75c5b951] (03/61) Accurately ripped
08 [247b6cbd] (03/61) Accurately ripped
09 [6ea06e4e] (03/61) Accurately ripped
10 [9100c2a6] (03/60) Accurately ripped
11 [3abf1531] (03/61) Accurately ripped
12 [e30f8e12] (03/61) Accurately ripped
13 [9aa921a7] (03/61) Accurately ripped
14 [3393f952] (03/61) Accurately ripped
15 [44e4fb43] (03/61) Accurately ripped
16 [0595c764] (03/61) Accurately ripped
17 [9867a776] (03/60) Accurately ripped
18 [c2f199a5] (03/61) Accurately ripped
19 [c73c6c64] (03/61) Accurately ripped
Offsetted by -664:
01 [2bc87d32] (06/61) Accurately ripped
02 [d3c348a2] (06/61) Accurately ripped
03 [35ed9420] (06/61) Accurately ripped
04 [cae09d37] (06/61) Accurately ripped
05 [087d37a6] (06/61) Accurately ripped
06 [13937829] (06/61) Accurately ripped
07 [42a3883e] (06/61) Accurately ripped
08 [30c1876d] (06/61) Accurately ripped
09 [d612b5b1] (06/61) Accurately ripped
10 [240e0945] (06/60) Accurately ripped
11 [47540ec4] (06/61) Accurately ripped
12 [1b6c12ee] (06/61) Accurately ripped
13 [40e05a95] (06/61) Accurately ripped
14 [96e3ca4b] (06/61) Accurately ripped
15 [bde3d26b] (06/61) Accurately ripped
16 [4447aede] (06/61) Accurately ripped
17 [b732ffc4] (06/60) Accurately ripped
18 [ff1147e2] (06/61) Accurately ripped
19 [01e3599d] (06/61) Accurately ripped

Track Peak [ CRC32 ] [W/O NULL] [ LOG ]
– 100,0 [2E0A9EDE] [1E88004F] CRC32
01 100,0 [9D02972A] [731AAB6F]
02 99,9 [4FA0DE62] [CC0E2E55]
03 99,9 [5E31A94F] [65A2907F]
04 99,9 [74613DE9] [E14988E5]
05 97,6 [4AD16F14] [05096A75]
06 99,9 [983B9146] [A866628C]
07 99,9 [B8AC0FC9] [81C10E96]
08 94,7 [2ECC5FD3] [F156DF7F]
09 99,9 [E944C736] [2656B708]
10 99,9 [64D8AD46] [50B8C1C7]
11 99,9 [A08F755D] [27B10745]
12 99,9 [3109FCE3] [6E967CAF]
13 99,9 [21680D4E] [59A04CC4]
14 99,9 [6FB6D8FB] [A7044860]
15 99,9 [B72976DF] [3F017C70]
16 99,9 [0EC8D201] [333A6991]
17 99,9 [E9B6B09D] [55EC9640]
18 96,6 [2E12E219] [BAD3D790]
19 91,3 [DBFA30CD] [9B61A973]

foobar2000 1.2 / Dynamic Range Meter 1.1.1
log date: 2013-04-04 13:39:36

––––––––––––––––––––––––––––––––––––––––
Analyzed: The Cranberries / To The Faithful Departed (The Complete Sessions 1996-1997)
––––––––––––––––––––––––––––––––––––––––

DR Peak RMS Duration Track
––––––––––––––––––––––––––––––––––––––––
DR7 0.00 dB -8.93 dB 5:08 01-Hollywood
DR7 0.00 dB -8.60 dB 2:24 02-Salvation
DR9 0.00 dB -10.40 dB 4:57 03-When You're Gone
DR7 0.00 dB -8.78 dB 4:25 04-Free To Decide
DR9 -0.21 dB -13.16 dB 3:50 05-War Child
DR6 0.00 dB -8.51 dB 4:10 06-Forever Yellow Skies
DR7 0.00 dB -10.16 dB 3:20 07-The Rebels
DR11 -0.47 dB -14.52 dB 2:02 08-Intermission
DR5 0.00 dB -8.01 dB 2:41 09-I Just Shot John Lennon
DR7 0.00 dB -10.17 dB 4:51 10-Electric Blue
DR8 0.00 dB -9.61 dB 4:49 11-I'm Still Remembering
DR10 0.00 dB -11.88 dB 2:49 12-Will You Remember
DR8 0.00 dB -10.31 dB 3:22 13-Joe
DR7 0.00 dB -10.84 dB 5:40 14-Bosnia
DR8 0.00 dB -9.81 dB 3:41 15-Cordell
DR8 0.00 dB -11.09 dB 2:29 16-The Picture I View
DR10 0.00 dB -12.92 dB 4:14 17-Ave Maria
DR5 -0.30 dB -6.57 dB 4:03 18-Go Your Own Way
DR6 -0.79 dB -9.01 dB 3:35 19-God Be With You
––––––––––––––––––––––––––––––––––––––––

Number of tracks: 19
Official DR value: DR8

Samplerate: 44100 Hz
Channels: 2
Bits per sample: 16
Bitrate: 944 kbps
Codec: FLAC
================================================================================




The Cranberries - The Complete Sessions 1991-1999 aka Treasure Box (2002) 4 CD Box Set [Re-Up]

CD4: Bury the Hatchet (1999) The Complete Sessions 1998-1999
EAC | FLAC | Image (Cue&Log) ~ 549 Mb | Mp3 (CBR320) ~ 193 Mb
Label: Island Records | # 586 750-2 | Time: 01:08:42 | Scans included

The Cranberries stumbled with their move toward heavier, politically fueled modern rock on To the Faithful Departed, losing fans enamored with their earlier sound. Like many groups that see their stardom fading, the band decided to return after a short hiatus with a mildly updated, immaculately constructed distillation of everything that earned them an audience in the first place. It's immediately apparent that Bury the Hatchet has retreated from the ludicrous posturing that marred To the Faithful. There are no blasts of distorted guitar – as a matter of fact, there are no songs that even qualify as "rockers" – and there is little preaching, even on Dolores O'Riordan's most earnest songs. Every note and gesture is pitched at the adult alternative mainstream, which is a good thing. Though they ran away from the dreamy jangle of their first hits, The Cranberries never sounded more convincing than on mid-tempo, folky pop tunes with polished productions. Sonically, that's precisely what Bury the Hatchet delivers, complete with little flourishes – a Bacharachian horn chart there, cinematic strings there – to illustrate that the band did indeed know what was hip in the late '90s. All this planning – some might call it calculation – shouldn't come as a surprise, since Bury the Hatchet is essentially a make-or-break album, but what is a surprise is that the end result is the most consistent record of their career. It's not necessarily their best – it lacks the immediate singles of their first two records – but all the songs work together to form a whole; not even embarrassments like the skittering "Copycat" interrupt the flow of the record. True, the album never challenges listeners, but it delivers on their expectations – and after To the Faithful Departed, that comes as a relief.

Review by Stephen Thomas Erlewine, Allmusic.com

Tracklist:

01. Animal Instinct (03:31)
02. Loud And Clear (02:45)
03. Promises (05:27)
04. You And Me (03:35)
05. Just My Imagination (03:41)
06. Shattered (03:42)
07. Desperate Andy (03:44)
08. Saving Grace (03:08)
09. Copycat (02:53)
10. What's On My Mind (03:12)
11. Delilah (03:32)
12. Fee Fi Fo (04:47)
13. Dying In The Sun (03:32)
14. Sorry Son (03:28)
15. Baby Blues (02:38)
16. Sweetest Thing (03:34)
17. Woman Without Pride (02:26)
18. Such A Shame (04:23)
19. Paparazzi On Mopeds (04:33)


Exact Audio Copy V0.99 prebeta 5 from 4. May 2009

EAC extraction logfile from 4. May 2010, 21:38

The Cranberries / Bury The Hatchet (The Complete Sessions 1998-1999)

Used drive : PLEXTOR DVDR PX-810SA Adapter: 2 ID: 1

Read mode : Secure
Utilize accurate stream : Yes
Defeat audio cache : Yes
Make use of C2 pointers : No

Read offset correction : 48
Overread into Lead-In and Lead-Out : No
Fill up missing offset samples with silence : Yes
Delete leading and trailing silent blocks : No
Null samples used in CRC calculations : Yes
Used interface : Installed external ASPI interface

Used output format : Internal WAV Routines
Sample format : 44.100 Hz; 16 Bit; Stereo


TOC of the extracted CD

Track | Start | Length | Start sector | End sector
––––––––––––––––––––––––––––-
1 | 0:00.00 | 3:31.68 | 0 | 15892
2 | 3:31.68 | 2:45.03 | 15893 | 28270
3 | 6:16.71 | 5:27.42 | 28271 | 52837
4 | 11:44.38 | 3:35.40 | 52838 | 69002
5 | 15:20.03 | 3:41.23 | 69003 | 85600
6 | 19:01.26 | 3:42.15 | 85601 | 102265
7 | 22:43.41 | 3:44.32 | 102266 | 119097
8 | 26:27.73 | 3:08.05 | 119098 | 133202
9 | 29:36.03 | 2:53.58 | 133203 | 146235
10 | 32:29.61 | 3:12.47 | 146236 | 160682
11 | 35:42.33 | 3:32.20 | 160683 | 176602
12 | 39:14.53 | 4:47.10 | 176603 | 198137
13 | 44:01.63 | 3:32.25 | 198138 | 214062
14 | 47:34.13 | 3:28.58 | 214063 | 229720
15 | 51:02.71 | 2:38.66 | 229721 | 241636
16 | 53:41.62 | 3:34.32 | 241637 | 257718
17 | 57:16.19 | 2:26.63 | 257719 | 268731
18 | 59:43.07 | 4:23.67 | 268732 | 288523
19 | 64:06.74 | 4:33.69 | 288524 | 309067


Range status and errors

Selected range

Filename J:\Treasure box\TC_TBOX_CD4\The Cranberries - Bury The Hatchet (The Complete Sessions 1998-1999).wav

Peak level 99.9 %
Range quality 99.9 %
Copy CRC 8BA786ED
Copy OK

No errors occurred

End of status report

[CUETools log; Date: 04.04.2013 13:27:40; Version: 2.1.1]
[CTDB TOCID: 5wvyRcYSj6U6AgZRJlfoabbDJCg-] found.
[ CTDBID ] Status
[b3e2afe0] (61/61) Accurately ripped
[AccurateRip ID: 002f42d1-0292b711-1f101813] found.
Track [ CRC ] Status
01 [b544915c] (09/67) Accurately ripped
02 [370134d5] (09/66) Accurately ripped
03 [6d1fa082] (09/65) Accurately ripped
04 [7d539d84] (09/65) Accurately ripped
05 [6bf8ca3c] (09/67) Accurately ripped
06 [a0006c61] (09/65) Accurately ripped
07 [d5c78e08] (09/65) Accurately ripped
08 [7944bad1] (09/65) Accurately ripped
09 [88132d0c] (09/65) Accurately ripped
10 [870a65f0] (10/66) Accurately ripped
11 [d1e38940] (09/65) Accurately ripped
12 [7b4be176] (09/65) Accurately ripped
13 [b678cd18] (10/66) Accurately ripped
14 [967f4c04] (09/65) Accurately ripped
15 [aeb18f99] (09/64) Accurately ripped
16 [b7c5ab5f] (09/64) Accurately ripped
17 [9bbe7fee] (09/64) Accurately ripped
18 [31aedd73] (09/64) Accurately ripped
19 [7fa62995] (08/63) Accurately ripped
Offsetted by -664:
01 [fe313b74] (46/67) Accurately ripped
02 [2ce036ed] (45/66) Accurately ripped
03 [86257522] (44/65) Accurately ripped
04 [6ef57494] (44/65) Accurately ripped
05 [be20211f] (46/67) Accurately ripped
06 [2bcbb7c2] (44/65) Accurately ripped
07 [b74f3a31] (44/65) Accurately ripped
08 [fbaf63ff] (44/65) Accurately ripped
09 [79020105] (44/65) Accurately ripped
10 [a2c5362a] (44/66) Accurately ripped
11 [e189ec42] (44/65) Accurately ripped
12 [091178f2] (44/65) Accurately ripped
13 [5c3fa104] (44/66) Accurately ripped
14 [95489154] (44/65) Accurately ripped
15 [a5ab7609] (43/64) Accurately ripped
16 [36a26b4f] (43/64) Accurately ripped
17 [b61b6906] (43/64) Accurately ripped
18 [36bb84eb] (43/64) Accurately ripped
19 [2331c88d] (43/63) Accurately ripped
Offsetted by -92:
01 [47152a78] (00/67) No match but offset
02 [f4d489f1] (00/66) No match but offset
03 [140f7892] (00/65) No match but offset
04 [8dd7886c] (00/65) No match but offset
05 [b44ee628] (00/67) No match but offset
06 [78ba2041] (00/65) No match but offset
07 [0b3c33fc] (00/65) No match but offset
08 [3c9caf31] (00/65) No match but offset
09 [ce9f51cc] (00/65) No match but offset
10 [25567217] (00/66) No match but offset
11 [b0c51ad4] (00/65) No match but offset
12 [3674f1b1] (00/65) No match but offset
13 [f82ae88e] (00/66) No match but offset
14 [af00f78c] (00/65) No match but offset
15 [91af2c71] (00/64) No match but offset
16 [651bc5f7] (00/64) No match but offset
17 [20f0628a] (00/64) No match but offset
18 [cfaf137f] (00/64) No match but offset
19 [35270061] (00/63) No match but offset

Track Peak [ CRC32 ] [W/O NULL] [ LOG ]
– 99,9 [8BA786ED] [776A302D] CRC32
01 99,9 [625C9F24] [056C868E]
02 99,9 [80862CA1] [58887430]
03 99,9 [A8A652BE] [D97ADE90]
04 99,9 [4E958F0F] [F40E3415]
05 99,9 [0478F9B8] [877E4039]
06 97,7 [6707E42D] [A18D37FB]
07 99,9 [A20F4BF7] [188248AA]
08 99,9 [857E7CA1] [3BC73B52]
09 99,9 [A5C7ABAF] [5DC158E0]
10 99,9 [B8003973] [B775F887]
11 99,9 [23EC0241] [669A341D]
12 99,9 [F80FD358] [8CAE57F7]
13 99,9 [C4D735A5] [146D3BCD]
14 99,9 [AC6A2954] [9DD9A4D1]
15 90,3 [95049A0F] [520D1FFC]
16 89,6 [4E312751] [5FD0B6EE]
17 90,2 [3C883781] [EF1E6EEC]
18 90,3 [8B0579A7] [F26A463D]
19 99,2 [BAB5C616] [E278990F]

foobar2000 1.2 / Dynamic Range Meter 1.1.1
log date: 2013-04-04 13:39:58

––––––––––––––––––––––––––––––––––––––––
Analyzed: The Cranberries / Bury The Hatchet (The Complete Sessions 1998-1999)
––––––––––––––––––––––––––––––––––––––––

DR Peak RMS Duration Track
––––––––––––––––––––––––––––––––––––––––
DR7 0.00 dB -8.31 dB 3:32 01-Animal Instinct
DR7 0.00 dB -8.95 dB 2:45 02-Loud And Clear
DR5 0.00 dB -6.56 dB 5:28 03-Promises
DR8 0.00 dB -9.35 dB 3:36 04-You And Me
DR7 0.00 dB -8.22 dB 3:41 05-Just My Imagination
DR8 -0.20 dB -10.55 dB 3:42 06-Shattered
DR8 0.00 dB -9.10 dB 3:44 07-Desperate Andy
DR7 0.00 dB -9.41 dB 3:08 08-Saving Grace
DR7 0.00 dB -8.66 dB 2:54 09-Copycat
DR9 0.00 dB -11.75 dB 3:13 10-What's On My Mind
DR7 0.00 dB -7.92 dB 3:32 11-Delilah
DR8 0.00 dB -8.93 dB 4:47 12-Fee Fi Fo
DR9 0.00 dB -10.43 dB 3:32 13-Dying In The Sun
DR9 0.00 dB -10.41 dB 3:29 14-Sorry Son
DR6 -0.88 dB -8.65 dB 2:39 15-Baby Blues
DR8 -0.95 dB -9.61 dB 3:34 16-Sweetest Thing
DR7 -0.89 dB -9.34 dB 2:27 17-Woman Without Pride
DR7 -0.89 dB -9.42 dB 4:24 18-Such A Shame
DR6 -0.07 dB -8.69 dB 4:34 19-Paparazzi On Mopeds
––––––––––––––––––––––––––––––––––––––––

Number of tracks: 19
Official DR value: DR7

Samplerate: 44100 Hz
Channels: 2
Bits per sample: 16
Bitrate: 1011 kbps
Codec: FLAC
================================================================================


The Cranberries - The Complete Sessions 1991-1999 aka Treasure Box (2002) 4 CD Box Set [Re-Up]