Tags
Language
Tags

VA - The Definitive Disco Music Collection (Remastered) (2007)

Posted By: Rtax
VA - The Definitive Disco Music Collection (Remastered) (2007)

VA - The Definitive Disco Music Collection (Remastered) (2007)
EAC Rip | FLAC (tracks, cue, log) - 1.4 GB | MP3 CBR 320 kbps - 475 MB
3:24:33 | Soul, Funk, Disco | Label: Music Brokers

In this collection devoted to the immortal sound of Disco Music (the soundtrack for an unforgettable golden age) are all classics of the genre: Good Times by Chic, Ring My Bell by Anita Ward, Never Can Say Goodbye by Gloria Gaynor , That's The Way (I Like It), In The Navy by Village People and forty more hits to make everything a good disco club should be.
As always, the album is made with luxurious artwork, remastered sound and a supreme selection of songs and artists.

Tracklist
CD 1
1. Chic - Good Times (5:32)
2. Anita Ward - Ring My Bell (4:10)
3. The Trammps - Disco Inferno (3:38)
4. Gloria Gaynor - Never Can Say Goodbye (4:09)
5. Leroy Gomez And Santa Esmeralda - Dont Let Me Be Misunderstood (3:41)
6. Kc And The Sunshine Band - Thats The Way (I Like It) (3:05)
7. Gibson Brothers - Que Sera Mi Vida (6 : 44)
8. Boney M - Daddy Cool (3:29)
9. YMCA - Village People (4:46)
10. Ritchie Family - The Best Disco In Town (3:15)
11. Chic - Le Freak (4: 39)
12. Thelma Houston - Dont Leave Me This Way (4:09)
13. Irene Cara - What A Feeling (4:06)
14. Cerrone - Love In C Minor (4:30)
15. Imagination - Just An Illusion (3:53)

CD 2
1. Village People - In The Navy (3:45)
2. Gloria Gaynor And Isaac Hayes - Youre The First My Last My Everything (4:33)
3. Earth Wind And Fire - September (3:16)
4. Foxy - Get Off (5:46)
5. Andrea True Connection - Whats Your Name Whats Your Number (6:33)
6. Shalamar - Take That To The Bank (3:27)
7. Claudja Barry - Sweet Dynamite (4:14)
8. Melba Moore - This Is It (3:31)
9. Silver Convention - Fly Robin Fly (5:24)
10. Cerrone - Supernature (4:29)
11. Heatwave - Boogie Nights (3:48)
12. Boney M - Rivers Of Babylon (4:02)
13. Hamilton Bohannon - Disco Stomp (Part 1) (5:13)
14. Real Thing - Can You Feel The Force (7:36)
15. Volts - Im On Fire (2 : 49)

CD 3
1. Odyssey - Going Back To My Roots (3:54)
2. Clyde Stubblefield - Partys In The Kitchen (8:17)
3. Average White Band - Cut The Cake (4:07)
4. Fatback Band - (Are You Ready) Do The Bus Stop (3:18)
5. One Way - Lets Talk (5:24)
6. Wild Cherry - Play That Funky Music (3:44)
7. The Meters - Look Ka Py Py (3:14 )
8. Joe Cocker - Woman To Woman (4:27)
9. Disco Tex And The Sex O Lettes - Get Dancin (3:52)
10. Double Exposure - My Love Is Free (7:38)
11. Instant Funk - I Got My Mind Made Up (5:17)
12. Joe Tex - Aint Gonna Bump No More (3:30)
13. Joe Bataan - The Bottle (3:36)
14. Jimmy Bo Horne - Gimme Some (5:18 )
15. First Choice - Let Me Down Easy (6:33)
Exact Audio Copy V1.6 from 23. October 2020

EAC extraction logfile from 16. November 2020, 15:01

Various Artists / The Classics

Used drive : ASUS DRW-24D5MT Adapter: 1 ID: 0

Read mode : Secure
Utilize accurate stream : Yes
Defeat audio cache : Yes
Make use of C2 pointers : No

Read offset correction : 6
Overread into Lead-In and Lead-Out : No
Fill up missing offset samples with silence : Yes
Delete leading and trailing silent blocks : No
Null samples used in CRC calculations : Yes
Used interface : Native Win32 interface for Win NT & 2000
Gap handling : Appended to previous track

Used output format : User Defined Encoder
Selected bitrate : 896 kBit/s
Quality : High
Add ID3 tag : No
Command line compressor : C:\Program Files (x86)\Exact Audio Copy\FLAC\FLAC.EXE
Additional command line options : -6 -V -T "ARTIST=%artist%" -T "TITLE=%title%" -T "ALBUM=%albumtitle%" -T "DATE=%year%" -T "TRACKNUMBER=%tracknr%" -T "GENRE=%genre%" -T "COMMENT=%comment%" -T "BAND=%albuminterpret%" -T "ALBUMARTIST=%albuminterpret%" -T "COMPOSER=%composer%" %haslyrics%–tag-from-file=LYRICS="%lyricsfile%"%haslyrics% -T "DISCNUMBER=%cdnumber%" -T "TOTALDISCS=%totalcds%" -T "TOTALTRACKS=%numtracks%" %hascover%–picture="%coverfile%"%hascover% %source% -o %dest%


TOC of the extracted CD

Track | Start | Length | Start sector | End sector
––––––––––––––––––––––––––––-
1 | 0:00.00 | 5:32.01 | 0 | 24900
2 | 5:32.01 | 4:10.57 | 24901 | 43707
3 | 9:42.58 | 3:38.54 | 43708 | 60111
4 | 13:21.37 | 4:09.07 | 60112 | 78793
5 | 17:30.44 | 3:41.62 | 78794 | 95430
6 | 21:12.31 | 3:05.61 | 95431 | 109366
7 | 24:18.17 | 6:44.31 | 109367 | 139697
8 | 31:02.48 | 3:28.72 | 139698 | 155369
9 | 34:31.45 | 4:46.42 | 155370 | 176861
10 | 39:18.12 | 3:15.34 | 176862 | 191520
11 | 42:33.46 | 4:39.66 | 191521 | 212511
12 | 47:13.37 | 4:09.32 | 212512 | 231218
13 | 51:22.69 | 4:06.09 | 231219 | 249677
14 | 55:29.03 | 4:30.51 | 249678 | 269978
15 | 59:59.54 | 3:53.10 | 269979 | 287463


Track 1

Filename F:\EAC Rips\VA - Definitive Disco Music Collection (2007, Music Brokers - MBB 7025, CD)\CD1 - The Classics\01. Chic - Good Times.wav

Pre-gap length 0:00:02.00

Peak level 100.0 %
Extraction speed 4.7 X
Track quality 99.9 %
Test CRC 2EF90736
Copy CRC 2EF90736
Accurately ripped (confidence 4) [A7E5404F] (AR v2)
Copy OK

Track 2

Filename F:\EAC Rips\VA - Definitive Disco Music Collection (2007, Music Brokers - MBB 7025, CD)\CD1 - The Classics\02. Anita Ward - Ring My Bell.wav

Pre-gap length 0:00:03.30

Peak level 100.0 %
Extraction speed 5.4 X
Track quality 100.0 %
Test CRC 62B94DD3
Copy CRC 62B94DD3
Accurately ripped (confidence 4) [1855FDF5] (AR v2)
Copy OK

Track 3

Filename F:\EAC Rips\VA - Definitive Disco Music Collection (2007, Music Brokers - MBB 7025, CD)\CD1 - The Classics\03. The Trammps - Disco Inferno.wav

Pre-gap length 0:00:02.22

Peak level 100.0 %
Extraction speed 5.7 X
Track quality 100.0 %
Test CRC DCBD5D3A
Copy CRC DCBD5D3A
Accurately ripped (confidence 4) [F96B09E6] (AR v2)
Copy OK

Track 4

Filename F:\EAC Rips\VA - Definitive Disco Music Collection (2007, Music Brokers - MBB 7025, CD)\CD1 - The Classics\04. Gloria Gaynor - Never Can Say Goodbye.wav

Pre-gap length 0:00:01.88

Peak level 100.0 %
Extraction speed 6.1 X
Track quality 100.0 %
Test CRC 42BE303B
Copy CRC 42BE303B
Accurately ripped (confidence 4) [320C5F7E] (AR v2)
Copy OK

Track 5

Filename F:\EAC Rips\VA - Definitive Disco Music Collection (2007, Music Brokers - MBB 7025, CD)\CD1 - The Classics\05. Leroy Gomez & Santa Esmeralda - Don’T Let Me Be Misunderstood.wav

Pre-gap length 0:00:03.01

Peak level 100.0 %
Extraction speed 6.3 X
Track quality 100.0 %
Test CRC 9845C7D0
Copy CRC 9845C7D0
Accurately ripped (confidence 4) [1CF911FB] (AR v2)
Copy OK

Track 6

Filename F:\EAC Rips\VA - Definitive Disco Music Collection (2007, Music Brokers - MBB 7025, CD)\CD1 - The Classics\06. KC And The Sunshine Band - That’S The Way (I Like It).wav

Pre-gap length 0:00:01.85

Peak level 100.0 %
Extraction speed 6.4 X
Track quality 100.0 %
Test CRC 832D4EB7
Copy CRC 832D4EB7
Accurately ripped (confidence 4) [C44F8569] (AR v2)
Copy OK

Track 7

Filename F:\EAC Rips\VA - Definitive Disco Music Collection (2007, Music Brokers - MBB 7025, CD)\CD1 - The Classics\07. Gibson Brothers - Que Sera Mi Vida.wav

Pre-gap length 0:00:02.58

Peak level 100.0 %
Extraction speed 7.4 X
Track quality 100.0 %
Test CRC 1D2062B8
Copy CRC 1D2062B8
Accurately ripped (confidence 4) [48E11C3A] (AR v2)
Copy OK

Track 8

Filename F:\EAC Rips\VA - Definitive Disco Music Collection (2007, Music Brokers - MBB 7025, CD)\CD1 - The Classics\08. Boney M. - Daddy Cool.wav

Pre-gap length 0:00:02.45

Peak level 100.0 %
Extraction speed 7.2 X
Track quality 100.0 %
Test CRC 8817266B
Copy CRC 8817266B
Accurately ripped (confidence 4) [2245FE8C] (AR v2)
Copy OK

Track 9

Filename F:\EAC Rips\VA - Definitive Disco Music Collection (2007, Music Brokers - MBB 7025, CD)\CD1 - The Classics\09. Village People - Y.M.C.A..wav

Pre-gap length 0:00:02.42

Peak level 100.0 %
Extraction speed 7.8 X
Track quality 100.0 %
Test CRC 44CD4032
Copy CRC 44CD4032
Accurately ripped (confidence 4) [8AAD53B7] (AR v2)
Copy OK

Track 10

Filename F:\EAC Rips\VA - Definitive Disco Music Collection (2007, Music Brokers - MBB 7025, CD)\CD1 - The Classics\10. The Ritchie Family - The Best Disco In Town.wav

Pre-gap length 0:00:02.41

Peak level 100.0 %
Extraction speed 7.6 X
Track quality 100.0 %
Test CRC C8C4E667
Copy CRC C8C4E667
Accurately ripped (confidence 4) [3FFCE359] (AR v2)
Copy OK

Track 11

Filename F:\EAC Rips\VA - Definitive Disco Music Collection (2007, Music Brokers - MBB 7025, CD)\CD1 - The Classics\11. Chic - Le Freak.wav

Pre-gap length 0:00:01.88

Peak level 100.0 %
Extraction speed 7.4 X
Track quality 99.9 %
Test CRC 5CC2D9B2
Copy CRC 5CC2D9B2
Accurately ripped (confidence 4) [97E367F3] (AR v2)
Copy OK

Track 12

Filename F:\EAC Rips\VA - Definitive Disco Music Collection (2007, Music Brokers - MBB 7025, CD)\CD1 - The Classics\12. Thelma Houston - Don’T Leave Me This Way.wav

Pre-gap length 0:00:02.22

Peak level 100.0 %
Extraction speed 8.4 X
Track quality 100.0 %
Test CRC 9A688DAB
Copy CRC 9A688DAB
Accurately ripped (confidence 4) [223DCA98] (AR v2)
Copy OK

Track 13

Filename F:\EAC Rips\VA - Definitive Disco Music Collection (2007, Music Brokers - MBB 7025, CD)\CD1 - The Classics\13. Irene Cara - What A Feeling.wav

Pre-gap length 0:00:02.38

Peak level 100.0 %
Extraction speed 8.6 X
Track quality 100.0 %
Test CRC D8CE1635
Copy CRC D8CE1635
Accurately ripped (confidence 4) [C74C394A] (AR v2)
Copy OK

Track 14

Filename F:\EAC Rips\VA - Definitive Disco Music Collection (2007, Music Brokers - MBB 7025, CD)\CD1 - The Classics\14. Cerrone - Love In C Minor.wav

Pre-gap length 0:00:02.20

Peak level 100.0 %
Extraction speed 8.9 X
Track quality 100.0 %
Test CRC 9C1FEC17
Copy CRC 9C1FEC17
Accurately ripped (confidence 4) [AC810E3C] (AR v2)
Copy OK

Track 15

Filename F:\EAC Rips\VA - Definitive Disco Music Collection (2007, Music Brokers - MBB 7025, CD)\CD1 - The Classics\15. Imagination - Just An Illusion.wav

Pre-gap length 0:00:01.88

Peak level 100.0 %
Extraction speed 8.8 X
Track quality 100.0 %
Test CRC 547EF0D0
Copy CRC 547EF0D0
Accurately ripped (confidence 3) [9AB6C604] (AR v2)
Copy OK


All tracks accurately ripped

No errors occurred

End of status report

–– AcoustID Plugin V1.2.0

Total fingerprints: 15


–– CUETools DB Plugin V2.1.6

[CTDB TOCID: MEhvKPqc6simMAP_CBTWfHVycN4-] found
Submit result: MEhvKPqc6simMAP_CBTWfHVycN4- has been confirmed
Track | CTDB Status
1 | (13/13) Accurately ripped
2 | (13/13) Accurately ripped
3 | (13/13) Accurately ripped
4 | (13/13) Accurately ripped
5 | (13/13) Accurately ripped
6 | (13/13) Accurately ripped
7 | (13/13) Accurately ripped
8 | (13/13) Accurately ripped
9 | (13/13) Accurately ripped
10 | (13/13) Accurately ripped
11 | (13/13) Accurately ripped
12 | (13/13) Accurately ripped
13 | (13/13) Accurately ripped
14 | (13/13) Accurately ripped
15 | (10/13) Accurately ripped, or (2/13) differs in 162 samples @03:42:60


==== Log checksum 5C33383A6870AFB4BEC79DCEEA61768920757F64ECCA1BA12DEFBC0F231247C4 ====


Exact Audio Copy V1.6 from 23. October 2020

EAC extraction logfile from 16. November 2020, 15:03

Various Artists / Super Hits & Special Flavours

Used drive : TSSTcorpCD/DVDW SH-S182D Adapter: 1 ID: 1

Read mode : Secure
Utilize accurate stream : Yes
Defeat audio cache : Yes
Make use of C2 pointers : No

Read offset correction : 6
Overread into Lead-In and Lead-Out : No
Fill up missing offset samples with silence : Yes
Delete leading and trailing silent blocks : No
Null samples used in CRC calculations : Yes
Used interface : Native Win32 interface for Win NT & 2000
Gap handling : Appended to previous track

Used output format : User Defined Encoder
Selected bitrate : 896 kBit/s
Quality : High
Add ID3 tag : No
Command line compressor : C:\Program Files (x86)\Exact Audio Copy\FLAC\FLAC.EXE
Additional command line options : -6 -V -T "ARTIST=%artist%" -T "TITLE=%title%" -T "ALBUM=%albumtitle%" -T "DATE=%year%" -T "TRACKNUMBER=%tracknr%" -T "GENRE=%genre%" -T "COMMENT=%comment%" -T "BAND=%albuminterpret%" -T "ALBUMARTIST=%albuminterpret%" -T "COMPOSER=%composer%" %haslyrics%–tag-from-file=LYRICS="%lyricsfile%"%haslyrics% -T "DISCNUMBER=%cdnumber%" -T "TOTALDISCS=%totalcds%" -T "TOTALTRACKS=%numtracks%" %hascover%–picture="%coverfile%"%hascover% %source% -o %dest%


TOC of the extracted CD

Track | Start | Length | Start sector | End sector
––––––––––––––––––––––––––––-
1 | 0:00.00 | 3:45.22 | 0 | 16896
2 | 3:45.22 | 4:33.29 | 16897 | 37400
3 | 8:18.51 | 3:16.12 | 37401 | 52112
4 | 11:34.63 | 5:46.34 | 52113 | 78096
5 | 17:21.22 | 6:33.06 | 78097 | 107577
6 | 23:54.28 | 3:27.21 | 107578 | 123123
7 | 27:21.49 | 4:14.24 | 123124 | 142197
8 | 31:35.73 | 3:31.66 | 142198 | 158088
9 | 35:07.64 | 5:24.05 | 158089 | 182393
10 | 40:31.69 | 4:28.72 | 182394 | 202565
11 | 45:00.66 | 3:48.57 | 202566 | 219722
12 | 48:49.48 | 4:02.03 | 219723 | 237875
13 | 52:51.51 | 5:13.28 | 237876 | 261378
14 | 58:05.04 | 7:35.72 | 261379 | 295575
15 | 65:41.01 | 2:49.09 | 295576 | 308259


Track 1

Filename F:\EAC Rips\VA - Definitive Disco Music Collection (2007, Music Brokers - MBB 7025, CD)\CD2 - Super Hits & Special Flavours\01. Village People - In the Navy.wav

Pre-gap length 0:00:02.00

Peak level 100.0 %
Extraction speed 4.8 X
Track quality 100.0 %
Test CRC 100887E0
Copy CRC 100887E0
Accurately ripped (confidence 5) [F570120B] (AR v2)
Copy OK

Track 2

Filename F:\EAC Rips\VA - Definitive Disco Music Collection (2007, Music Brokers - MBB 7025, CD)\CD2 - Super Hits & Special Flavours\02. Gloria Gaynor & Isaac Hayes - You’re the First, the Last, My Everything.wav

Pre-gap length 0:00:01.85

Peak level 100.0 %
Extraction speed 5.4 X
Track quality 100.0 %
Test CRC D6407F72
Copy CRC D6407F72
Accurately ripped (confidence 5) [172D6AE4] (AR v2)
Copy OK

Track 3

Filename F:\EAC Rips\VA - Definitive Disco Music Collection (2007, Music Brokers - MBB 7025, CD)\CD2 - Super Hits & Special Flavours\03. Earth, Wind & Fire - September.wav

Pre-gap length 0:00:02.00

Peak level 100.0 %
Extraction speed 5.5 X
Track quality 100.0 %
Test CRC 154C54CA
Copy CRC 154C54CA
Accurately ripped (confidence 5) [2E76B284] (AR v2)
Copy OK

Track 4

Filename F:\EAC Rips\VA - Definitive Disco Music Collection (2007, Music Brokers - MBB 7025, CD)\CD2 - Super Hits & Special Flavours\04. Foxy - Get Off.wav

Pre-gap length 0:00:02.98

Peak level 100.0 %
Extraction speed 6.3 X
Track quality 100.0 %
Test CRC 92D40053
Copy CRC 92D40053
Accurately ripped (confidence 5) [7E81FC32] (AR v2)
Copy OK

Track 5

Filename F:\EAC Rips\VA - Definitive Disco Music Collection (2007, Music Brokers - MBB 7025, CD)\CD2 - Super Hits & Special Flavours\05. Andrea True Connection - What’s Your Name, What’s Your Number.wav

Pre-gap length 0:00:01.90

Peak level 100.0 %
Extraction speed 6.4 X
Track quality 99.9 %
Test CRC 83599524
Copy CRC 83599524
Accurately ripped (confidence 5) [0371FA55] (AR v2)
Copy OK

Track 6

Filename F:\EAC Rips\VA - Definitive Disco Music Collection (2007, Music Brokers - MBB 7025, CD)\CD2 - Super Hits & Special Flavours\06. Shalamar - Take That to the Bank.wav

Pre-gap length 0:00:01.81

Peak level 100.0 %
Extraction speed 6.7 X
Track quality 100.0 %
Test CRC 7CC641E3
Copy CRC 7CC641E3
Accurately ripped (confidence 5) [78EC8802] (AR v2)
Copy OK

Track 7

Filename F:\EAC Rips\VA - Definitive Disco Music Collection (2007, Music Brokers - MBB 7025, CD)\CD2 - Super Hits & Special Flavours\07. Claudja Barry - Sweet Dynamite.wav

Pre-gap length 0:00:01.85

Peak level 100.0 %
Extraction speed 6.4 X
Track quality 99.9 %
Test CRC C999B8B0
Copy CRC C999B8B0
Accurately ripped (confidence 5) [2E4CAE39] (AR v2)
Copy OK

Track 8

Filename F:\EAC Rips\VA - Definitive Disco Music Collection (2007, Music Brokers - MBB 7025, CD)\CD2 - Super Hits & Special Flavours\08. Melba Moore - This Is It.wav

Pre-gap length 0:00:01.85

Peak level 100.0 %
Extraction speed 7.3 X
Track quality 100.0 %
Test CRC 023AFEB4
Copy CRC 023AFEB4
Accurately ripped (confidence 5) [BA3F51D3] (AR v2)
Copy OK

Track 9

Filename F:\EAC Rips\VA - Definitive Disco Music Collection (2007, Music Brokers - MBB 7025, CD)\CD2 - Super Hits & Special Flavours\09. Silver Convention - Fly, Robin, Fly.wav

Pre-gap length 0:00:01.81

Peak level 100.0 %
Extraction speed 8.0 X
Track quality 100.0 %
Test CRC E59F2B2F
Copy CRC E59F2B2F
Accurately ripped (confidence 5) [CD63D629] (AR v2)
Copy OK

Track 10

Filename F:\EAC Rips\VA - Definitive Disco Music Collection (2007, Music Brokers - MBB 7025, CD)\CD2 - Super Hits & Special Flavours\10. Cerrone - Supernature.wav

Pre-gap length 0:00:01.85

Peak level 100.0 %
Extraction speed 8.1 X
Track quality 100.0 %
Test CRC FBA0A9F7
Copy CRC FBA0A9F7
Accurately ripped (confidence 5) [DD42A0A9] (AR v2)
Copy OK

Track 11

Filename F:\EAC Rips\VA - Definitive Disco Music Collection (2007, Music Brokers - MBB 7025, CD)\CD2 - Super Hits & Special Flavours\11. Heatwave - Boogie Nights.wav

Pre-gap length 0:00:02.22

Peak level 100.0 %
Extraction speed 7.2 X
Track quality 99.9 %
Test CRC 1E7C152A
Copy CRC 1E7C152A
Accurately ripped (confidence 5) [81684F13] (AR v2)
Copy OK

Track 12

Filename F:\EAC Rips\VA - Definitive Disco Music Collection (2007, Music Brokers - MBB 7025, CD)\CD2 - Super Hits & Special Flavours\12. Boney M. - Rivers of Babylon.wav

Pre-gap length 0:00:02.76

Peak level 100.0 %
Extraction speed 7.4 X
Track quality 99.9 %
Test CRC C6D73309
Copy CRC C6D73309
Accurately ripped (confidence 5) [1FAC38C8] (AR v2)
Copy OK

Track 13

Filename F:\EAC Rips\VA - Definitive Disco Music Collection (2007, Music Brokers - MBB 7025, CD)\CD2 - Super Hits & Special Flavours\13. Hamilton Bohannon - Disco Stomp.wav

Pre-gap length 0:00:02.85

Peak level 100.0 %
Extraction speed 8.1 X
Track quality 99.9 %
Test CRC A93A0979
Copy CRC A93A0979
Accurately ripped (confidence 5) [5A77D0EA] (AR v2)
Copy OK

Track 14

Filename F:\EAC Rips\VA - Definitive Disco Music Collection (2007, Music Brokers - MBB 7025, CD)\CD2 - Super Hits & Special Flavours\14. The Real Thing - Can You Feel the Force.wav

Pre-gap length 0:00:01.82

Peak level 100.0 %
Extraction speed 9.4 X
Track quality 100.0 %
Test CRC D316B993
Copy CRC D316B993
Accurately ripped (confidence 4) [78C79FBD] (AR v2)
Copy OK

Track 15

Filename F:\EAC Rips\VA - Definitive Disco Music Collection (2007, Music Brokers - MBB 7025, CD)\CD2 - Super Hits & Special Flavours\15. 5000 Volts - I’m On Fire.wav

Pre-gap length 0:00:01.88

Peak level 100.0 %
Extraction speed 8.6 X
Track quality 100.0 %
Test CRC 10E76EA2
Copy CRC 10E76EA2
Accurately ripped (confidence 4) [73EDD382] (AR v2)
Copy OK


All tracks accurately ripped

No errors occurred

End of status report

–– AcoustID Plugin V1.2.0

Total fingerprints: 15


–– CUETools DB Plugin V2.1.6

[CTDB TOCID: aYtvpUGXlVNit8pHmcTZkEysWfw-] found
Submit result: aYtvpUGXlVNit8pHmcTZkEysWfw- has been confirmed
Track | CTDB Status
1 | (12/12) Accurately ripped
2 | (12/12) Accurately ripped
3 | (12/12) Accurately ripped
4 | (12/12) Accurately ripped
5 | (12/12) Accurately ripped
6 | (12/12) Accurately ripped
7 | (12/12) Accurately ripped
8 | (12/12) Accurately ripped
9 | (12/12) Accurately ripped
10 | (12/12) Accurately ripped
11 | (12/12) Accurately ripped
12 | (12/12) Accurately ripped
13 | (12/12) Accurately ripped
14 | (12/12) Accurately ripped
15 | (12/12) Accurately ripped


==== Log checksum 7BF34DD6B55C4A24D5BEFF8E0CDBD21AC1C6434F76A2826F895DAF65FA93D4B6 ====


Exact Audio Copy V1.6 from 23. October 2020

EAC extraction logfile from 16. November 2020, 15:34

- / Disco Roots (Funky, Philly Sound & Rare Grooves)

Used drive : ASUS DRW-24D5MT Adapter: 1 ID: 0

Read mode : Secure
Utilize accurate stream : Yes
Defeat audio cache : Yes
Make use of C2 pointers : No

Read offset correction : 6
Overread into Lead-In and Lead-Out : No
Fill up missing offset samples with silence : Yes
Delete leading and trailing silent blocks : No
Null samples used in CRC calculations : Yes
Used interface : Native Win32 interface for Win NT & 2000
Gap handling : Appended to previous track

Used output format : User Defined Encoder
Selected bitrate : 896 kBit/s
Quality : High
Add ID3 tag : No
Command line compressor : C:\Program Files (x86)\Exact Audio Copy\FLAC\FLAC.EXE
Additional command line options : -6 -V -T "ARTIST=%artist%" -T "TITLE=%title%" -T "ALBUM=%albumtitle%" -T "DATE=%year%" -T "TRACKNUMBER=%tracknr%" -T "GENRE=%genre%" -T "COMMENT=%comment%" -T "BAND=%albuminterpret%" -T "ALBUMARTIST=%albuminterpret%" -T "COMPOSER=%composer%" %haslyrics%–tag-from-file=LYRICS="%lyricsfile%"%haslyrics% -T "DISCNUMBER=%cdnumber%" -T "TOTALDISCS=%totalcds%" -T "TOTALTRACKS=%numtracks%" %hascover%–picture="%coverfile%"%hascover% %source% -o %dest%


TOC of the extracted CD

Track | Start | Length | Start sector | End sector
––––––––––––––––––––––––––––-
1 | 0:00.00 | 3:54.15 | 0 | 17564
2 | 3:54.15 | 8:17.41 | 17565 | 54880
3 | 12:11.56 | 4:07.10 | 54881 | 73415
4 | 16:18.66 | 3:18.46 | 73416 | 88311
5 | 19:37.37 | 5:24.64 | 88312 | 112675
6 | 25:02.26 | 3:44.45 | 112676 | 129520
7 | 28:46.71 | 3:14.04 | 129521 | 144074
8 | 32:01.00 | 4:27.19 | 144075 | 164118
9 | 36:28.19 | 3:52.22 | 164119 | 181540
10 | 40:20.41 | 7:38.40 | 181541 | 215930
11 | 47:59.06 | 5:17.55 | 215931 | 239760
12 | 53:16.61 | 3:30.31 | 239761 | 255541
13 | 56:47.17 | 3:36.11 | 255542 | 271752
14 | 60:23.28 | 5:18.59 | 271753 | 295661
15 | 65:42.12 | 6:33.60 | 295662 | 325196


Track 1

Filename F:\EAC Rips\VA - Definitive Disco Music Collection (2007, Music Brokers - MBB 7025, CD)\CD3 - Disco Roots (Funky, Philly Sound & Rare Grooves)\01. Odyssey - Going Back To My Roots.wav

Pre-gap length 0:00:02.00

Peak level 100.0 %
Extraction speed 4.8 X
Track quality 100.0 %
Test CRC 6ADFAE55
Copy CRC 6ADFAE55
Accurately ripped (confidence 4) [4EAA298B] (AR v2)
Copy OK

Track 2

Filename F:\EAC Rips\VA - Definitive Disco Music Collection (2007, Music Brokers - MBB 7025, CD)\CD3 - Disco Roots (Funky, Philly Sound & Rare Grooves)\02. Clyde Stubblefield - Party’S In The Kitchen.wav

Pre-gap length 0:00:02.46

Peak level 100.0 %
Extraction speed 5.9 X
Track quality 100.0 %
Test CRC 7F728E54
Copy CRC 7F728E54
Accurately ripped (confidence 5) [7DFFBA8B] (AR v2)
Copy OK

Track 3

Filename F:\EAC Rips\VA - Definitive Disco Music Collection (2007, Music Brokers - MBB 7025, CD)\CD3 - Disco Roots (Funky, Philly Sound & Rare Grooves)\03. Average White Band - Cut The Cake.wav

Pre-gap length 0:00:01.82

Peak level 100.0 %
Extraction speed 6.0 X
Track quality 100.0 %
Test CRC 5E675F67
Copy CRC 5E675F67
Accurately ripped (confidence 4) [9A5E9220] (AR v2)
Copy OK

Track 4

Filename F:\EAC Rips\VA - Definitive Disco Music Collection (2007, Music Brokers - MBB 7025, CD)\CD3 - Disco Roots (Funky, Philly Sound & Rare Grooves)\04. Fatback Band - (Are You Ready) Do The Bus Stop.wav

Pre-gap length 0:00:02.68

Peak level 100.0 %
Extraction speed 6.2 X
Track quality 100.0 %
Test CRC A1D3D3DC
Copy CRC A1D3D3DC
Accurately ripped (confidence 5) [AA132B33] (AR v2)
Copy OK

Track 5

Filename F:\EAC Rips\VA - Definitive Disco Music Collection (2007, Music Brokers - MBB 7025, CD)\CD3 - Disco Roots (Funky, Philly Sound & Rare Grooves)\05. One Way - Let’S Talk.wav

Pre-gap length 0:00:01.92

Peak level 100.0 %
Extraction speed 6.8 X
Track quality 100.0 %
Test CRC 0B238E4A
Copy CRC 0B238E4A
Accurately ripped (confidence 4) [CD0FA439] (AR v2)
Copy OK

Track 6

Filename F:\EAC Rips\VA - Definitive Disco Music Collection (2007, Music Brokers - MBB 7025, CD)\CD3 - Disco Roots (Funky, Philly Sound & Rare Grooves)\06. Wild Cherry - Play That Funky Music.wav

Pre-gap length 0:00:01.92

Peak level 100.0 %
Extraction speed 6.9 X
Track quality 100.0 %
Test CRC 260A6F7C
Copy CRC 260A6F7C
Accurately ripped (confidence 4) [1854A5ED] (AR v2)
Copy OK

Track 7

Filename F:\EAC Rips\VA - Definitive Disco Music Collection (2007, Music Brokers - MBB 7025, CD)\CD3 - Disco Roots (Funky, Philly Sound & Rare Grooves)\07. The Meters - Look-Ka Py Py.wav

Pre-gap length 0:00:02.20

Peak level 100.0 %
Extraction speed 7.0 X
Track quality 100.0 %
Test CRC 5F4BC1CC
Copy CRC 5F4BC1CC
Accurately ripped (confidence 4) [71780EE7] (AR v2)
Copy OK

Track 8

Filename F:\EAC Rips\VA - Definitive Disco Music Collection (2007, Music Brokers - MBB 7025, CD)\CD3 - Disco Roots (Funky, Philly Sound & Rare Grooves)\08. Joe Cocker - Woman To Woman.wav

Pre-gap length 0:00:01.92

Peak level 100.0 %
Extraction speed 6.8 X
Track quality 99.9 %
Test CRC E183D753
Copy CRC E183D753
Accurately ripped (confidence 4) [F40E023B] (AR v2)
Copy OK

Track 9

Filename F:\EAC Rips\VA - Definitive Disco Music Collection (2007, Music Brokers - MBB 7025, CD)\CD3 - Disco Roots (Funky, Philly Sound & Rare Grooves)\09. Disco Tex & The Sex-O-Lettes - Get Dancin’.wav

Pre-gap length 0:00:01.90

Peak level 100.0 %
Extraction speed 7.7 X
Track quality 100.0 %
Test CRC B424767F
Copy CRC B424767F
Accurately ripped (confidence 4) [882A35C3] (AR v2)
Copy OK

Track 10

Filename F:\EAC Rips\VA - Definitive Disco Music Collection (2007, Music Brokers - MBB 7025, CD)\CD3 - Disco Roots (Funky, Philly Sound & Rare Grooves)\10. Double Exposure - My Love Is Free.wav

Pre-gap length 0:00:01.92

Peak level 100.0 %
Extraction speed 8.6 X
Track quality 100.0 %
Test CRC 8B5EA606
Copy CRC 8B5EA606
Accurately ripped (confidence 3) [4C849642] (AR v2)
Copy OK

Track 11

Filename F:\EAC Rips\VA - Definitive Disco Music Collection (2007, Music Brokers - MBB 7025, CD)\CD3 - Disco Roots (Funky, Philly Sound & Rare Grooves)\11. Instant Funk - I Got My Mind Made Up.wav

Pre-gap length 0:00:01.92

Peak level 100.0 %
Extraction speed 7.9 X
Track quality 99.9 %
Test CRC 4F440A5A
Copy CRC 4F440A5A
Accurately ripped (confidence 3) [189B7B87] (AR v2)
Copy OK

Track 12

Filename F:\EAC Rips\VA - Definitive Disco Music Collection (2007, Music Brokers - MBB 7025, CD)\CD3 - Disco Roots (Funky, Philly Sound & Rare Grooves)\12. Joe Tex - Ain’T Gonna Bump No More.wav

Pre-gap length 0:00:01.89

Peak level 100.0 %
Extraction speed 8.5 X
Track quality 100.0 %
Test CRC 09F7A94B
Copy CRC 09F7A94B
Accurately ripped (confidence 3) [645AF19B] (AR v2)
Copy OK

Track 13

Filename F:\EAC Rips\VA - Definitive Disco Music Collection (2007, Music Brokers - MBB 7025, CD)\CD3 - Disco Roots (Funky, Philly Sound & Rare Grooves)\13. Joe Bataan - The Bottle.wav

Pre-gap length 0:00:01.92

Peak level 100.0 %
Extraction speed 7.7 X
Track quality 99.9 %
Test CRC FCF8675B
Copy CRC FCF8675B
Accurately ripped (confidence 4) [0003C018] (AR v2)
Copy OK

Track 14

Filename F:\EAC Rips\VA - Definitive Disco Music Collection (2007, Music Brokers - MBB 7025, CD)\CD3 - Disco Roots (Funky, Philly Sound & Rare Grooves)\14. Jimmy ''Bo'' Horne - Gimme Some.wav

Pre-gap length 0:00:02.57

Peak level 100.0 %
Extraction speed 9.4 X
Track quality 100.0 %
Test CRC 628989B0
Copy CRC 628989B0
Accurately ripped (confidence 3) [21659DC5] (AR v2)
Copy OK

Track 15

Filename F:\EAC Rips\VA - Definitive Disco Music Collection (2007, Music Brokers - MBB 7025, CD)\CD3 - Disco Roots (Funky, Philly Sound & Rare Grooves)\15. First Choice - Let Me Down Easy.wav

Pre-gap length 0:00:02.48

Peak level 100.0 %
Extraction speed 9.7 X
Track quality 100.0 %
Test CRC 68C09FF0
Copy CRC 68C09FF0
Accurately ripped (confidence 3) [5EACA35F] (AR v2)
Copy OK


All tracks accurately ripped

No errors occurred

End of status report

–– AcoustID Plugin V1.2.0

Total fingerprints: 15


–– CUETools DB Plugin V2.1.6

[CTDB TOCID: 3LbxXeaww6mKhe0tnkdU0dCQEIg-] found
Submit result: 3LbxXeaww6mKhe0tnkdU0dCQEIg- has been confirmed
Track | CTDB Status
1 | (11/11) Accurately ripped
2 | (11/11) Accurately ripped
3 | (11/11) Accurately ripped
4 | (11/11) Accurately ripped
5 | (10/11) Accurately ripped
6 | (11/11) Accurately ripped
7 | (11/11) Accurately ripped
8 | (11/11) Accurately ripped
9 | (11/11) Accurately ripped
10 | (11/11) Accurately ripped
11 | (11/11) Accurately ripped
12 | (11/11) Accurately ripped
13 | (11/11) Accurately ripped
14 | (11/11) Accurately ripped
15 | ( 9/11) Accurately ripped


==== Log checksum 110AA6E8E6C902D3BC3B961F4A67EE087C8B1027CD37D500D7B48B368AC6694B ====