Subcategories
Tags
Language
Tags

The Doors - All Hail The American Night! (1995)

Posted By: v3122
The Doors - All Hail The American Night! (1995)

The Doors - All Hail The American Night! (1995)
EAC | Flac(Image) + Cue + Log & MP3 CBR 320Kbps
2CD | Tuff Bites, T.B. 95.1025 | ~ 718 or 327 Mb | Artwork -> 1.03 Mb
Psychedelic Rock / Classic Rock / Blues Rock

~ Recorded live in a Copenhagen TV-Studio on Sept. 17, 1968 + Critique show at PBS TV Studios New York May 23, 1969 + State Fair Music Hall, Dallas, Dec. 11, 1970 + Toronto Pop Festival, Varsity Stadium Toronto, Canada, Sept. 13, 1969 ~

The Doors - All Hail The American Night! (1995):

The Doors - All Hail The American Night! (1995)

Tracklist CD1:

Disk 1:
Alabama Song / Back Door Man
The Wasp (Texas Radio & The Big Beat)
Love Me Two Times
When The Music's Over
Unknown Soldier
Tell All The People
Alabama Song / Back Door Man
Wishful Sinful
Build Me A Woman
The Soft Parade
Doors Interview By Richard Goldstein

Tracks 1-5
Live in Copenhagen TV Studio September 17,1968 unknown TV studio recording
Tracks 6-11
Live for the Critique Show at PBS TV Studios New York,April 29,1969

[CUETools log; Date: 18.06.2021 9:19:10; Version: 2.1.4]
[AccurateRip ID: 0018092d-00d49376-880fa10b] found.
Track [ CRC | V2 ] Status
01 [330d6e04|6c4dabe5] (0+0/2) No match
02 [bda0c472|07877ba2] (0+0/2) No match
03 [4d9954ab|08d6c5b1] (0+0/2) No match
04 [956f3381|d9a5af4d] (0+0/2) No match
05 [52a5ff53|2fac703f] (0+0/2) No match
06 [6e6893eb|c7d86465] (0+0/2) No match
07 [78a5827f|a2978bd3] (0+0/2) No match
08 [595ad6b9|8aaa3cd0] (0+0/2) No match
09 [68ca03a6|d2d1bafc] (0+0/2) No match
10 [c9897642|1ec488a5] (0+0/2) No match
11 [a6aa7bee|e97dd359] (0+0/2) No match
Offsetted by 48:
01 [7f9d9b75] (0/2) No match (V2 was not tested)
02 [ca3af568] (0/2) No match (V2 was not tested)
03 [e2ab0e5e] (0/2) No match (V2 was not tested)
04 [d24ce30a] (0/2) No match (V2 was not tested)
05 [98b052f5] (0/2) No match (V2 was not tested)
06 [a8c32848] (0/2) No match (V2 was not tested)
07 [a3eb1a96] (0/2) No match (V2 was not tested)
08 [865cdc73] (0/2) No match (V2 was not tested)
09 [af52eb91] (0/2) No match (V2 was not tested)
10 [6925bddf] (0/2) No match (V2 was not tested)
11 [184e5d85] (0/2) No match (V2 was not tested)

Track Peak [ CRC32 ] [W/O NULL]
– 100,0 [59C77A6F] [E76F5601]
01 100,0 [E1326596] [F189E664]
02 100,0 [2264CABE] [027BDE3E]
03 100,0 [A879A763] [3B46DAF8]
04 100,0 [CBF51A17] [E5473143]
05 99,9 [0AE04FBD] [8C5EC1E2]
06 100,0 [873DC2EF] [8D6C4A48]
07 100,0 [EC2788FA] [92356096]
08 100,0 [F95AE00D] [25490B9B]
09 100,0 [408BE999] [D4F9EA34]
10 100,0 [797D416F] [25980108]
11 85,8 [D577DD50] [79ABF6F7]


The Doors - All Hail The American Night! (1995)

Tracklist CD2:

Love Her Madly (Live)
Back Door Man (Live)
Ship Of Fools (Live)
The Changeling (Live)
L.A. Woman (Live)
When The Music's Over (Live)
The End (Live)

Tracks 1-7
Live at State Music Hall, Dallas, December 11,1970
This is the last recorded Doors show with Morrison on vocals.

[CUETools log; Date: 18.06.2021 9:19:59; Version: 2.1.4]
[AccurateRip ID: 001103e7-00690bd8-5110eb07] found.
Track [ CRC | V2 ] Status
01 [dbfdaacb|4ac13de7] (0+0/2) No match
02 [ed1a404c|647ddb5b] (0+0/2) No match
03 [40927472|ef482688] (0+0/2) No match
04 [189fc6e6|bab30113] (0+0/2) No match
05 [915058b5|5be6ae67] (0+0/2) No match
06 [c7ba7319|8dd62020] (0+0/2) No match
07 [ab1998a2|426ef71b] (0+0/2) No match
Offsetted by 48:
01 [864184e5] (0/2) No match (V2 was not tested)
02 [697ec7d4] (0/2) No match (V2 was not tested)
03 [0be65d48] (0/2) No match (V2 was not tested)
04 [35d7c8f4] (0/2) No match (V2 was not tested)
05 [ee4b89fb] (0/2) No match (V2 was not tested)
06 [a083a54a] (0/2) No match (V2 was not tested)
07 [002b159c] (0/2) No match (V2 was not tested)

Track Peak [ CRC32 ] [W/O NULL]
– 100,0 [1E2E5AA7] [BE7F29CE]
01 100,0 [02D85207] [548133CC]
02 100,0 [9EC6ECBC] [A1EDC0B8]
03 100,0 [97559194] [8C11C67C]
04 100,0 [1D0BD489] [12629C27]
05 100,0 [C54EDAAA] [D07F1644]
06 100,0 [4590516F] [2E3FF462]
07 100,0 [C26254DB] [1EBB620A]


The Doors - All Hail The American Night! (1995)

All thanks go to the original releaser

The Doors in my Blog

Download The Doors - All Hail The American Night! (1995):