Subcategories
Tags
Language
Tags

The Doors - The Soft Parade (1969) [3 Releases + DVDA]

Posted By: v3122
The Doors - The Soft Parade (1969) [3 Releases + DVDA]

The Doors - The Soft Parade (1969)
EAC | Flac(Image) + Cue + Log & MP3 CBR 320Kbps
3CD | Label: Various | ~ 917 or 340 Mb | Artwork -> 34 Mb
DVDA: ISO, LPCM 2.0, 24/88,2 | SACD-R => DVD | 2.84 Gb
Psychedelic Rock / Classic Rock / Blues Rock

The weakest studio album recorded with Jim Morrison in the group, partially because their experiments with brass and strings on about half the tracks weren't entirely successful. More to the point, though, this was their weakest set of material, low lights including filler like "Do It" and "Runnin' Blue," a strange bluegrass-soul blend that was a small hit. On the other hand, about half the record is quite good, especially the huge hit "Touch Me" (their most successful integration of orchestration), the vicious hard rock riffs of "Wild Child," the overlooked "Shaman's Blues," and the lengthy title track, a multi-part suite that was one of the band's best attempts to mix rock with poetry. "Tell All the People" and "Wishful Sinful," both penned by Robbie Krieger, were uncharacteristically wistful tunes that became small hits but were not all that good, and not sung very convincingly by Morrison.

by Richie Unterberger, allmusic
The Doors - The Soft Parade (1969):

The Doors - The Soft Parade (1969) [3 Releases + DVDA]

Tracklist CD01. 1969 - The Soft Parade [2005, Japan, Warner Music WPCR-75076]:

1. Tell all the people
2. Touch me
3. Shamans blues
4. Do it
5. Easy ride
6. Wild child
7. Runnin blue
8. Wishful sinful
9. The soft parade

Exact Audio Copy V1.0 beta 3 from 29. August 2011

EAC extraction logfile from 30. May 2014, 6:18

The Doors / The Soft Parade (WPCR-75076)

Used drive : PLEXTOR DVDR PX-891SA Adapter: 3 ID: 0

Read mode : Secure
Utilize accurate stream : Yes
Defeat audio cache : Yes
Make use of C2 pointers : No

Read offset correction : 6
Overread into Lead-In and Lead-Out : No
Fill up missing offset samples with silence : Yes
Delete leading and trailing silent blocks : No
Null samples used in CRC calculations : Yes
Used interface : Native Win32 interface for Win NT & 2000

Used output format : User Defined Encoder
Selected bitrate : 1024 kBit/s
Quality : High
Add ID3 tag : No
Command line compressor : C:\Program Files\Exact Audio Copy\Flac\flac.exe
Additional command line options : -V -8 -T "Genre=%genre%" -T "Artist=%artist%" -T "Title=%title%" -T "Album=%albumtitle%" -T "Date=%year%" -T "Tracknumber=%tracknr%" -T "Comment=%comment%" %source%


TOC of the extracted CD

Track | Start | Length | Start sector | End sector
––––––––––––––––––––––––––––-
1 | 0:00.00 | 3:21.45 | 0 | 15119
2 | 3:21.45 | 3:12.30 | 15120 | 29549
3 | 6:34.00 | 4:48.35 | 29550 | 51184
4 | 11:22.35 | 3:09.15 | 51185 | 65374
5 | 14:31.50 | 2:43.15 | 65375 | 77614
6 | 17:14.65 | 2:36.67 | 77615 | 89381
7 | 19:51.57 | 2:27.53 | 89382 | 100459
8 | 22:19.35 | 2:58.27 | 100460 | 113836
9 | 25:17.62 | 8:36.55 | 113837 | 152591


Range status and errors

Selected range

Filename H:\dafnaplus\Doors\1969 The Soft Parade\The Doors - The Soft Parade (WPCR-75076).wav

Peak level 98.9 %
Extraction speed 7.7 X
Range quality 100.0 %
Test CRC 537B0C38
Copy CRC 537B0C38
Copy OK

No errors occurred


AccurateRip summary

Track 1 accurately ripped (confidence 2) [D59C344D] (AR v1)
Track 2 accurately ripped (confidence 2) [F7886885] (AR v1)
Track 3 accurately ripped (confidence 2) [241033EE] (AR v1)
Track 4 accurately ripped (confidence 2) [50DB4D73] (AR v1)
Track 5 accurately ripped (confidence 2) [5C801327] (AR v1)
Track 6 accurately ripped (confidence 2) [B7D71878] (AR v1)
Track 7 accurately ripped (confidence 2) [9160C701] (AR v1)
Track 8 accurately ripped (confidence 2) [11E025A0] (AR v1)
Track 9 accurately ripped (confidence 2) [84EBCF55] (AR v1)

All tracks accurately ripped

End of status report

==== Log checksum DADEB9075653C3DCBFA71B3BFDC6B3119724E76C331E7DBD01B825CB606347B3 ====


[CUETools log; Date: 16.06.2021 11:41:13; Version: 2.1.4]
[AccurateRip ID: 000a9b4c-004dc243-6e07f209] found.
Track [ CRC | V2 ] Status
01 [d59c344d|feb70870] (2+4/6) Accurately ripped
02 [f7886885|fc2ef4a8] (2+4/6) Accurately ripped
03 [241033ee|764297ef] (2+4/6) Accurately ripped
04 [50db4d73|6fd733e3] (2+4/6) Accurately ripped
05 [5c801327|3bb9769c] (2+4/6) Accurately ripped
06 [b7d71878|0496f283] (2+4/6) Accurately ripped
07 [9160c701|a62b4c42] (2+4/6) Accurately ripped
08 [11e025a0|cfe99c22] (2+4/6) Accurately ripped
09 [84ebcf55|34c26050] (2+3/5) Accurately ripped

Track Peak [ CRC32 ] [W/O NULL] [ LOG ]
– 98,9 [537B0C38] [0A4A1A87] CRC32
01 98,9 [975C037B] [43D68AB9]
02 98,9 [2FA235A5] [9EFCC26F]
03 98,9 [B693C5ED] [964D6642]
04 98,9 [0C2ECAC8] [8EEDC546]
05 98,9 [1F58C2D4] [63F7CD4F]
06 98,9 [1CD614B3] [02FA8AE1]
07 98,9 [9B33B2CB] [0A2EB628]
08 98,9 [8CC46C47] [B6D08F65]
09 98,9 [E426975B] [E0ED08AD]


The Doors - The Soft Parade (1969) [3 Releases + DVDA]

Tracklist CD02. 1969 - The Soft Parade [2007, EU, Elektra-Rhino 8122-79998-1]:

1. Tell all the people
2. Touch me
3. Shamans blues
4. Do it
5. Easy ride
6. Wild child
7. Runnin blue
8. Wishful sinful
9. The soft parade
10. Who scared you
11. Whiskey, mystics and men (version 1)
12. Whiskey, mystics and men (version 2)
13. Push push
14. Touch me (dialogue)
15. Touch me (take 3)

Exact Audio Copy V0.99 prebeta 5 from 4. May 2009

Отчёт EAC об извлечении, выполненном 16. августа 2009, 22:28

Doors / The Soft Parade

Дисковод: ATAPI DVD A DH20A4H Adapter: 0 ID: 1

Режим чтения : Достоверность
Использование точного потока : Да
Отключение кэша аудио : Да
Использование указателей C2 : Нет

Коррекция смещения при чтении : 6
Способность читать области Lead-in и Lead-out : Нет
Заполнение пропущенных сэмплов тишиной : Да
Удаление блоков с тишиной в начале и конце : Нет
При вычислениях CRC использовались нулевые сэмплы : Нет
Интерфейс : Встроенный Win32-интерфейс для Win NT/2000

Выходной формат : Пользовательский кодировщик
Выбранный битрейт : 768 kBit/s
Качество : Высокий
Добавление ID3-тэга : Нет
Утилита сжатия : d:\Program Files\Exact Audio Copy\FLAC\FLAC.EXE
Дополнительные параметры : -6 -V -T "ARTIST=%a" -T "TITLE=%t" -T "ALBUM=%g" -T "DATE=%y" -T "TRACKNUMBER=%n" -T "GENRE=%m" -T "COMMENT=%e" %s -o %d


TOC извлечённого CD

Трек | Старт | Длительность | Начальный сектор | Конечный сектор
––––––––––––––––––––––––––––––––––-
1 | 0:00.00 | 3:21.47 | 0 | 15121
2 | 3:21.47 | 3:12.14 | 15122 | 29535
3 | 6:33.61 | 4:50.56 | 29536 | 51341
4 | 11:24.42 | 3:10.32 | 51342 | 65623
5 | 14:34.74 | 2:40.71 | 65624 | 77694
6 | 17:15.70 | 2:38.00 | 77695 | 89544
7 | 19:53.70 | 2:29.56 | 89545 | 100775
8 | 22:23.51 | 3:00.00 | 100776 | 114275
9 | 25:23.51 | 9:41.17 | 114276 | 157867
10 | 35:04.68 | 3:58.54 | 157868 | 175771
11 | 39:03.47 | 2:28.45 | 175772 | 186916
12 | 41:32.17 | 3:04.64 | 186917 | 200780
13 | 44:37.06 | 6:05.56 | 200781 | 228211
14 | 50:42.62 | 0:28.13 | 228212 | 230324
15 | 51:11.00 | 3:40.63 | 230325 | 246887


Характеристики диапазона извлечения и сообщения об ошибках

Выбранный диапазон

Имя файла F:\My Music\The Doors\The Doors - The Soft Parade [40th Anniversary Mixes]\Doors - The Soft Parade.wav

Пиковый уровень 89.0 %
Качество диапазона 100.0 %
CRC копии 7483BAA2
Копирование… OK

Ошибок не произошло


AccurateRip: сводка

Трек 1 точное извлечение (доверие 20) [7513A550]
Трек 2 точное извлечение (доверие 21) [8E5351E0]
Трек 3 точное извлечение (доверие 20) [ECFD12A7]
Трек 4 точное извлечение (доверие 20) [EAF69C29]
Трек 5 точное извлечение (доверие 20) [A04CD5D1]
Трек 6 точное извлечение (доверие 20) [8DA07035]
Трек 7 точное извлечение (доверие 20) [A215C5F8]
Трек 8 точное извлечение (доверие 20) [5695249D]
Трек 9 точное извлечение (доверие 19) [1B3882DB]
Трек 10 точное извлечение (доверие 19) [13FDB45C]
Трек 11 точное извлечение (доверие 19) [ADE9B4F8]
Трек 12 точное извлечение (доверие 19) [A6EA7E2B]
Трек 13 точное извлечение (доверие 19) [0B18E0E8]
Трек 14 точное извлечение (доверие 19) [86890B07]
Трек 15 точное извлечение (доверие 19) [977D2D15]

Все треки извлечены точно

Конец отчёта


[CUETools log; Date: 16.06.2021 10:51:20; Version: 2.1.4]
[AccurateRip ID: 001e11f7-015803f6-d00cdb0f] found.
Track [ CRC | V2 ] Status
01 [7513a550|f7b82578] (063+146/332) Accurately ripped
02 [8e5351e0|181c72d2] (065+149/336) Accurately ripped
03 [ecfd12a7|21c2a636] (064+150/335) Accurately ripped
04 [eaf69c29|dcb450e1] (064+150/336) Accurately ripped
05 [a04cd5d1|eaf60df7] (062+149/334) Accurately ripped
06 [8da07035|58ad77f0] (064+150/335) Accurately ripped
07 [a215c5f8|f5f373c9] (064+150/337) Accurately ripped
08 [5695249d|cec4bbdb] (064+150/337) Accurately ripped
09 [1b3882db|9ec52be0] (063+150/336) Accurately ripped
10 [13fdb45c|599b5cb9] (061+147/331) Accurately ripped
11 [ade9b4f8|6b6535f9] (062+144/328) Accurately ripped
12 [a6ea7e2b|94c947f1] (062+144/326) Accurately ripped
13 [0b18e0e8|56b9585f] (062+142/324) Accurately ripped
14 [86890b07|8a13370f] (062+137/321) Accurately ripped
15 [977d2d15|0ce2c929] (061+139/322) Accurately ripped
Offsetted by -676:
01 [cd43eda2] (002/332) Accurately ripped
02 [d6f10650] (002/336) Accurately ripped
03 [66d9d56e] (002/335) Accurately ripped
04 [f8ebf200] (002/336) Accurately ripped
05 [fbe6da46] (002/334) Accurately ripped
06 [d1f1df39] (002/335) Accurately ripped
07 [696c9192] (002/337) Accurately ripped
08 [d68f67e0] (002/337) Accurately ripped
09 [843d7d07] (002/336) Accurately ripped
10 [68e470d9] (002/331) Accurately ripped
11 [8de1d780] (002/328) Accurately ripped
12 [69b38c8f] (002/326) Accurately ripped
13 [b322c3ba] (002/324) Accurately ripped
14 [b32e047c] (002/321) Accurately ripped
15 [d62f64b7] (002/322) Accurately ripped
Offsetted by -670:
01 [e0a84111] (005/332) Accurately ripped
02 [329c237d] (005/336) Accurately ripped
03 [1d08641c] (005/335) Accurately ripped
04 [2ffb6c99] (005/336) Accurately ripped
05 [a90906c6] (005/334) Accurately ripped
06 [fa1bba20] (005/335) Accurately ripped
07 [d5497e0e] (005/337) Accurately ripped
08 [c8a9de65] (005/337) Accurately ripped
09 [3a39d158] (005/336) Accurately ripped
10 [ad5bfcb8] (005/331) Accurately ripped
11 [498146ed] (005/328) Accurately ripped
12 [57fb5ce2] (005/326) Accurately ripped
13 [a017109c] (005/324) Accurately ripped
14 [a843b7e1] (005/321) Accurately ripped
15 [0f189c37] (005/322) Accurately ripped
Offsetted by -68:
01 [8ef395c2] (002/332) Accurately ripped
02 [7d5561cb] (002/336) Accurately ripped
03 [a2d17aef] (002/335) Accurately ripped
04 [f5197617] (002/336) Accurately ripped
05 [0a67b5a8] (002/334) Accurately ripped
06 [010410c4] (002/335) Accurately ripped
07 [647851df] (002/337) Accurately ripped
08 [a7e388de] (002/337) Accurately ripped
09 [2df4ae3e] (002/336) Accurately ripped
10 [38a13725] (002/331) Accurately ripped
11 [9673e2fe] (002/328) Accurately ripped
12 [2800ed19] (002/326) Accurately ripped
13 [56ed8641] (002/324) Accurately ripped
14 [9880cb94] (002/321) Accurately ripped
15 [2d93aa50] (002/322) Accurately ripped
Offsetted by -12:
01 [5decda28] (004/332) Accurately ripped
02 [36dd6a7f] (004/336) Accurately ripped
03 [cb1daa02] (004/335) Accurately ripped
04 [c3c1a87d] (004/336) Accurately ripped
05 [c2ef2e0f] (004/334) Accurately ripped
06 [32bd0c4d] (004/335) Accurately ripped
07 [7d0aa071] (004/337) Accurately ripped
08 [926a17f9] (004/337) Accurately ripped
09 [8fb1bc3a] (004/336) Accurately ripped
10 [89ff5671] (004/331) Accurately ripped
11 [3217dcba] (004/328) Accurately ripped
12 [9154154a] (004/326) Accurately ripped
13 [6b122a12] (004/324) Accurately ripped
14 [2549f9e1] (004/321) Accurately ripped
15 [0530f955] (004/322) Accurately ripped
Offsetted by -6:
01 [fa000a4d] (030/332) Accurately ripped
02 [38c1349b] (029/336) Accurately ripped
03 [dc0ade54] (029/335) Accurately ripped
04 [d75c2253] (029/336) Accurately ripped
05 [583e5b23] (030/334) Accurately ripped
06 [0951e741] (028/335) Accurately ripped
07 [71df1550] (030/337) Accurately ripped
08 [457ccdff] (029/337) Accurately ripped
09 [47892e3b] (029/336) Accurately ripped
10 [cf9e28aa] (031/331) Accurately ripped
11 [efd14981] (030/328) Accurately ripped
12 [1b9de5de] (030/326) Accurately ripped
13 [3a9e76ac] (029/324) Accurately ripped
14 [36060616] (029/321) Accurately ripped
15 [ce8394f0] (029/322) Accurately ripped
Offsetted by -66:
01 [11ec43e6] (000/332) No match
02 [d33f4fd7] (000/336) No match (V2 was not tested)
03 [a881e1bb] (000/335) No match
04 [a644f409] (000/336) No match
05 [cd21de84] (000/334) No match
06 [f301e91c] (000/335) No match
07 [c9eae219] (000/337) No match
08 [ee81300d] (000/337) No match
09 [dcad9c51] (000/336) No match
10 [95f3105f] (000/331) No match
11 [80cc073c] (000/328) No match
12 [776887f5] (000/326) No match
13 [e6ea8c11] (000/324) No match
14 [6a737b99] (000/321) No match
15 [c83deae1] (000/322) No match
Offsetted by -42:
01 [965fdad9] (000/332) No match (V2 was not tested)
02 [8124cb63] (000/336) No match (V2 was not tested)
03 [83f958eb] (000/335) No match (V2 was not tested)
04 [1850db7a] (000/336) No match (V2 was not tested)
05 [8102c8e6] (000/334) No match (V2 was not tested)
06 [a7a20d1d] (000/335) No match (V2 was not tested)
07 [4f8c6908] (000/337) No match (V2 was not tested)
08 [580e8889] (000/337) No match (V2 was not tested)
09 [d7e64743] (000/336) No match (V2 was not tested)
10 [4af23f0f] (000/331) No match (V2 was not tested)
11 [796bbcfc] (000/328) No match (V2 was not tested)
12 [f7ac664b] (000/326) No match (V2 was not tested)
13 [d0dd526a] (000/324) No match (V2 was not tested)
14 [4dfe8900] (000/321) No match (V2 was not tested)
15 [21bc62c4] (000/322) No match (V2 was not tested)
Offsetted by -30:
01 [c5476b1a] (000/332) No match (V2 was not tested)
02 [de795f71] (000/336) No match (V2 was not tested)
03 [4c676752] (000/335) No match (V2 was not tested)
04 [41805f05] (000/336) No match (V2 was not tested)
05 [f22dbe24] (000/334) No match (V2 was not tested)
06 [0183cd40] (000/335) No match (V2 was not tested)
07 [eb7b0615] (000/337) No match (V2 was not tested)
08 [fc669507] (000/337) No match (V2 was not tested)
09 [47a22b75] (000/336) No match (V2 was not tested)
10 [199cb331] (000/331) No match (V2 was not tested)
11 [f785967e] (000/328) No match (V2 was not tested)
12 [9bcf076f] (000/326) No match (V2 was not tested)
13 [35a80924] (000/324) No match (V2 was not tested)
14 [ef63d4c1] (000/321) No match (V2 was not tested)
15 [49062f2e] (000/322) No match (V2 was not tested)
Offsetted by -18:
01 [4c45aab9] (000/332) No match (V2 was not tested)
02 [3b77a06b] (000/336) No match (V2 was not tested)
03 [5f28d004] (000/335) No match (V2 was not tested)
04 [afa10aad] (000/336) No match (V2 was not tested)
05 [637cb36f] (000/334) No match (V2 was not tested)
06 [ae92834b] (000/335) No match (V2 was not tested)
07 [4cc9efc9] (000/337) No match (V2 was not tested)
08 [dfdd81c1] (000/337) No match (V2 was not tested)
09 [d7d14a3c] (000/336) No match (V2 was not tested)
10 [a2fd6df6] (000/331) No match (V2 was not tested)
11 [75ab6ffa] (000/328) No match (V2 was not tested)
12 [a33a44b1] (000/326) No match (V2 was not tested)
13 [b81dbfe6] (000/324) No match (V2 was not tested)
14 [0b069bbd] (000/321) No match (V2 was not tested)
15 [3b4b5a07] (000/322) No match (V2 was not tested)
Offsetted by 6:
01 [34c87599] (000/332) No match (V2 was not tested)
02 [e2dec8d0] (000/336) No match (V2 was not tested)
03 [fc70fbb1] (000/335) No match
04 [ff905de8] (000/336) No match
05 [ff955080] (000/334) No match
06 [63f8f928] (000/335) No match
07 [9610b272] (000/337) No match (V2 was not tested)
08 [48509b0e] (000/337) No match
09 [eeead77b] (000/336) No match (V2 was not tested)
10 [58634008] (000/331) No match (V2 was not tested)
11 [6b9721be] (000/328) No match
12 [314b4eb9] (000/326) No match
13 [a342a3dd] (000/324) No match (V2 was not tested)
14 [01fb1e74] (000/321) No match (V2 was not tested)
15 [eff0c179] (000/322) No match (V2 was not tested)

Track Peak [ CRC32 ] [W/O NULL] [ LOG ]
– 89,0 [61DD553C] [7483BAA2] W/O NULL
01 89,0 [69CA7986] [F0ACAB75]
02 82,7 [35361380] [06A5959A]
03 83,4 [792814A9] [EE427CDD]
04 82,7 [8F6A91EC] [2FB3160E]
05 87,8 [F6E1A55A] [0316E39C]
06 84,1 [4A13C5E9] [53A3768F]
07 79,7 [1B451FBC] [AA66F6C6]
08 85,9 [372E7D74] [A72CF5DE]
09 83,3 [7E5AFF97] [07464B31]
10 84,6 [CB1FB14F] [B5023808]
11 75,0 [BF6E9977] [2E914457]
12 59,6 [78D817E5] [B51604FE]
13 74,4 [E8ABCA00] [932785E1]
14 33,2 [CD142EA5] [E19D706E]
15 84,8 [9D41A71D] [4C5B7540]


The Doors - The Soft Parade (1969) [3 Releases + DVDA]

Tracklist CD03. 1969 - The Soft Parade [2007, Japan, Warner Music WPCR-12719]:

1. Tell all the people
2. Touch me
3. Shamans blues
4. Do it
5. Easy ride
6. Wild child
7. Runnin blue
8. Wishful sinful
9. The soft parade
10. Who scared you
11. Whiskey, mystics and men (version 1)
12. Whiskey, mystics and men (version 2)
13. Push push
14. Touch me (dialogue)
15. Touch me (take 3)

Exact Audio Copy V0.99 prebeta 4 from 23. January 2008

Отчёт EAC об извлечении, выполненном 21. июня 2009, 15:05

The Doors / The Soft Parade

Дисковод: PLEXTOR DVD-ROM PX-116A2 Adapter: 3 ID: 0

Режим чтения : Достоверность
Использование точного потока : Да
Отключение кэша аудио : Да
Использование указателей C2 : Нет

Коррекция смещения при чтении : 102
Способность читать области Lead-in и Lead-out : Нет
Заполнение пропущенных сэмплов тишиной : Да
Удаление блоков с тишиной в начале и конце : Нет
При вычислениях CRC использовались нулевые сэмплы : Да
Интерфейс : Встроенный Win32-интерфейс для Win NT/2000

Выходной формат : Внутренние WAV-операции
Формат сэмплов : 44.100 Гц; 16 бит; стерео


TOC извлечённого CD

Трек | Старт | Длительность | Начальный сектор | Конечный сектор
––––––––––––––––––––––––––––––––––-
1 | 0:00.00 | 3:22.12 | 0 | 15161
2 | 3:22.12 | 3:13.08 | 15162 | 29644
3 | 6:35.20 | 4:49.58 | 29645 | 51377
4 | 11:25.03 | 3:10.36 | 51378 | 65663
5 | 14:35.39 | 2:40.71 | 65664 | 77734
6 | 17:16.35 | 2:37.68 | 77735 | 89577
7 | 19:54.28 | 2:29.57 | 89578 | 100809
8 | 22:24.10 | 2:59.70 | 100810 | 114304
9 | 25:24.05 | 9:41.25 | 114305 | 157904
10 | 35:05.30 | 3:58.53 | 157905 | 175807
11 | 39:04.08 | 2:28.42 | 175808 | 186949
12 | 41:32.50 | 3:04.65 | 186950 | 200814
13 | 44:37.40 | 6:05.62 | 200815 | 228251
14 | 50:43.27 | 0:28.08 | 228252 | 230359
15 | 51:11.35 | 3:40.68 | 230360 | 246927


Характеристики диапазона извлечения и сообщения об ошибках

Выбранный диапазон

Имя файла C:\1_MUSIC\Lossless\Doors, The - The Soft Parade\The Doors - The Soft Parade.wav

Пиковый уровень 89.0 %
Качество диапазона 100.0 %
CRC копии 9D064DEB
Копирование… OK

Ошибок не произошло


AccurateRip: сводка

Трек 1 нет в базе данных
Трек 2 точное извлечение (доверие 1) [53DB9F63]
Трек 3 точное извлечение (доверие 1) [BFDDDB16]
Трек 4 нет в базе данных
Трек 5 нет в базе данных
Трек 6 точное извлечение (доверие 1) [9C4B48D3]
Трек 7 нет в базе данных
Трек 8 точное извлечение (доверие 1) [5C171D96]
Трек 9 точное извлечение (доверие 1) [8A3398C3]
Трек 10 точное извлечение (доверие 1) [5AEC3D78]
Трек 11 точное извлечение (доверие 1) [713859B8]
Трек 12 точное извлечение (доверие 1) [3A7E61FB]
Трек 13 точное извлечение (доверие 1) [25F78595]
Трек 14 точное извлечение (доверие 1) [A5A316F4]
Трек 15 точное извлечение (доверие 1) [0BDCB25C]

11 трек(и) скопированы точно
4 трек(и) не содержатся в базе AccurateRip

Некоторые треки не прошли проверку на точность

Конец отчёта


[CUETools log; Date: 16.06.2021 10:59:27; Version: 2.1.4]
[AccurateRip ID: 001e145f-015817d2-dc0cdc0f] found.
Track [ CRC | V2 ] Status
01 [a31b8add|6ede5d43] (3+4/7) Accurately ripped
02 [53db9f63|ed7d2b3e] (3+4/7) Accurately ripped
03 [bfdddb16|9002ef7f] (3+4/7) Accurately ripped
04 [142ca44b|4e7220c6] (2+4/6) Accurately ripped
05 [a04cd5d1|eaf60df7] (2+4/6) Accurately ripped
06 [9c4b48d3|fbce8642] (3+4/7) Accurately ripped
07 [cbd86518|f4ef93d4] (2+4/6) Accurately ripped
08 [5c171d96|49b0ca36] (3+4/7) Accurately ripped
09 [8a3398c3|a4cf57a7] (3+4/7) Accurately ripped
10 [5aec3d78|68ba537e] (3+4/7) Accurately ripped
11 [713859b8|7e8644eb] (3+4/7) Accurately ripped
12 [3a7e61fb|9e6f38bb] (3+4/7) Accurately ripped
13 [25f78595|06e600a9] (3+4/7) Accurately ripped
14 [a5a316f4|5e4dbbef] (3+4/7) Accurately ripped
15 [0bdcb25c|ccc38ae2] (3+4/7) Accurately ripped

Track Peak [ CRC32 ] [W/O NULL] [ LOG ]
– 89,0 [9D064DEB] [AD461E4C] CRC32
01 89,0 [19622EFE] [19ECEFAD]
02 82,7 [047C63DA] [07203D0C]
03 83,4 [58E25884] [FDF7848B]
04 82,7 [1D8F964D] [21F2BA99]
05 87,8 [F6E1A55A] [0316E39C]
06 84,1 [CE134F7E] [4CEC4410]
07 79,7 [63111535] [B22F8186]
08 85,9 [A43C6A90] [950A6483]
09 83,3 [B2198888] [A417223B]
10 84,6 [F9B4399F] [9BC217A8]
11 75,0 [79E4FBBF] [8BA7494F]
12 59,6 [EE134812] [51795C76]
13 74,4 [8587E85C] [DE33B02C]
14 33,2 [635AB1AC] [917017FB]
15 84,8 [3FB70A6B] [8357D478]


The Doors - The Soft Parade (1969) [3 Releases + DVDA]

Tracklist DVD:

01. Tell All The People
02. Touch Me
03. Shaman’s Blues
04. Do It
05. Easy Ride
06. Wild Child
07. Runnin’ Blue
08. Wishful Sinful
09. The Soft Parade

General
Complete name : L:\\AUDIO_TS\ATS_01_0.BUP
File size : 4.00 KiB

General
Complete name : L:\\AUDIO_TS\ATS_01_0.IFO
File size : 4.00 KiB

General
Complete name : L:\\AUDIO_TS\ATS_01_1.AOB
Format : MPEG-PS
File size : 1 024 MiB

General
Complete name : L:\\AUDIO_TS\ATS_01_2.AOB
Format : MPEG-PS
File size : 1 024 MiB
Duration : 5s 364ms
Overall bit rate mode : Variable
Overall bit rate : 1 601 Mbps

Audio
ID : 189 (0xBD)-161 (0xA1)
Format : MLP
Muxing mode : DVD-Video
Duration : 5s 364ms
Bit rate mode : Variable
Maximum bit rate : 9 597 Kbps
Channel(s) : 6 channels
Sampling rate : 88.2 KHz
Bit depth : 24 bits

General
Complete name : L:\\AUDIO_TS\ATS_01_3.AOB
Format : MPEG-PS
File size : 766 MiB
Overall bit rate mode : Variable

Audio
ID : 189 (0xBD)-161 (0xA1)
Format : MLP
Muxing mode : DVD-Video
Bit rate mode : Variable
Maximum bit rate : 9 597 Kbps
Channel(s) : 6 channels
Sampling rate : 88.2 KHz
Bit depth : 24 bits

General
Complete name : L:\\AUDIO_TS\AUDIO_PP.IFO
File size : 128 KiB

General
Complete name : L:\\AUDIO_TS\AUDIO_SV.BUP
File size : 4.00 KiB

General
Complete name : L:\\AUDIO_TS\AUDIO_SV.IFO
File size : 4.00 KiB

General
Complete name : L:\\AUDIO_TS\AUDIO_SV.VOB
Format : MPEG-PS
File size : 3.06 MiB
Duration : 33ms
Overall bit rate mode : Variable
Overall bit rate : 777 Mbps

Video
ID : 224 (0xE0)
Format : MPEG Video
Format version : Version 2
Format profile : Main@Main
Format settings, BVOP : No
Format settings, Matrix : Custom
Format settings, GOP : N=1
Duration : 33ms
Bit rate mode : Variable
Maximum bit rate : 4 587 Kbps
Width : 720 pixels
Height : 480 pixels
Display aspect ratio : 4:3
Frame rate : 29.970 fps
Standard : NTSC
Color space : YUV
Chroma subsampling : 4:2:0
Bit depth : 8 bits
Scan type : Progressive
Compression mode : Lossy
Color primaries : BT.601 NTSC
Transfer characteristics : BT.601
Matrix coefficients : BT.601

Text
ID : 189 (0xBD)-32 (0x20)
Format : RLE
Format/Info : Run-length encoding
Muxing mode : DVD-Video

Menu

General
Complete name : L:\\AUDIO_TS\AUDIO_TS.BUP
File size : 8.00 KiB

General
Complete name : L:\\AUDIO_TS\AUDIO_TS.IFO
File size : 8.00 KiB

General
Complete name : L:\\AUDIO_TS\AUDIO_TS.VOB
Format : MPEG-PS
File size : 348 KiB
Duration : 33ms
Overall bit rate mode : Variable
Overall bit rate : 86.4 Mbps

Video
ID : 224 (0xE0)
Format : MPEG Video
Format version : Version 2
Format profile : Main@Main
Format settings, BVOP : No
Format settings, Matrix : Custom
Duration : 33ms
Bit rate mode : Variable
Maximum bit rate : 4 587 Kbps
Width : 720 pixels
Height : 480 pixels
Display aspect ratio : 4:3
Frame rate : 29.970 fps
Standard : NTSC
Color space : YUV
Chroma subsampling : 4:2:0
Bit depth : 8 bits
Scan type : Progressive
Compression mode : Lossy
Color primaries : BT.601 NTSC
Transfer characteristics : BT.601
Matrix coefficients : BT.601

Text
ID : 189 (0xBD)-32 (0x20)
Format : RLE
Format/Info : Run-length encoding
Muxing mode : DVD-Video

Menu



All thanks go to the original releasers

The Doors in my Blog

Download The Doors - The Soft Parade (1969):