Tags
Language
Tags

The Doors - Waiting For The Sun (1968) [4 Releases + DVDA]

Posted By:
The Doors - Waiting For The Sun (1968) [4 Releases + DVDA]

The Doors - Waiting For The Sun (1968)
EAC | Flac(Image) + Cue + Log & MP3 CBR 320Kbps
4CD | Label: Various | ~ 1247 or 463 Mb | Artwork -> 44 Mb
DVDA: ISO, LPCM 2.0, 24/88,2 | SACD-R => DVD | 2.69 Gb
Psychedelic Rock / Classic Rock / Blues Rock

The Doors' 1967 albums had raised expectations so high that their third effort was greeted as a major disappointment. With a few exceptions, the material was much mellower, and while this yielded some fine melodic ballad rock in "Love Street," "Wintertime Love," "Summer's Almost Gone," and "Yes, the River Knows," there was no denying that the songwriting was not as impressive as it had been on the first two records. On the other hand, there were first-rate tunes such as the spooky "The Unknown Soldier," with antiwar lyrics as uncompromisingly forceful as anything the band did, and the compulsively riff-driven "Hello, I Love You," which nonetheless bore an uncomfortably close resemblance to the Kinks' "All Day and All of the Night." The flamenco guitar of "Spanish Caravan," the all-out weirdness of "Not to Touch the Earth" (which was a snippet of a legendary abandoned opus, "The Celebration of the Lizard"), and the menacing closer "Five to One" were also interesting. In fact, time's been fairly kind to the record, which is quite enjoyable and diverse, just not as powerful a full-length statement as the group's best albums.

by Richie Unterberger, allmusic
The Doors - Waiting For The Sun (1968):

The Doors - Waiting For The Sun (1968) [4 Releases + DVDA]

Tracklist CD01. 1968 - Waiting For The Sun [1985, West Germany, Elektra Asylum 9 74024-2]:

1. Hello, I love you
2. Love street
3. Not to touch the earth
4. Summers almost gone
5. Wintertime love
6. The unknown soldier
7. Spanish caravan
8. My wild love
9. We could be so good together
10. Yes the river knows
11. Five to one

Exact Audio Copy V1.0 beta 2 from 29. April 2011

Отчёт EAC об извлечении, выполненном 24. октября 2012, 13:59

The Doors / Waiting for the Sun

Дисковод: MATSHITADVD-RAM UJ8B1AS Adapter: 0 ID: 1

Режим чтения : Достоверность
Использование точного потока : Да
Отключение кэша аудио : Да
Использование указателей C2 : Нет

Коррекция смещения при чтении : 6
Способность читать области Lead-in и Lead-out : Нет
Заполнение пропущенных сэмплов тишиной : Да
Удаление блоков с тишиной в начале и конце : Нет
При вычислениях CRC использовались нулевые сэмплы : Нет
Интерфейс : Встроенный Win32-интерфейс для Win NT/2000

Выходной формат : Пользовательский кодировщик
Выбранный битрейт : 768 kBit/s
Качество : Высокий
Добавление ID3-тега : Нет
Утилита сжатия : C:\Program Files (x86)\Exact Audio Copy\FLAC\FLAC.EXE
Дополнительные параметры : -6 -V -T "ARTIST=%artist%" -T "TITLE=%title%" -T "ALBUM=%albumtitle%" -T "DATE=%year%" -T "TRACKNUMBER=%tracknr%" -T "GENRE=%genre%" -T "COMMENT=%comment%" -T "BAND=%albuminterpret%" -T "COMPOSER=%composer%" %haslyrics%–tag-from-


TOC извлечённого CD

Трек | Старт | Длительность | Начальный сектор | Конечный сектор
––––––––––––––––––––––––––––––––––-
1 | 0:00.33 | 2:16.10 | 33 | 10242
2 | 2:16.43 | 2:50.47 | 10243 | 23039
3 | 5:07.15 | 3:55.38 | 23040 | 40702
4 | 9:02.53 | 3:21.22 | 40703 | 55799
5 | 12:24.00 | 1:53.73 | 55800 | 64347
6 | 14:17.73 | 3:23.22 | 64348 | 79594
7 | 17:41.20 | 2:59.55 | 79595 | 93074
8 | 20:41.00 | 2:52.00 | 93075 | 105974
9 | 23:33.00 | 2:09.43 | 105975 | 115692
10 | 25:42.43 | 2:38.10 | 115693 | 127552
11 | 28:20.53 | 4:25.40 | 127553 | 147467


Характеристики диапазона извлечения и сообщения об ошибках

Выбранный диапазон

Имя файла D:\The Doors\Waiting For The Sun Electra PDO\The Doors - Waiting for the Sun.wav

Пиковый уровень 91.3 %
Скорость извлечения 1.7 X
Качество диапазона 100.0 %
CRC копии AC0D000B
Копирование… OK

Ошибок не произошло


AccurateRip: сводка

Трек 1 : извлечено точно (доверие 2) [A59A7FBF] (AR v2)
Трек 2 : извлечено точно (доверие 2) [C2139F4F] (AR v2)
Трек 3 : извлечено точно (доверие 2) [5FB1CF35] (AR v2)
Трек 4 : извлечено точно (доверие 2) [63E4F767] (AR v2)
Трек 5 : извлечено точно (доверие 2) [542B353C] (AR v2)
Трек 6 : извлечено точно (доверие 2) [4476DDFC] (AR v2)
Трек 7 : извлечено точно (доверие 2) [27B430E6] (AR v2)
Трек 8 : извлечено точно (доверие 2) [093F210A] (AR v2)
Трек 9 : извлечено точно (доверие 2) [0E4F84FA] (AR v2)
Трек 10 : извлечено точно (доверие 2) [BA71A4F1] (AR v2)
Трек 11 : извлечено точно (доверие 2) [4A745AB5] (AR v2)

Все треки извлечены точно

Конец отчёта

==== Контрольная сумма отчёта 2C9444C69753E6FEE077AED3D1E2E90421BFEF7A254239F9CBEDDDA6416F4402 ====


[CUETools log; Date: 31.05.2021 18:04:11; Version: 2.1.4]
Pregap length 00:00:33.
[AccurateRip ID: 000d2d26-00727b74-8507ae0b] found.
Track [ CRC | V2 ] Status
01 [87e979a4|a59a7fbf] (039+061/100) Accurately ripped
02 [0162e57e|c2139f4f] (040+061/101) Accurately ripped
03 [bbebe67a|5fb1cf35] (040+061/101) Accurately ripped
04 [2d03d8d4|63e4f767] (040+061/101) Accurately ripped
05 [b92953d8|542b353c] (039+062/101) Accurately ripped
06 [be7967f8|4476ddfc] (041+061/102) Accurately ripped
07 [368bc98f|27b430e6] (041+061/102) Accurately ripped
08 [ef2d5a54|093f210a] (041+061/102) Accurately ripped
09 [1e61baef|0e4f84fa] (041+061/102) Accurately ripped
10 [027d686c|ba71a4f1] (040+061/101) Accurately ripped
11 [16e907bf|4a745ab5] (040+062/102) Accurately ripped

Track Peak [ CRC32 ] [W/O NULL] [ LOG ]
– 91,3 [2D93AF6C] [AC0D000B] W/O NULL
01 86,2 [907C769E] [45116176]
02 89,5 [1611CD00] [64175966]
03 91,3 [392621E2] [9B60900C]
04 84,6 [62E35994] [C19BE1E8]
05 87,4 [73368903] [47371F3E]
06 89,2 [073C588E] [B1C9854C]
07 86,9 [E0B65BB6] [697E7B7C]
08 90,9 [9CE877FB] [EA8C901A]
09 89,2 [CC75A8AD] [D9A87FAF]
10 85,0 [41D1803B] [C8EF5549]
11 91,1 [B98A7A52] [3E2AF28F]


The Doors - Waiting For The Sun (1968) [4 Releases + DVDA]

Tracklist CD02. 1968 - Waiting For The Sun [1989, US, Elektra 9 74024-2]:

1. Hello, I love you
2. Love street
3. Not to touch the earth
4. Summers almost gone
5. Wintertime love
6. The unknown soldier
7. Spanish caravan
8. My wild love
9. We could be so good together
10. Yes the river knows
11. Five to one

Exact Audio Copy V0.99 prebeta 5 from 4. May 2009

Отчёт EAC об извлечении, выполненном 5. апреля 2010, 20:08

The Doors / Waiting For The Sun

Дисковод: Optiarc DVD RW AD-7200S Adapter: 2 ID: 0

Режим чтения : Достоверность
Использование точного потока : Да
Отключение кэша аудио : Да
Использование указателей C2 : Нет

Коррекция смещения при чтении : 48
Способность читать области Lead-in и Lead-out : Нет
Заполнение пропущенных сэмплов тишиной : Да
Удаление блоков с тишиной в начале и конце : Нет
При вычислениях CRC использовались нулевые сэмплы : Да
Интерфейс : Установленный внешний ASPI-интерфейс

Выходной формат : Внутренние WAV-операции
Формат сэмплов : 44.100 Гц; 16 бит; стерео


TOC извлечённого CD

Трек | Старт | Длительность | Начальный сектор | Конечный сектор
––––––––––––––––––––––––––––––––––-
1 | 0:00.33 | 2:16.20 | 33 | 10252
2 | 2:16.53 | 2:51.72 | 10253 | 23149
3 | 5:08.50 | 3:55.03 | 23150 | 40777
4 | 9:03.53 | 3:22.07 | 40778 | 55934
5 | 12:25.60 | 1:54.55 | 55935 | 64539
6 | 14:20.40 | 3:25.30 | 64540 | 79944
7 | 17:45.70 | 3:00.05 | 79945 | 93449
8 | 20:46.00 | 3:01.35 | 93450 | 107059
9 | 23:47.35 | 2:24.35 | 107060 | 117894
10 | 26:11.70 | 2:36.18 | 117895 | 129612
11 | 28:48.13 | 4:24.55 | 129613 | 149467


Характеристики диапазона извлечения и сообщения об ошибках

Выбранный диапазон

Имя файла E:\МОИ РАЗДАЧИ\The Doors - Waiting For The Sun 1968\The Doors - Waiting For The Sun.wav

Пиковый уровень 92.5 %
Качество диапазона 99.9 %
CRC копии 51D6E581
Копирование… OK

Ошибок не произошло


AccurateRip: сводка

Трек 1 точное извлечение (доверие 35) [4CC44646]
Трек 2 точное извлечение (доверие 34) [ECED89F6]
Трек 3 точное извлечение (доверие 35) [EE7E4176]
Трек 4 точное извлечение (доверие 35) [7A989FDF]
Трек 5 точное извлечение (доверие 37) [545C8170]
Трек 6 точное извлечение (доверие 35) [52178EC4]
Трек 7 точное извлечение (доверие 36) [A0B32ED2]
Трек 8 точное извлечение (доверие 35) [2DD35B40]
Трек 9 точное извлечение (доверие 36) [14C5F700]
Трек 10 точное извлечение (доверие 35) [84606078]
Трек 11 точное извлечение (доверие 33) [AFE583AB]

Все треки извлечены точно

Конец отчёта


[CUETools log; Date: 31.05.2021 18:00:10; Version: 2.1.4]
Pregap length 00:00:33.
[AccurateRip ID: 000d4eb8-0073ccd8-8a07c80b] found.
Track [ CRC | V2 ] Status
01 [4cc44646|edbd5ae8] (050+061/569) Accurately ripped
02 [eced89f6|d5596059] (050+061/578) Accurately ripped
03 [ee7e4176|ddd79304] (051+061/575) Accurately ripped
04 [7a989fdf|c7a7db26] (050+062/573) Accurately ripped
05 [545c8170|6453ff68] (053+063/584) Accurately ripped
06 [52178ec4|9b3fdc43] (051+061/579) Accurately ripped
07 [a0b32ed2|0768fd88] (052+062/583) Accurately ripped
08 [2dd35b40|1da43c26] (051+062/578) Accurately ripped
09 [14c5f700|d9111001] (052+060/577) Accurately ripped
10 [84606078|6ff5d22a] (051+058/576) Accurately ripped
11 [afe583ab|5b861d5b] (049+059/566) Accurately ripped
Offsetted by 124:
01 [3e8fe4f2] (009/569) Accurately ripped
02 [4e51471e] (011/578) Accurately ripped
03 [136eb24a] (011/575) Accurately ripped
04 [73f91c6b] (011/573) Accurately ripped
05 [f7b0383c] (011/584) Accurately ripped
06 [04e04858] (011/579) Accurately ripped
07 [9932753e] (011/583) Accurately ripped
08 [d9eb5b40] (011/578) Accurately ripped
09 [3a7df700] (011/577) Accurately ripped
10 [44646078] (011/576) Accurately ripped
11 [9f0a5abb] (011/566) Accurately ripped
Offsetted by 352:
01 [3d37d726] (060/569) Accurately ripped
02 [a68ccc36] (061/578) Accurately ripped
03 [996adc96] (059/575) Accurately ripped
04 [46c34bbf] (059/573) Accurately ripped
05 [6e526750] (060/584) Accurately ripped
06 [ea82e7e4] (060/579) Accurately ripped
07 [0f87d5b2] (061/583) Accurately ripped
08 [fd935b40] (059/578) Accurately ripped
09 [3585f700] (058/577) Accurately ripped
10 [d7006078] (060/576) Accurately ripped
11 [6f87e62b] (057/566) Accurately ripped
Offsetted by -1899:
01 [3d035adf] (000/569) No match (V2 was not tested)
02 [db8489a4] (000/578) No match (V2 was not tested)
03 [e0033f7d] (000/575) No match (V2 was not tested)
04 [6c69b0a0] (000/573) No match (V2 was not tested)
05 [53375e61] (000/584) No match (V2 was not tested)
06 [8542f8db] (000/579) No match (V2 was not tested)
07 [220dc4bb] (000/583) No match (V2 was not tested)
08 [8b955b40] (000/578) No match (V2 was not tested)
09 [cefff700] (000/577) No match (V2 was not tested)
10 [b52b6078] (000/576) No match (V2 was not tested)
11 [41caa617] (000/566) No match (V2 was not tested)
Offsetted by -1232:
01 [032fcb36] (086/569) Accurately ripped
02 [e3402216] (087/578) Accurately ripped
03 [98422286] (088/575) Accurately ripped
04 [3003464f] (000/573) No match (V2 was not tested)
05 [797fdce0] (088/584) Accurately ripped
06 [bc9fd6d4] (089/579) Accurately ripped
07 [1ccae6c2] (089/583) Accurately ripped
08 [56b35b40] (089/578) Accurately ripped
09 [2225f700] (090/577) Accurately ripped
10 [63306078] (090/576) Accurately ripped
11 [77de2aeb] (084/566) Accurately ripped
Offsetted by -49:
01 [757a0161] (009/569) Accurately ripped
02 [db16a460] (009/578) Accurately ripped
03 [a827803b] (009/575) Accurately ripped
04 [f91597f2] (000/573) No match (V2 was not tested)
05 [fd1c7513] (010/584) Accurately ripped
06 [3f0e6eb9] (009/579) Accurately ripped
07 [742e4edd] (009/583) Accurately ripped
08 [06b95b40] (010/578) Accurately ripped
09 [5c93f700] (009/577) Accurately ripped
10 [feb16078] (010/576) Accurately ripped
11 [747e2eaf] (010/566) Accurately ripped
Offsetted by 6:
01 [ab0c1004] (000/569) No match (V2 was not tested)
02 [c01786ba] (000/578) No match (V2 was not tested)
03 [c2dc7878] (000/575) No match (V2 was not tested)
04 [50fc42cd] (000/573) No match (V2 was not tested)
05 [792ae0fe] (000/584) No match (V2 was not tested)
06 [5edf34a6] (000/579) No match (V2 was not tested)
07 [c57f88f0] (000/583) No match (V2 was not tested)
08 [572f5b40] (000/578) No match (V2 was not tested)
09 [79b1f700] (000/577) No match (V2 was not tested)
10 [4b9a6078] (000/576) No match (V2 was not tested)
11 [1a6f8e13] (000/566) No match (V2 was not tested)

Track Peak [ CRC32 ] [W/O NULL] [ LOG ]
– 92,5 [51D6E581] [F0CF6C35] CRC32
01 73,5 [38A381A7] [81E34896]
02 79,0 [960B0FB7] [5A3B844B]
03 80,7 [D1D6500A] [B0F491C3]
04 80,7 [B1534F98] [F5BCFE62]
05 70,3 [BA104C4E] [F1839A8A]
06 81,0 [85B49E57] [FDF580E2]
07 83,3 [09719B08] [DEFF8EC0]
08 77,8 [E5DC9388] [469E3AF7]
09 92,5 [41344755] [EC0A11A6]
10 73,3 [DE2ED6E1] [0A6628F6]
11 84,6 [A4C90A53] [DCD2128B]


The Doors - Waiting For The Sun (1968) [4 Releases + DVDA]

Tracklist CD03. 1968 - Waiting For The Sun [2007, EU, Elektra-Rhino 8122-79998-0]:

1. Hello, I love you
2. Love street
3. Not to touch the earth
4. Summers almost gone
5. Wintertime love
6. The unknown soldier
7. Spanish caravan
8. My wild love
9. We could be so good together
10. Yes the river knows
11. Five to one
12. Albinoni's adagio in G minor
13. Not to touch the earth (dialogue)
14. Not to touch the earth (take 1)
15. Not to touch the earth (take 2)
16. Celebration of the Lizard (an experiment, work in progress)

Exact Audio Copy V0.99 prebeta 4 from 23. January 2008

Отчёт EAC об извлечении, выполненном 9. июля 2009, 12:35

The Doors / Waiting For The Sun [40Th Anniversary Rhino Remaster]

Дисковод: Optiarc DVD RW AD-7173A Adapter: 0 ID: 0

Режим чтения : Достоверность
Использование точного потока : Да
Отключение кэша аудио : Да
Использование указателей C2 : Нет

Коррекция смещения при чтении : 48
Способность читать области Lead-in и Lead-out : Нет
Заполнение пропущенных сэмплов тишиной : Да
Удаление блоков с тишиной в начале и конце : Нет
При вычислениях CRC использовались нулевые сэмплы : Нет
Интерфейс : Установленный внешний ASPI-интерфейс

Выходной формат : Пользовательский кодировщик
Выбранный битрейт : 768 kBit/s
Качество : Высокий
Добавление ID3-тэга : Нет
Утилита сжатия : D:\Program Files\FLAC\flac.exe
Дополнительные параметры : -6 -V -T "ARTIST=%a" -T "TITLE=%t" -T "ALBUM=%g" -T "DATE=%y" -T "TRACKNUMBER=%n" -T "GENRE=%m" -T "COMMENT=%e" %s -o %d


TOC извлечённого CD

Трек | Старт | Длительность | Начальный сектор | Конечный сектор
––––––––––––––––––––––––––––––––––-
1 | 0:00.00 | 2:40.34 | 0 | 12033
2 | 2:40.34 | 2:56.61 | 12034 | 25294
3 | 5:37.20 | 4:00.38 | 25295 | 43332
4 | 9:37.58 | 3:22.72 | 43333 | 58554
5 | 13:00.55 | 1:56.45 | 58555 | 67299
6 | 14:57.25 | 3:26.72 | 67300 | 82821
7 | 18:24.22 | 3:02.36 | 82822 | 96507
8 | 21:26.58 | 3:01.07 | 96508 | 110089
9 | 24:27.65 | 2:23.57 | 110090 | 120871
10 | 26:51.47 | 2:42.32 | 120872 | 133053
11 | 29:34.04 | 4:33.35 | 133054 | 153563
12 | 34:07.39 | 4:32.35 | 153564 | 173998
13 | 38:39.74 | 0:43.34 | 173999 | 177257
14 | 39:23.33 | 3:59.37 | 177258 | 195219
15 | 43:22.70 | 4:17.48 | 195220 | 214542
16 | 47:40.43 | 17:09.33 | 214543 | 291750


Характеристики диапазона извлечения и сообщения об ошибках

Выбранный диапазон

Имя файла F:\Documents and Settings\Aleksandr\My Documents\My Music\The Doors\The Doors - Waiting For The Sun [40Th Anniversary Mixes]\The Doors - Waiting For The Sun [40Th Anniversary Rhino Remaster].wav

Пиковый уровень 100.0 %
Качество диапазона 100.0 %
CRC копии 0E343A16
Копирование… OK

Ошибок не произошло


AccurateRip: сводка

Трек 1 точное извлечение (доверие 23) [27919C87]
Трек 2 точное извлечение (доверие 23) [6B0FEE33]
Трек 3 точное извлечение (доверие 22) [B023C21D]
Трек 4 точное извлечение (доверие 22) [CB68A623]
Трек 5 точное извлечение (доверие 22) [6F5C3480]
Трек 6 точное извлечение (доверие 23) [FE11894B]
Трек 7 точное извлечение (доверие 23) [BB0D604D]
Трек 8 точное извлечение (доверие 22) [4CA5E95A]
Трек 9 точное извлечение (доверие 22) [DC9DC425]
Трек 10 точное извлечение (доверие 22) [E7734ABA]
Трек 11 точное извлечение (доверие 23) [BD83AC56]
Трек 12 точное извлечение (доверие 21) [131126A0]
Трек 13 точное извлечение (доверие 21) [600F0656]
Трек 14 точное извлечение (доверие 21) [501A6507]
Трек 15 точное извлечение (доверие 21) [F4926AF0]
Трек 16 точное извлечение (доверие 21) [BDE18AEE]

Все треки извлечены точно

Конец отчёта


[CUETools log; Date: 31.05.2021 17:48:03; Version: 2.1.4]
[AccurateRip ID: 001dd966-016c8fd5-ee0f3210] found.
Track [ CRC | V2 ] Status
01 [27919c87|a077ff28] (085+191/398) Accurately ripped
02 [6b0fee33|15dc257b] (085+195/402) Accurately ripped
03 [b023c21d|51c76a35] (084+194/401) Accurately ripped
04 [cb68a623|03de0f95] (084+194/398) Accurately ripped
05 [6f5c3480|97342845] (084+195/401) Accurately ripped
06 [fe11894b|8b976885] (084+195/402) Accurately ripped
07 [bb0d604d|2a5bed82] (085+195/402) Accurately ripped
08 [4ca5e95a|c2682299] (084+195/400) Accurately ripped
09 [dc9dc425|2654442b] (084+196/401) Accurately ripped
10 [e7734aba|9064070d] (084+195/401) Accurately ripped
11 [bd83ac56|11295549] (084+193/400) Accurately ripped
12 [131126a0|5677085e] (083+191/395) Accurately ripped
13 [600f0656|a8a236e2] (083+188/389) Accurately ripped
14 [501a6507|a19c53e2] (083+188/388) Accurately ripped
15 [f4926af0|c5610bc1] (083+188/389) Accurately ripped
16 [bde18aee|1bddf2ea] (081+186/380) Accurately ripped
Offsetted by -670:
01 [7904c754] (005/398) Accurately ripped
02 [08147414] (005/402) Accurately ripped
03 [a6db5432] (005/401) Accurately ripped
04 [8ead8ead] (005/398) Accurately ripped
05 [b5611bf4] (005/401) Accurately ripped
06 [e9c39eaf] (005/402) Accurately ripped
07 [cd10739d] (005/402) Accurately ripped
08 [03df307d] (005/400) Accurately ripped
09 [19ad0cbb] (005/401) Accurately ripped
10 [fc6adf22] (005/401) Accurately ripped
11 [12c85bdb] (005/400) Accurately ripped
12 [6d83bab1] (005/395) Accurately ripped
13 [bd347505] (005/389) Accurately ripped
14 [c8722ff7] (005/388) Accurately ripped
15 [8d69fdb9] (005/389) Accurately ripped
16 [5dc10a92] (004/380) Accurately ripped
Offsetted by -12:
01 [b97473cb] (005/398) Accurately ripped
02 [4e4c07b0] (005/402) Accurately ripped
03 [26a25d9d] (005/401) Accurately ripped
04 [60970edc] (005/398) Accurately ripped
05 [427730eb] (005/401) Accurately ripped
06 [f6437871] (005/402) Accurately ripped
07 [044ed126] (005/402) Accurately ripped
08 [04bd8f82] (005/400) Accurately ripped
09 [e8323986] (005/401) Accurately ripped
10 [7ece7b27] (005/401) Accurately ripped
11 [1cc16540] (005/400) Accurately ripped
12 [63a86dd2] (005/395) Accurately ripped
13 [bb817dca] (005/389) Accurately ripped
14 [6fe4ecee] (005/388) Accurately ripped
15 [fa2bee1f] (005/389) Accurately ripped
16 [c51b5886] (005/380) Accurately ripped
Offsetted by -6:
01 [c7b89930] (035/398) Accurately ripped
02 [5674740a] (035/402) Accurately ripped
03 [ece991a1] (036/401) Accurately ripped
04 [4cc12403] (034/398) Accurately ripped
05 [8911e22b] (035/401) Accurately ripped
06 [d83800f6] (036/402) Accurately ripped
07 [2bee34eb] (035/402) Accurately ripped
08 [a8b13c6e] (035/400) Accurately ripped
09 [3f617d22] (035/401) Accurately ripped
10 [d924bca0] (035/401) Accurately ripped
11 [f11d8a8b] (036/400) Accurately ripped
12 [e7abca38] (035/395) Accurately ripped
13 [0efd7eac] (032/389) Accurately ripped
14 [c84e25dc] (032/388) Accurately ripped
15 [c7c7fd49] (032/389) Accurately ripped
16 [fa4206a8] (030/380) Accurately ripped
Offsetted by -738:
01 [cc2b384c] (000/398) No match (V2 was not tested)
02 [6a92b8fd] (000/402) No match
03 [cb626603] (000/401) No match
04 [dbe16dd3] (000/398) No match
05 [cd198f05] (000/401) No match
06 [ae4df6cd] (000/402) No match (V2 was not tested)
07 [b60cfbd5] (000/402) No match (V2 was not tested)
08 [67ae8df7] (000/400) No match
09 [3ff4d672] (000/401) No match
10 [6471fc1f] (000/401) No match
11 [80655935] (000/400) No match (V2 was not tested)
12 [c4820f33] (000/395) No match
13 [b3f393da] (000/389) No match
14 [b612d9b3] (000/388) No match
15 [a0ae4981] (000/389) No match
16 [a4dc0dcc] (000/380) No match
Offsetted by -715:
01 [042a9111] (000/398) No match (V2 was not tested)
02 [cad16d84] (000/402) No match (V2 was not tested)
03 [a7d3872a] (000/401) No match (V2 was not tested)
04 [3556eea5] (000/398) No match (V2 was not tested)
05 [77c646e7] (000/401) No match (V2 was not tested)
06 [74100518] (000/402) No match (V2 was not tested)
07 [1a150f59] (000/402) No match (V2 was not tested)
08 [fb397f4b] (000/400) No match (V2 was not tested)
09 [607c5377] (000/401) No match (V2 was not tested)
10 [67bb7de0] (000/401) No match (V2 was not tested)
11 [cebba2b6] (000/400) No match (V2 was not tested)
12 [1d521649] (000/395) No match (V2 was not tested)
13 [91976e50] (000/389) No match (V2 was not tested)
14 [aa4de10c] (000/388) No match (V2 was not tested)
15 [e8ddcf81] (000/389) No match (V2 was not tested)
16 [6ca1ee66] (000/380) No match (V2 was not tested)
Offsetted by -30:
01 [b06d5003] (000/398) No match (V2 was not tested)
02 [4caddce1] (000/402) No match (V2 was not tested)
03 [99618381] (000/401) No match (V2 was not tested)
04 [9b813c52] (000/398) No match (V2 was not tested)
05 [809b462f] (000/401) No match (V2 was not tested)
06 [81f855e5] (000/402) No match (V2 was not tested)
07 [0846fb34] (000/402) No match (V2 was not tested)
08 [f402d073] (000/400) No match (V2 was not tested)
09 [b1ae4029] (000/401) No match (V2 was not tested)
10 [083dd1a2] (000/401) No match (V2 was not tested)
11 [9bfce05f] (000/400) No match (V2 was not tested)
12 [86b74eb7] (000/395) No match (V2 was not tested)
13 [2bd9d1b6] (000/389) No match (V2 was not tested)
14 [4be9f9fe] (000/388) No match (V2 was not tested)
15 [d50d1f2f] (000/389) No match (V2 was not tested)
16 [30b65d3f] (000/380) No match (V2 was not tested)
Offsetted by -18:
01 [b7366911] (000/398) No match (V2 was not tested)
02 [440c9ed7] (000/402) No match (V2 was not tested)
03 [5d512614] (000/401) No match
04 [e0db66ac] (000/398) No match
05 [fef5833b] (000/401) No match
06 [d00cefcb] (000/402) No match (V2 was not tested)
07 [6f599eea] (000/402) No match
08 [60c6e298] (000/400) No match
09 [94b87327] (000/401) No match
10 [70b4ed38] (000/401) No match
11 [4a3b3c76] (000/400) No match
12 [3789b8cc] (000/395) No match
13 [26cfc0c2] (000/389) No match
14 [f64c6ae9] (000/388) No match
15 [2d3c3d80] (000/389) No match
16 [7707d313] (000/380) No match
Offsetted by 6:
01 [aaaa98d5] (000/398) No match (V2 was not tested)
02 [743b61a1] (000/402) No match (V2 was not tested)
03 [994def0e] (000/401) No match
04 [4a06284a] (000/398) No match
05 [457b0094] (000/401) No match
06 [de808945] (000/402) No match (V2 was not tested)
07 [0626a2ee] (000/402) No match (V2 was not tested)
08 [f019ba14] (000/400) No match
09 [bff10e89] (000/401) No match
10 [a950d8f0] (000/401) No match
11 [8bbacaa0] (000/400) No match (V2 was not tested)
12 [97ccdbb2] (000/395) No match
13 [6d2a2fd5] (000/389) No match
14 [8eddd348] (000/388) No match
15 [1ffd1b8c] (000/389) No match
16 [49edf8dd] (000/380) No match

Track Peak [ CRC32 ] [W/O NULL] [ LOG ]
– 100,0 [F97B1707] [0E343A16] W/O NULL
01 94,9 [8BF11315] [D4CCD627]
02 94,6 [CD79881B] [9D84D1D7]
03 100,0 [4C6E67AE] [298C9A24]
04 95,3 [94D90ADF] [FC425A4A]
05 94,7 [8306D626] [31702076]
06 98,5 [7A4F508F] [053A0096]
07 94,6 [30D2DB3A] [E146D18D]
08 79,7 [9383DA46] [EF527ABE]
09 95,2 [32074CAD] [496E4861]
10 94,6 [D1971DC1] [64CD9E6D]
11 95,6 [57B7B3B3] [156D8525]
12 84,0 [EC86AEB5] [26BC1418]
13 84,8 [1E5B40F1] [2F8BE5FC]
14 85,1 [172B27AA] [9FA8EE70]
15 86,1 [2AA53062] [32D30346]
16 87,0 [7291F75F] [ED0337A6]


The Doors - Waiting For The Sun (1968) [4 Releases + DVDA]

Tracklist CD04. 1968 - Waiting For The Sun [2007, Japan, Warner Music WPCR-12718]:

1. Hello, I love you
2. Love street
3. Not to touch the earth
4. Summers almost gone
5. Wintertime love
6. The unknown soldier
7. Spanish caravan
8. My wild love
9. We could be so good together
10. Yes the river knows
11. Five to one
12. Albinoni's adagio in G minor
13. Not to touch the earth (dialogue)
14. Not to touch the earth (take 1)
15. Not to touch the earth (take 2)
16. Celebration of the Lizard (an experiment, work in progress)

Exact Audio Copy V0.99 prebeta 4 from 23. January 2008

Отчёт EAC об извлечении, выполненном 21. июня 2009, 12:10

The Doors / Waiting For The Sun

Дисковод: PLEXTOR DVD-ROM PX-116A2 Adapter: 3 ID: 0

Режим чтения : Достоверность
Использование точного потока : Да
Отключение кэша аудио : Да
Использование указателей C2 : Нет

Коррекция смещения при чтении : 102
Способность читать области Lead-in и Lead-out : Нет
Заполнение пропущенных сэмплов тишиной : Да
Удаление блоков с тишиной в начале и конце : Нет
При вычислениях CRC использовались нулевые сэмплы : Да
Интерфейс : Встроенный Win32-интерфейс для Win NT/2000

Выходной формат : Внутренние WAV-операции
Формат сэмплов : 44.100 Гц; 16 бит; стерео


TOC извлечённого CD

Трек | Старт | Длительность | Начальный сектор | Конечный сектор
––––––––––––––––––––––––––––––––––-
1 | 0:00.00 | 2:40.65 | 0 | 12064
2 | 2:40.65 | 2:56.55 | 12065 | 25319
3 | 5:37.45 | 4:00.45 | 25320 | 43364
4 | 9:38.15 | 3:22.68 | 43365 | 58582
5 | 13:01.08 | 1:56.42 | 58583 | 67324
6 | 14:57.50 | 3:26.73 | 67325 | 82847
7 | 18:24.48 | 3:02.37 | 82848 | 96534
8 | 21:27.10 | 3:01.10 | 96535 | 110119
9 | 24:28.20 | 2:23.53 | 110120 | 120897
10 | 26:51.73 | 2:42.37 | 120898 | 133084
11 | 29:34.35 | 4:33.33 | 133085 | 153592
12 | 34:07.68 | 4:32.46 | 153593 | 174038
13 | 38:40.39 | 0:43.34 | 174039 | 177297
14 | 39:23.73 | 3:59.32 | 177298 | 195254
15 | 43:23.30 | 4:17.35 | 195255 | 214564
16 | 47:40.65 | 17:10.00 | 214565 | 291814


Характеристики диапазона извлечения и сообщения об ошибках

Выбранный диапазон

Имя файла C:\1_MUSIC\Lossless\Doors, The - Waiting For The Sun\The Doors - Waiting For The Sun.wav

Пиковый уровень 100.0 %
Качество диапазона 100.0 %
CRC копии 70007AB0
Копирование… OK

Ошибок не произошло


AccurateRip: сводка

Трек 1 точное извлечение (доверие 2) [251D085A]
Трек 2 точное извлечение (доверие 2) [17631E51]
Трек 3 точное извлечение (доверие 2) [48411E48]
Трек 4 точное извлечение (доверие 1) [703757C9]
Трек 5 точное извлечение (доверие 1) [B48BAA68]
Трек 6 точное извлечение (доверие 2) [DF6CADDA]
Трек 7 точное извлечение (доверие 2) [31B621C5]
Трек 8 точное извлечение (доверие 1) [D07E099D]
Трек 9 точное извлечение (доверие 1) [6E651BBF]
Трек 10 точное извлечение (доверие 1) [EE57A487]
Трек 11 точное извлечение (доверие 2) [3C1494DE]
Трек 12 точное извлечение (доверие 2) [DEC2F02C]
Трек 13 точное извлечение (доверие 2) [600F0656]
Трек 14 точное извлечение (доверие 2) [AF188FC3]
Трек 15 точное извлечение (доверие 2) [1687887B]
Трек 16 точное извлечение (доверие 3) [168CFAD4]

Все треки извлечены точно

Конец отчёта


[CUETools log; Date: 31.05.2021 17:55:30; Version: 2.1.4]
[AccurateRip ID: 001ddb65-016ca436-e20f3210] found.
Track [ CRC | V2 ] Status
01 [251d085a|b4dc96d3] (04+08/12) Accurately ripped
02 [17631e51|4aa054af] (04+08/12) Accurately ripped
03 [48411e48|8a98aa12] (04+08/12) Accurately ripped
04 [703757c9|f5c1498f] (03+08/11) Accurately ripped
05 [b48baa68|214365d4] (03+08/11) Accurately ripped
06 [df6cadda|07096bd3] (04+08/12) Accurately ripped
07 [31b621c5|cae8ed57] (04+08/12) Accurately ripped
08 [d07e099d|07e58de7] (03+08/11) Accurately ripped
09 [6e651bbf|5c1b0bb7] (03+08/11) Accurately ripped
10 [ee57a487|0889abae] (03+08/11) Accurately ripped
11 [3c1494de|3d43a18c] (04+08/12) Accurately ripped
12 [dec2f02c|0fcee684] (04+08/12) Accurately ripped
13 [600f0656|a8a236e2] (04+08/12) Accurately ripped
14 [af188fc3|b00927a7] (04+08/12) Accurately ripped
15 [1687887b|887e27a0] (04+08/12) Accurately ripped
16 [168cfad4|4315f2df] (05+08/13) Accurately ripped

Track Peak [ CRC32 ] [W/O NULL] [ LOG ]
– 100,0 [70007AB0] [73172ACC] CRC32
01 94,9 [629F06E2] [BBB60A55]
02 94,6 [6DF0046E] [D2B644F7]
03 100,0 [8CFCF36C] [ED9B1718]
04 95,3 [5D8FCDE3] [96443831]
05 94,7 [D220E5F4] [5612F660]
06 98,5 [36A528F1] [4BF9614B]
07 94,6 [7C4415E3] [606AF811]
08 79,7 [9F1B3B78] [D5A00882]
09 95,2 [0946A312] [98255A03]
10 94,6 [4BA0C238] [F23BE8C2]
11 95,6 [65581B64] [10AD8920]
12 84,0 [89F9566A] [1F8D6E18]
13 84,8 [1E5B40F1] [2F8BE5FC]
14 85,1 [3E829B37] [B5E12E50]
15 86,1 [C807D985] [1D3571AF]
16 87,0 [D4C181C5] [BC75840D]


The Doors - Waiting For The Sun (1968) [4 Releases + DVDA]

Tracklist DVD:

01. Hello, I Love You
02. Love Street
03. Not To Touch The Earth
04. Summer’s Almost Gone
05. Wintertime Love
06. The Unknown Soldier
07. Spanish Caravan
08. My Wild Love
09. We Could Be So Good Together
10. Yes, The River Knows
11. Five To One

General
Complete name : N:\\AUDIO_TS\ATS_01_0.BUP
File size : 4.00 KiB

General
Complete name : N:\\AUDIO_TS\ATS_01_0.IFO
File size : 4.00 KiB

General
Complete name : N:\\AUDIO_TS\ATS_01_1.AOB
Format : MPEG-PS
File size : 1 024 MiB
Duration : 2s 592ms
Overall bit rate mode : Variable
Overall bit rate : 3 314 Mbps

Audio
ID : 189 (0xBD)-161 (0xA1)
Format : MLP
Muxing mode : DVD-Video
Duration : 2s 592ms
Bit rate mode : Variable
Maximum bit rate : 9 597 Kbps
Channel(s) : 6 channels
Sampling rate : 88.2 KHz
Bit depth : 24 bits

General
Complete name : N:\\AUDIO_TS\ATS_01_2.AOB
Format : MPEG-PS
File size : 1 024 MiB
Duration : 21mn 3s
Overall bit rate mode : Variable
Overall bit rate : 6 796 Kbps

Audio
ID : 189 (0xBD)-161 (0xA1)
Format : MLP
Muxing mode : DVD-Video
Duration : 21mn 3s
Bit rate mode : Variable
Maximum bit rate : 9 597 Kbps
Channel(s) : 6 channels
Sampling rate : 88.2 KHz
Bit depth : 24 bits

General
Complete name : N:\\AUDIO_TS\ATS_01_3.AOB
Format : MPEG-PS
File size : 624 MiB
Overall bit rate mode : Variable

Audio
ID : 189 (0xBD)-161 (0xA1)
Format : MLP
Muxing mode : DVD-Video
Bit rate mode : Variable
Maximum bit rate : 9 597 Kbps
Channel(s) : 6 channels
Sampling rate : 88.2 KHz
Bit depth : 24 bits

General
Complete name : N:\\AUDIO_TS\AUDIO_PP.IFO
File size : 128 KiB

General
Complete name : N:\\AUDIO_TS\AUDIO_SV.BUP
File size : 4.00 KiB

General
Complete name : N:\\AUDIO_TS\AUDIO_SV.IFO
File size : 4.00 KiB

General
Complete name : N:\\AUDIO_TS\AUDIO_SV.VOB
Format : MPEG-PS
File size : 3.60 MiB
Duration : 33ms
Overall bit rate mode : Variable
Overall bit rate : 914 Mbps

Video
ID : 224 (0xE0)
Format : MPEG Video
Format version : Version 2
Format profile : Main@Main
Format settings, BVOP : No
Format settings, Matrix : Custom
Format settings, GOP : N=1
Duration : 33ms
Bit rate mode : Variable
Maximum bit rate : 4 587 Kbps
Width : 720 pixels
Height : 480 pixels
Display aspect ratio : 4:3
Frame rate : 29.970 fps
Standard : NTSC
Color space : YUV
Chroma subsampling : 4:2:0
Bit depth : 8 bits
Scan type : Progressive
Compression mode : Lossy
Color primaries : BT.601 NTSC
Transfer characteristics : BT.601
Matrix coefficients : BT.601

Text
ID : 189 (0xBD)-32 (0x20)
Format : RLE
Format/Info : Run-length encoding
Muxing mode : DVD-Video

Menu

General
Complete name : N:\\AUDIO_TS\AUDIO_TS.BUP
File size : 8.00 KiB

General
Complete name : N:\\AUDIO_TS\AUDIO_TS.IFO
File size : 8.00 KiB

General
Complete name : N:\\AUDIO_TS\AUDIO_TS.VOB
Format : MPEG-PS
File size : 456 KiB
Duration : 33ms
Overall bit rate mode : Variable
Overall bit rate : 113 Mbps

Video
ID : 224 (0xE0)
Format : MPEG Video
Format version : Version 2
Format profile : Main@Main
Format settings, BVOP : No
Format settings, Matrix : Custom
Duration : 33ms
Bit rate mode : Variable
Maximum bit rate : 4 587 Kbps
Width : 720 pixels
Height : 480 pixels
Display aspect ratio : 4:3
Frame rate : 29.970 fps
Standard : NTSC
Color space : YUV
Chroma subsampling : 4:2:0
Bit depth : 8 bits
Scan type : Progressive
Compression mode : Lossy
Color primaries : BT.601 NTSC
Transfer characteristics : BT.601
Matrix coefficients : BT.601

Text
ID : 189 (0xBD)-32 (0x20)
Format : RLE
Format/Info : Run-length encoding
Muxing mode : DVD-Video

Menu



All thanks go to the original releaser

The Doors in my Blog

Download The Doors - Waiting For The Sun (1968):