Subcategories

The Illinois Speed Press - The Illinois Speed Press (1969) Reissue 2013

Posted By: Designol
The Illinois Speed Press - The Illinois Speed Press (1969) Reissue 2013

The Illinois Speed Press - The Illinois Speed Press (1969) Reissue 2013
EAC | FLAC | Tracks (Cue&Log) ~ 267 Mb | Mp3 (CBR320) ~ 102 Mb | Scans ~ 60 Mb
Psychedelic Rock, Hard Rock, Blues-Rock | Label: Lucky Pigs | # LPR CD 0816-2 | 00:44:54

Illinois Speed Press was a guitar-driven rock quintet on this, their first recording. Produced by Chicago's producer and mentor, James William Guercio, this album sounds at times like Chicago Transit Authority without horns. ISP is important in rock history primarily as the band from which co-leader Paul Cotton emerged to replace Jim Messina in Poco, whom he would help guide to commercial success. "Get in the Wind," later recorded by Poco in a completely different form, rocks hard in this version, while Cotton's "P.N.S. (When You Come Around)" hints at the sound of From the Inside era Poco. The bouncy acoustic number "Here Today" is another highlight, standing out amidst the bluesy rock that makes up the bulk of this recording. The liner notes, designed like a newspaper, were written by Firesign Theatre.

Review by Jim Newsom, Allmusic.com

The Illinois Speed Press - The Illinois Speed Press (1969) Reissue 2013



Tracklist:

01. Overture (3:28)
02. Get In The Wind (2:58)
03. Hard Luck Story (4:45)
04. Here Today (3:18)
05. Pay The Price (5:18)
06. P.N.S. (When You Come Around) (7:54)
07. Be A Woman (4:57)
08. Sky Song (2:25)
09. Beauty (5:20)
10. Free Ride (4:32)


Exact Audio Copy V0.99 prebeta 4 from 23. January 2008

EAC extraction logfile from 20. September 2013, 1:55

The Illinois Speed Press / The Illinos Speed Press

Used drive : HL-DT-STDVD-RAM GSA-H58N Adapter: 0 ID: 0

Read mode : Secure
Utilize accurate stream : Yes
Defeat audio cache : Yes
Make use of C2 pointers : No

Read offset correction : 102
Overread into Lead-In and Lead-Out : No
Fill up missing offset samples with silence : Yes
Delete leading and trailing silent blocks : No
Null samples used in CRC calculations : Yes
Used interface : Installed external ASPI interface
Gap handling : Appended to previous track

Used output format : User Defined Encoder
Selected bitrate : 1024 kBit/s
Quality : High
Add ID3 tag : No
Command line compressor : C:\Arquivos de programas\Exact Audio Copy\Flac\flac.exe
Additional command line options : -8 -A tukey(0.25) -A gauss(0.1875) -b 4096 -V -T "artist=%a" -T "title=%t" -T "album=%g" -T "date=%y" -T "tracknumber=%n" -T "genre=%m" %s –sector-align


TOC of the extracted CD

Track | Start | Length | Start sector | End sector
––––––––––––––––––––––––––––-
1 | 0:00.00 | 3:27.66 | 0 | 15590
2 | 3:27.66 | 2:57.56 | 15591 | 28921
3 | 6:25.47 | 4:45.29 | 28922 | 50325
4 | 11:11.01 | 3:18.06 | 50326 | 65181
5 | 14:29.07 | 5:18.00 | 65182 | 89031
6 | 19:47.07 | 7:53.42 | 89032 | 124548
7 | 27:40.49 | 4:57.08 | 124549 | 146831
8 | 32:37.57 | 2:24.52 | 146832 | 157683
9 | 35:02.34 | 5:19.65 | 157684 | 181673
10 | 40:22.24 | 4:31.58 | 181674 | 202056


Track 1

Filename C:\Documents and Settings\Nelson\Meus documentos\My EAC\01 - The Illinois Speed Press - Overture.wav

Pre-gap length 0:00:02.00

Peak level 49.0 %
Track quality 99.8 %
Test CRC 83329F5A
Copy CRC 83329F5A
Copy OK

Track 2

Filename C:\Documents and Settings\Nelson\Meus documentos\My EAC\02 - The Illinois Speed Press - Get In The Wind.wav

Pre-gap length 0:00:02.13

Peak level 49.0 %
Track quality 100.0 %
Test CRC 8AA2875C
Copy CRC 8AA2875C
Copy OK

Track 3

Filename C:\Documents and Settings\Nelson\Meus documentos\My EAC\03 - The Illinois Speed Press - Hard Luck Story.wav

Pre-gap length 0:00:02.33

Peak level 49.0 %
Track quality 100.0 %
Test CRC A43993E8
Copy CRC A43993E8
Copy OK

Track 4

Filename C:\Documents and Settings\Nelson\Meus documentos\My EAC\04 - The Illinois Speed Press - Here Today.wav

Pre-gap length 0:00:02.06

Peak level 49.0 %
Track quality 100.0 %
Test CRC 7EB3CB5E
Copy CRC 7EB3CB5E
Copy OK

Track 5

Filename C:\Documents and Settings\Nelson\Meus documentos\My EAC\05 - The Illinois Speed Press - Pay The Price.wav

Pre-gap length 0:00:02.06

Peak level 49.0 %
Track quality 100.0 %
Test CRC 391357EB
Copy CRC 391357EB
Copy OK

Track 6

Filename C:\Documents and Settings\Nelson\Meus documentos\My EAC\06 - The Illinois Speed Press - P.N.S. (When You Come Around).wav

Pre-gap length 0:00:02.00

Peak level 49.1 %
Track quality 100.0 %
Test CRC D1F68363
Copy CRC D1F68363
Copy OK

Track 7

Filename C:\Documents and Settings\Nelson\Meus documentos\My EAC\07 - The Illinois Speed Press - Be A Woman.wav

Pre-gap length 0:00:01.93

Peak level 49.0 %
Track quality 100.0 %
Test CRC D93E51D7
Copy CRC D93E51D7
Copy OK

Track 8

Filename C:\Documents and Settings\Nelson\Meus documentos\My EAC\08 - The Illinois Speed Press - Sky Song.wav

Pre-gap length 0:00:02.60

Peak level 49.0 %
Track quality 99.9 %
Test CRC 7BA2CB4A
Copy CRC 7BA2CB4A
Copy OK

Track 9

Filename C:\Documents and Settings\Nelson\Meus documentos\My EAC\09 - The Illinois Speed Press - Beauty.wav

Pre-gap length 0:00:02.13

Peak level 49.0 %
Track quality 99.9 %
Test CRC 27B91DBB
Copy CRC 27B91DBB
Copy OK

Track 10

Filename C:\Documents and Settings\Nelson\Meus documentos\My EAC\10 - The Illinois Speed Press - Free Ride.wav

Pre-gap length 0:00:01.86

Peak level 49.0 %
Track quality 100.0 %
Test CRC 80A396FA
Copy CRC 80A396FA
Copy OK

No errors occurred

End of status report

[CUETools log; Date: 29.08.2018 21:52:37; Version: 2.1.4]
[CTDB TOCID: D6oZ4fsp8AJywPJ2oue33ZONWXg-] found.
Track | CTDB Status
1 | (4/4) Accurately ripped
2 | (4/4) Accurately ripped
3 | (4/4) Accurately ripped
4 | (4/4) Accurately ripped
5 | (4/4) Accurately ripped
6 | (4/4) Accurately ripped
7 | (4/4) Accurately ripped
8 | (4/4) Accurately ripped
9 | (4/4) Accurately ripped
10 | (4/4) Accurately ripped
[AccurateRip ID: 001033d9-00848359-8c0a860a] found.
Track [ CRC | V2 ] Status
01 [07f7f088|f1e26894] (0+0/1) No match
02 [49b69679|6874a22c] (0+0/1) No match
03 [2814fa8b|5ae5305a] (0+0/1) No match
04 [a61bc47f|b13a7ec2] (0+0/1) No match
05 [40d86e52|54d8847e] (0+0/1) No match
06 [9b8f672c|0695158a] (0+0/1) No match
07 [9594ccf1|88ee8ab7] (0+0/1) No match
08 [2ee9f0b7|8af5cf55] (0+0/1) No match
09 [a03004f9|1709cc8c] (0+0/1) No match
10 [3fb2568f|8c9030ca] (0+0/1) No match
Offsetted by 6:
01 [0bf626de] (1/1) Accurately ripped
02 [f53abee7] (1/1) Accurately ripped
03 [265a2835] (1/1) Accurately ripped
04 [3cfd034b] (1/1) Accurately ripped
05 [76f3f2de] (1/1) Accurately ripped
06 [026eb2cc] (1/1) Accurately ripped
07 [bf8edf24] (1/1) Accurately ripped
08 [a608a898] (1/1) Accurately ripped
09 [9576d4d5] (1/1) Accurately ripped
10 [ce2c3ab7] (1/1) Accurately ripped

Track Peak [ CRC32 ] [W/O NULL] [ LOG ]
– 49,1 [E0DC4AA9] [4DCB7795]
01 49,0 [83329F5A] [594ED048] CRC32
02 49,0 [8AA2875C] [CE06F8BE] CRC32
03 49,0 [A43993E8] [E59BE5F0] CRC32
04 49,0 [7EB3CB5E] [34F100D2] CRC32
05 49,0 [391357EB] [C711827D] CRC32
06 49,1 [D1F68363] [35065E32] CRC32
07 49,0 [D93E51D7] [091524F1] CRC32
08 49,0 [7BA2CB4A] [6846EB61] CRC32
09 49,0 [27B91DBB] [DEDF5409] CRC32
10 49,0 [80A396FA] [AC7A3516] CRC32

foobar2000 1.2 / Dynamic Range Meter 1.1.1
log date: 2018-08-29 23:09:56

––––––––––––––––––––––––––––––––––––––––
Analyzed: The Illinois Speed Press / The Illinos Speed Press
––––––––––––––––––––––––––––––––––––––––

DR Peak RMS Duration Track
––––––––––––––––––––––––––––––––––––––––
DR11 -6.18 dB -20.97 dB 3:28 01-Overture
DR10 -6.18 dB -17.50 dB 2:58 02-Get In The Wind
DR10 -6.18 dB -18.11 dB 4:45 03-Hard Luck Story
DR10 -6.18 dB -17.70 dB 3:18 04-Here Today
DR10 -6.18 dB -17.61 dB 5:18 05-Pay The Price
DR10 -6.18 dB -17.86 dB 7:54 06-P.N.S. (When You Come Around)
DR8 -6.18 dB -16.08 dB 4:57 07-Be A Woman
DR11 -6.18 dB -21.10 dB 2:25 08-Sky Song
DR9 -6.18 dB -16.61 dB 5:20 09-Beauty
DR11 -6.18 dB -18.22 dB 4:32 10-Free Ride
––––––––––––––––––––––––––––––––––––––––

Number of tracks: 10
Official DR value: DR10

Samplerate: 44100 Hz
Channels: 2
Bits per sample: 16
Bitrate: 791 kbps
Codec: FLAC
================================================================================

The Illinois Speed Press - The Illinois Speed Press (1969) Reissue 2013

The Illinois Speed Press - The Illinois Speed Press (1969) Reissue 2013

All thanks to original releaser - Nelson

More interesting music in My Blog