Tags
Language
Tags

The Jesus And Mary Chain - Albums Collection 1985-1993 (6CD + 2DVD)

Posted By: Designol
The Jesus And Mary Chain - Albums Collection 1985-1993 (6CD + 2DVD)

The Jesus And Mary Chain - Albums Collection 1985-1993 (6CD + 2DVD)
EAC | FLAC | Image/Tracks (Cue&Log) ~ 2.7 Gb | Mp3 (CBR320) ~ 977 Mb | Scans ~ 191 Mb
2 x DVD5 | NTSC | 4:3 (720x480) | AC3 2.0, 224kbps | Time: 00:30:43 / 00:29:18 | 3.1 Gb
Genre: Post-Punk, Shoegaze, Noise Pop, Alternative Rock | Time: 06:37:45

Like the Velvet Underground, their most obvious influence, the chart success of the Jesus and Mary Chain was virtually nonexistent, but their artistic impact was incalculable; quite simply, the Scottish group made the world safe for white noise, orchestrating a sound dense in squalling feedback that served as an inspiration to everyone from My Bloody Valentine to Dinosaur Jr. Though the supporting players drifted in and out of focus, the heart of the Mary Chain remained vocalists and guitarists William and Jim Reid, Scottish-born brothers heavily influenced not only by underground legends like the Velvets and the Stooges but also by the sonic grandeur and pop savvy of Phil Spector and Brian Wilson. In the Jesus and Mary Chain, which the Reids formed outside of Glasgow in 1984 with bassist Douglas Hart and drummer Murray Dalglish (quickly replaced by Bobby Gillespie), these two polarized aesthetics converged; equal parts bubblegum and formless guitar distortion, their sound both celebrated pop conventions and thoroughly subverted them.

In late 1984, the band issued its seminal debut single, "Upside Down," a remarkable blast of live-wire feedback anchored by a caveman-like drumbeat; the record made the JMC an overnight sensation in the U.K., as did their nascent live shows, 20-minute sets of confrontational noise (performed with the bandmembers' backs to the audience) which frequently ended in rioting. The follow-up, "You Trip Me Up," further perfected the formula, and led to their 1985 debut LP Psychocandy, which gift-wrapped sweet, simple pop songs in ribbons of droning guitar fuzz. After a two-year layoff (during which time Gillespie exited to form Primal Scream and was replaced by John Moore), the Jesus and Mary Chain returned with Darklands, a dramatic shift in approach that stripped away the feedback to expose the skeletal guitar pop at the music's core. After a sprawling 1988 collection of singles, B-sides, and demos titled Barbed Wire Kisses, they emerged with Automatic, which introduced a more tightly coiled brand of feedback while jettisoning Moore's live drums in favor of synthesized beats.

After another long absence, the Mary Chain (minus Hart) resurfaced in 1992 with Honey's Dead, and earned greater U.S. visibility thanks to a spot on that summer's Lollapalooza lineup; the first single, "Reverence," also won them renewed attention at home when Top of the Pops banned the song because of its opening lines, "I wanna die just like Jesus Christ" and "I wanna die just like JFK." With 1994's gentle, largely acoustic Stoned & Dethroned, they even reached the U.S. pop charts thanks to the lovely single "Sometimes Always," a duet with Mazzy Star's Hope Sandoval. Another collection of scattered sides, The Jesus and Mary Chain Hate Rock 'n' Roll, followed a year later, highlighted by the single "I Hate Rock 'n' Roll," a scabrous swipe that reclaimed the pure noise attack of their earliest work. Moving to Sub Pop, they returned with Munki in 1998. William Reid left the group during the subsequent tour, and in 1999, the Jesus and Mary Chain officially disbanded.

Eight years later, the Reid brothers, joined by Mark Crozer, Phil King (Lush), and Loz Colbert (Ride), revived the band to perform at the Coachella and Meltdown festivals. The new recording "All Things Must Pass" appeared on the 2008 soundtrack for the television series Heroes. A four-disc box set, The Power of Negative Thinking: B-Sides and Rarities, was released the same year, trailed by expanded reissues of their 1985-1998 studio albums. Performances resumed in 2012, with Brian Young (Fountains of Wayne) in place of Colbert. The band later played several dates across Europe and the U.S. that involved the performance of Psychocandy in its entirety, a celebration of the album's 30th anniversary. A Glasgow gig was documented in box set form as Live at Barrowlands.

The success of the touring must have eased the tensions between the brothers, because in 2015 they entered the studio to begin working on a new album. Comprising songs newly written and culled from the years after their breakup, Damage and Joy was produced by Youth and featured guest vocals by their sister Linda, Isobel Campbell, and Sky Ferreira. The album was released in early 2017 by their own Artificial Plastic label.

Jason Ankeny, Allmusic.com

The Jesus And Mary Chain - Albums Collection 1985-1993 (6CD + 2DVD)





The Jesus And Mary Chain - Albums Collection 1985-1993 (6CD + 2DVD)

The Jesus and Mary Chain - Psychocandy (1985) Deluxe Edition 2011 [2CD + DVD5]
EAC | FLAC | Tracks (Cue&Log) ~ 918 Mb | Mp3 (CBR320) ~ 289 Mb | 02:05:45 | Scans ~ 93 Mb
DVD5 | NTSC | 4:3 (720x480) | AC3 2.0, 224kbps | Time: 00:30:43 | 1.6 Gb
Label: Edsel | # EDSG 8006

Deluxe three disc (two CDs + DVD) edition of this 1985 album from the British Alt-Rock icons. This edition features all the non-album b-sides, as well as previously unreleased demos, rare outtakes including controversial early track 'Jesus Fuck', BBC Radio Sessions and much more. The DVD contains the promo videos for the singles released from the album alongside seminal and previously unreleased TV appearances, including their jaw-dropping live TV debut on the Old Grey Whistle Test, a performance of two songs on The Tube, a studio performance and interview from Belgian TV, and never before seen footage of the infamous riot at North London Polytechnic - this includes excerpts of the band's performance on the night, highly entertaining interviews with all four original members, and scenes of the crowd destroying the venue!

Arguably Psychocandy is an album with one trick and one trick alone – Beach Boys melodies meet Velvet Underground feedback and beats, all cranked up to ten and beyond, along with plenty of echo. However, what a trick it is. Following up on the promise of the earliest singles, the Jesus and Mary Chain with Psychocandy arguably created a movement without meaning to, one that itself caused echoes in everything from bliss-out shoegaze to snotty Britpop and back again. The best tracks were without question those singles, anti-pop yet pure pop at the same time: "Just Like Honey," starting off like the Ronettes heard in a canyon and weirdly beautiful with its bells, "You Trip Me Up" and its slinking sense of cool, and most especially "Never Understand." Storming down like a rumble of bricks wrapped in cotton candy and getting more and more frenetic at the end, when there's nothing but howls and screaming noise, it's one hell of a track. However, at least in terms of sheer sonic violence and mayhem, most of the other cuts were pretty hard to beat, as sprawling, amped-up messes like "The Living End" (which later inspired both a band and a movie title) and "In a Hole." "My Little Underground" is actually the secret gem on the album, with a great snarling guitar start, an almost easygoing melody and a great stuttering chorus – not quite the Who but not quite anything else. What the Reids sing about – entirely interchangeable combinations regarding girls, sex, drugs, speed, and boredom in more or less equal measure – is nothing compared to the perfectly disaffected way those sentiments are delivered. Bobby Gillespie's "hit the drums and then hit them again" style makes Moe Tucker seem like Neil Peart, but arguably in terms of sheer economy he doesn't need to do any more.

Review by Ned Raggett, Allmusic.com


Debut album from the contrary Scotsmen, just don’t mention Joy Division.

Boredom, dole, white noise, feedback, drugs, 20 minute sets, violence, and blasphemous song titles – not the stuff of X-factor and American Idol – but all part of The Jesus and Mary Chain’s universe back in the early ’80s as they edged their way into the music business.

Brothers Jim and William Reid spent years as teenagers watching telly, walking around the Glasgow suburb of East Kilbride talking about music, planning the perfect band in their heads while not actually doing anything much. They knew what they liked – The Velvet Underground, The Stooges, ’60s girl-band The Shangri-Las – but it wasn’t until their dad got a redundancy pay-off in the early 1980s that they actually decided to do something about it. They bought a portastudio, and by 1983 had actually started recording demos in an attempt to get gigs in Glasgow. No one was interested.

Cue fellow Scot Bobby Gillespie, who was in the middle of forming Primal Scream. By chance he heard the band’s first demo tape and was blown away. The men bonded over music and attitude, and crucially, The Jesus and Mary Chain got a London gig thanks to Gillespie knowing Alan McGee (they were school friends). They were duly signed to McGee’s Creation Records and first single Upside Down became a massive success on the indie chart.

By the time the band came to record Psychocandy they had been signed to Blanco y Negro (a WEA owned label) and had sacked original drummer Murray Dalglish with Gillespie stepping in to replace him. His limited drumming abilities (“I’m not a fucking drummer”) considered less important than passion and an understanding of the music.

Psychocandy brought to the mid-’80s an influential mix of leather-trousered rock (The Stooges), lo-fi attitude (Velvet Underground) and sixties production (Phil Spector). Although renowned for the noise and feedback element of their recordings, the pop sensibility of many of the songs are there for those who care to look. Just Like Honey, The Hardest Walk, Cut Dead are all superb indie-pop and the feedback-free acoustic radio sessions on disc two of this deluxe edition serve to underline the song-writing credentials of the Reid brothers. That said, they could also be pointlessly shouty when they wanted to be. See outtake Jesus Fuck as a good example.

This deluxe edition gathers together most of the essential elements of these early years. The first disc includes all the appropriate b-sides, while the CD 2 contains a mixture of unreleased radio sessions, demos and outtakes. A couple of these demos appeared on the 2008 box set The Power of Negative Thinking but most are previously unreleased. Given that these are the original portastudios demos they are predictably rough with drum machine backing, but nonetheless historically significant – the demos of Never Understand and Upside Down were what persuaded Alan McGee to give them a gig. McGee’s first independent single with the band (Upside Down) is also included with the Vegetable Man, the Syd Barrett penned b-side.

The DVD is a real highlight – hilarious and very entertaining. The early promo video of Never Understand has the boys standing and playing gloomily in slo-mo in a room, but by the time of the second single You Trip Me Up, success has obviously gone to their heads and they have jetted off – Duran Duran-style – to a beach somewhere. But rather than frolicking on yachts, The Jesus and Mary Chain just stand around on the beach looking as gloomy and bored as they did back in the dingy room from the first video!

There is a great feature on the infamous riot at North London Polytechnic – cut to lots of blokes slipping on beer as they try to throw ‘missiles’ on to an empty stage. Local news reporter: “Has your equipment been destroyed?” Bobby Gillespie: “Guitars are made of metal, they can never be destroyed!”

Final mention has to go to the unfortunate interviewer from Belgium TV channel VRT who talks to Jim Reid while Bobby Gillespie ‘makes out’ with a girl on the very same sofa. Jim tells him with a very straight face that “our direct competition is Culture Club” and when told that they are “streets ahead of Joy Division” he retorts “Joy Division were shit – don’t even talk to me about Joy Division”. Superb.

An excellent 32 page booklet, with some typically candid interviews from the main protagonists, finishes things off nicely. The packaging is identical to Edsel’s (excellent) Suede treatment, so you get an 8-panel digipack, with transparent CD trays showing off period photos and newspaper cuttings.

Psychocandy remains a defiantly great debut album – if you were not around at the time, or simply couldn’t see what the fuss was about then this deluxe edition does an exemplary job of putting the music into context and reminding us – via the DVD – how strange the band came across to even the most cynical and hardened of music journalists. But, hey, that’s part of their attraction.

Review by Paul Sinclair, Superdeluxeedition.com


CDs Tracklist:

CD1 (56:12)

01. Just Like Honey (3:03)
02. The Living End (2:17)
03. Taste The Floor (2:57)
04. The Hardest Walk (2:37)
05. Cut Dead (2:47)
06. In A Hole (3:02)
07. Taste Of Cindy (1:41)
08. Never Understand (2:58)
09. Inside Me (3:10)
10. Sowing Seeds (2:50)
11. My Little Underground (2:31)
12. You Trip Me Up (2:25)
13. Something's Wrong (4:01)
14. It's So Hard (2:41)
15. Suck (Never Understand B-Side) (2:08)
16. Ambition (Never Understand B-Side) (3:31)
17. Just Out Of Reach (You Trip Me Up B-Side) (2:09)
18. Boyfriend's Dead (You Trip Me Up B-Side) (1:43)
19. Head (Just Like Honey B-Side) (3:53)
20. Cracked (Just Like Honey B-Side) (3:48)


CD2 (1:09:33)

01. Upside Down (3:00)
02. Vegetable Man (3:35)
03. In A Hole (John Peel Session 23rd October 1984) (2:41)
04. You Trip Me Up (John Peel Session 23rd October 1984) (2:07)
05. Never Understand (John Peel Session 23rd October 1984) (3:08)
06. Taste The Floor (John Peel Session 23rd October 1984) (3:08)
07. The Living End (John Peel Session 3rd February 1985) (2:15)
08. Inside Me (John Peel Session 3rd February 1985) (3:01)
09. Just Like Honey (John Peel Session 3rd February 1985) (2:49)
10. Some Candy Talking (John Peel Session 29th October 1985) (3:13)
11. Psychocandy (John Peel Session 29th October 1985) (2:01)
12. You Trip Me Up (John Peel Session 29th October 1985) (2:41)
13. Cut Dead (John Peel Session 29th October 1985) (2:47)
14. Up Too High (Demo) (3:44)
15. Upside Down (Demo) (3:10)
16. Never Understand (Demo) (3:18)
17. Taste The Floor (Demo) (3:06)
18. In A Hole (Demo) (2:42)
19. Something's Wrong (Demo) (3:27)
20. Just Like Honey (Demo) (2:58)
21. The Livng End (Demo) (2:16)
22. My Little Underground (Demo) (2:33)
23. Never Understand (Alternate Version) (3:25)
24. Jesus Fuck (2:30)


Exact Audio Copy V1.0 beta 1 from 15. November 2010

EAC extraction logfile from 4. October 2011, 13:59

The Jesus and Mary Chain / Psychocandy (2011 Deluxe Edition) (Disc 1)

Used drive : TSSTcorpCDDVDW SH-222AL Adapter: 0 ID: 1

Read mode : Secure
Utilize accurate stream : Yes
Defeat audio cache : Yes
Make use of C2 pointers : No

Read offset correction : 6
Overread into Lead-In and Lead-Out : No
Fill up missing offset samples with silence : Yes
Delete leading and trailing silent blocks : No
Null samples used in CRC calculations : Yes
Used interface : Native Win32 interface for Win NT & 2000
Gap handling : Appended to previous track

Used output format : User Defined Encoder
Selected bitrate : 768 kBit/s
Quality : High
Add ID3 tag : No
Command line compressor : C:\Program Files\EAC\Flac\flac.exe
Additional command line options : -8 -V -T "ARTIST=%a" -T "TITLE=%t" -T "ALBUM=%g" -T "DATE=%y" -T "TRACKNUMBER=%n" -T "TOTALTRACKS=%x" -T "GENRE=%m" -T "ALBUMARTIST=%v" -T "ALBUM ARTIST=%v" -T "COMMENT=EAC Secure Mode, Test & Copy, AccurateRip, FLAC -8" %s


TOC of the extracted CD

Track | Start | Length | Start sector | End sector
––––––––––––––––––––––––––––-
1 | 0:00.00 | 3:03.03 | 0 | 13727
2 | 3:03.03 | 2:16.43 | 13728 | 23970
3 | 5:19.46 | 2:56.62 | 23971 | 37232
4 | 8:16.33 | 2:37.33 | 37233 | 49040
5 | 10:53.66 | 2:46.69 | 49041 | 61559
6 | 13:40.60 | 3:02.17 | 61560 | 75226
7 | 16:43.02 | 1:40.51 | 75227 | 82777
8 | 18:23.53 | 2:57.58 | 82778 | 96110
9 | 21:21.36 | 3:09.42 | 96111 | 110327
10 | 24:31.03 | 2:50.27 | 110328 | 123104
11 | 27:21.30 | 2:31.37 | 123105 | 134466
12 | 29:52.67 | 2:25.31 | 134467 | 145372
13 | 32:18.23 | 4:01.11 | 145373 | 163458
14 | 36:19.34 | 2:41.01 | 163459 | 175534
15 | 39:00.35 | 2:08.05 | 175535 | 185139
16 | 41:08.40 | 3:31.06 | 185140 | 200970
17 | 44:39.46 | 2:08.49 | 200971 | 210619
18 | 46:48.20 | 1:42.62 | 210620 | 218331
19 | 48:31.07 | 3:52.68 | 218332 | 235799
20 | 52:24.00 | 3:48.28 | 235800 | 252927


Track 1

Filename C:\LosslessII\The Jesus and Mary Chain - Psychocandy (1985) [FLAC] {2011 Deluxe Edition 2CD + DVD}\Disc1\01 - Just Like Honey.wav

Pre-gap length 0:00:02.00

Peak level 97.7 %
Extraction speed 4.3 X
Track quality 100.0 %
Test CRC AF29879B
Copy CRC AF29879B
Track not present in AccurateRip database
Copy OK

Track 2

Filename C:\LosslessII\The Jesus and Mary Chain - Psychocandy (1985) [FLAC] {2011 Deluxe Edition 2CD + DVD}\Disc1\02 - The Living End.wav

Pre-gap length 0:00:00.34

Peak level 97.7 %
Extraction speed 4.4 X
Track quality 100.0 %
Test CRC 1F09F60F
Copy CRC 1F09F60F
Track not present in AccurateRip database
Copy OK

Track 3

Filename C:\LosslessII\The Jesus and Mary Chain - Psychocandy (1985) [FLAC] {2011 Deluxe Edition 2CD + DVD}\Disc1\03 - Taste The Floor.wav

Pre-gap length 0:00:00.47

Peak level 97.7 %
Extraction speed 4.9 X
Track quality 100.0 %
Test CRC CAC8B525
Copy CRC CAC8B525
Track not present in AccurateRip database
Copy OK

Track 4

Filename C:\LosslessII\The Jesus and Mary Chain - Psychocandy (1985) [FLAC] {2011 Deluxe Edition 2CD + DVD}\Disc1\04 - The Hardest Walk.wav

Pre-gap length 0:00:00.36

Peak level 97.7 %
Extraction speed 5.0 X
Track quality 100.0 %
Test CRC B5F3DD6F
Copy CRC B5F3DD6F
Track not present in AccurateRip database
Copy OK

Track 5

Filename C:\LosslessII\The Jesus and Mary Chain - Psychocandy (1985) [FLAC] {2011 Deluxe Edition 2CD + DVD}\Disc1\05 - Cut Dead.wav

Pre-gap length 0:00:00.45

Peak level 97.7 %
Extraction speed 5.4 X
Track quality 100.0 %
Test CRC A218B66C
Copy CRC A218B66C
Track not present in AccurateRip database
Copy OK

Track 6

Filename C:\LosslessII\The Jesus and Mary Chain - Psychocandy (1985) [FLAC] {2011 Deluxe Edition 2CD + DVD}\Disc1\06 - In A Hole.wav

Pre-gap length 0:00:00.44

Peak level 97.7 %
Extraction speed 5.6 X
Track quality 100.0 %
Test CRC A36ED714
Copy CRC A36ED714
Track not present in AccurateRip database
Copy OK

Track 7

Filename C:\LosslessII\The Jesus and Mary Chain - Psychocandy (1985) [FLAC] {2011 Deluxe Edition 2CD + DVD}\Disc1\07 - Taste Of Cindy.wav

Pre-gap length 0:00:00.21

Peak level 97.7 %
Extraction speed 5.1 X
Track quality 100.0 %
Test CRC 5B49D047
Copy CRC 5B49D047
Track not present in AccurateRip database
Copy OK

Track 8

Filename C:\LosslessII\The Jesus and Mary Chain - Psychocandy (1985) [FLAC] {2011 Deluxe Edition 2CD + DVD}\Disc1\08 - Never Understand.wav

Pre-gap length 0:00:00.36

Peak level 97.7 %
Extraction speed 6.1 X
Track quality 100.0 %
Test CRC 04F4E46F
Copy CRC 04F4E46F
Track not present in AccurateRip database
Copy OK

Track 9

Filename C:\LosslessII\The Jesus and Mary Chain - Psychocandy (1985) [FLAC] {2011 Deluxe Edition 2CD + DVD}\Disc1\09 - Inside Me.wav

Pre-gap length 0:00:00.10

Peak level 97.7 %
Extraction speed 6.4 X
Track quality 100.0 %
Test CRC 76F00013
Copy CRC 76F00013
Track not present in AccurateRip database
Copy OK

Track 10

Filename C:\LosslessII\The Jesus and Mary Chain - Psychocandy (1985) [FLAC] {2011 Deluxe Edition 2CD + DVD}\Disc1\10 - Sowing Seeds.wav

Pre-gap length 0:00:00.12

Peak level 97.7 %
Extraction speed 4.8 X
Track quality 99.9 %
Test CRC 06069170
Copy CRC 06069170
Track not present in AccurateRip database
Copy OK

Track 11

Filename C:\LosslessII\The Jesus and Mary Chain - Psychocandy (1985) [FLAC] {2011 Deluxe Edition 2CD + DVD}\Disc1\11 - My Little Underground.wav

Pre-gap length 0:00:00.26

Peak level 97.7 %
Extraction speed 6.5 X
Track quality 100.0 %
Test CRC EA818194
Copy CRC EA818194
Track not present in AccurateRip database
Copy OK

Track 12

Filename C:\LosslessII\The Jesus and Mary Chain - Psychocandy (1985) [FLAC] {2011 Deluxe Edition 2CD + DVD}\Disc1\12 - You Trip Me Up.wav

Pre-gap length 0:00:00.23

Peak level 97.7 %
Extraction speed 6.6 X
Track quality 100.0 %
Test CRC 5AAF013E
Copy CRC 5AAF013E
Track not present in AccurateRip database
Copy OK

Track 13

Filename C:\LosslessII\The Jesus and Mary Chain - Psychocandy (1985) [FLAC] {2011 Deluxe Edition 2CD + DVD}\Disc1\13 - Something's Wrong.wav

Pre-gap length 0:00:00.16

Peak level 97.7 %
Extraction speed 7.5 X
Track quality 100.0 %
Test CRC 6819CBE9
Copy CRC 6819CBE9
Track not present in AccurateRip database
Copy OK

Track 14

Filename C:\LosslessII\The Jesus and Mary Chain - Psychocandy (1985) [FLAC] {2011 Deluxe Edition 2CD + DVD}\Disc1\14 - It's So Hard.wav

Pre-gap length 0:00:00.04

Peak level 97.7 %
Extraction speed 5.3 X
Track quality 99.9 %
Test CRC 6FA053D5
Copy CRC 6FA053D5
Track not present in AccurateRip database
Copy OK

Track 15

Filename C:\LosslessII\The Jesus and Mary Chain - Psychocandy (1985) [FLAC] {2011 Deluxe Edition 2CD + DVD}\Disc1\15 - Suck (Never Understand B-Side).wav

Pre-gap length 0:00:03.18

Peak level 99.4 %
Extraction speed 6.9 X
Track quality 100.0 %
Test CRC BAFB0B02
Copy CRC BAFB0B02
Track not present in AccurateRip database
Copy OK

Track 16

Filename C:\LosslessII\The Jesus and Mary Chain - Psychocandy (1985) [FLAC] {2011 Deluxe Edition 2CD + DVD}\Disc1\16 - Ambition (Never Understand B-Side).wav

Pre-gap length 0:00:01.74

Peak level 97.9 %
Extraction speed 7.8 X
Track quality 100.0 %
Test CRC 06B8D534
Copy CRC 06B8D534
Track not present in AccurateRip database
Copy OK

Track 17

Filename C:\LosslessII\The Jesus and Mary Chain - Psychocandy (1985) [FLAC] {2011 Deluxe Edition 2CD + DVD}\Disc1\17 - Just Out Of Reach (You Trip Me Up B-Side).wav

Pre-gap length 0:00:01.74

Peak level 97.6 %
Extraction speed 7.2 X
Track quality 100.0 %
Test CRC DABB7319
Copy CRC DABB7319
Track not present in AccurateRip database
Copy OK

Track 18

Filename C:\LosslessII\The Jesus and Mary Chain - Psychocandy (1985) [FLAC] {2011 Deluxe Edition 2CD + DVD}\Disc1\18 - Boyfriend's Dead (You Trip Me Up B-Side).wav

Pre-gap length 0:00:01.74

Peak level 97.6 %
Extraction speed 7.0 X
Track quality 100.0 %
Test CRC 3B620B4C
Copy CRC 3B620B4C
Track not present in AccurateRip database
Copy OK

Track 19

Filename C:\LosslessII\The Jesus and Mary Chain - Psychocandy (1985) [FLAC] {2011 Deluxe Edition 2CD + DVD}\Disc1\19 - Head (Just Like Honey B-Side).wav

Pre-gap length 0:00:01.74

Peak level 93.3 %
Extraction speed 8.4 X
Track quality 100.0 %
Test CRC 768955F2
Copy CRC 768955F2
Track not present in AccurateRip database
Copy OK

Track 20

Filename C:\LosslessII\The Jesus and Mary Chain - Psychocandy (1985) [FLAC] {2011 Deluxe Edition 2CD + DVD}\Disc1\20 - Cracked (Just Like Honey B-Side).wav

Pre-gap length 0:00:01.74

Peak level 98.0 %
Extraction speed 8.7 X
Track quality 100.0 %
Test CRC 3FB0DFFB
Copy CRC 3FB0DFFB
Track not present in AccurateRip database
Copy OK


None of the tracks are present in the AccurateRip database

No errors occurred

End of status report

==== Log checksum B969769253D27F8A9D1B5A8E3028D5F3FE26ADA9988031A9D25B23B4B4EF3235 ====

[CUETools log; Date: 19.10.2017 3:43:19; Version: 2.1.4]
[CTDB TOCID: R_YyOCpYvPCBIFYO1_0yg2E0aUE-] found.
Track | CTDB Status
1 | (55/55) Accurately ripped
2 | (55/55) Accurately ripped
3 | (55/55) Accurately ripped
4 | (55/55) Accurately ripped
5 | (55/55) Accurately ripped
6 | (55/55) Accurately ripped
7 | (55/55) Accurately ripped
8 | (55/55) Accurately ripped
9 | (55/55) Accurately ripped
10 | (55/55) Accurately ripped
11 | (55/55) Accurately ripped
12 | (55/55) Accurately ripped
13 | (54/55) Accurately ripped
14 | (53/55) Accurately ripped
15 | (52/55) Accurately ripped
16 | (42/55) Accurately ripped, or (1/55) differs in 28 samples @03:13:67-03:13:68
17 | (42/55) Accurately ripped, or (1/55) differs in 28 samples @01:56:18-01:56:19
18 | (49/55) Accurately ripped
19 | (43/55) Accurately ripped, or (1/55) differs in 27 samples @00:29:33
20 | (47/55) Accurately ripped
[AccurateRip ID: 00279b7b-02460ad1-000d2c14] found.
Track [ CRC | V2 ] Status
01 [b2bfe9a4|6d15cd54] (10+41/65) Accurately ripped
02 [e90f5203|4bc973e7] (10+41/65) Accurately ripped
03 [131191b3|9d271ad7] (10+41/65) Accurately ripped
04 [829c8c4a|ae460182] (10+41/65) Accurately ripped
05 [78c551a4|7ff338da] (10+41/65) Accurately ripped
06 [d45d4bf0|e0f31016] (10+41/65) Accurately ripped
07 [447c0f1b|debfb454] (10+41/65) Accurately ripped
08 [16c4bf4f|c4be2306] (10+41/65) Accurately ripped
09 [87923d50|87ec71f6] (10+41/65) Accurately ripped
10 [86abf51f|3a82bebc] (10+41/65) Accurately ripped
11 [3a8d3041|a5134150] (10+41/65) Accurately ripped
12 [560be86b|778d610c] (10+40/64) Accurately ripped
13 [369bc21e|cf2970ab] (10+36/60) Accurately ripped
14 [bba13934|1af15f12] (10+39/63) Accurately ripped
15 [2ec7b3e7|18f0cf1e] (09+36/59) Accurately ripped
16 [7d21294c|4c0a9591] (06+27/47) Accurately ripped
17 [e92dc919|e2b4047a] (08+26/50) Accurately ripped
18 [b1beec1a|cbe9b513] (10+32/56) Accurately ripped
19 [d3865a9b|af63d685] (08+28/50) Accurately ripped
20 [65ed7fdd|7b2a1827] (09+31/54) Accurately ripped
Offsetted by 6:
01 [43b168fa] (00/65) No match (V2 was not tested)
02 [b49d158c] (00/65) No match (V2 was not tested)
03 [21513d81] (00/65) No match (V2 was not tested)
04 [1e4c1b28] (00/65) No match (V2 was not tested)
05 [37140453] (00/65) No match (V2 was not tested)
06 [451df712] (00/65) No match (V2 was not tested)
07 [b797a4fb] (00/65) No match (V2 was not tested)
08 [035d5537] (00/65) No match (V2 was not tested)
09 [6828c8f6] (00/65) No match (V2 was not tested)
10 [6440f17e] (00/65) No match (V2 was not tested)
11 [d3c2b588] (00/65) No match (V2 was not tested)
12 [d205b3b5] (00/64) No match (V2 was not tested)
13 [8dfe8e92] (00/60) No match (V2 was not tested)
14 [390c5cee] (00/63) No match (V2 was not tested)
15 [e6c07dd3] (00/59) No match (V2 was not tested)
16 [11291f76] (00/47) No match (V2 was not tested)
17 [d0c28625] (00/50) No match (V2 was not tested)
18 [07b2608e] (00/56) No match (V2 was not tested)
19 [4603d14d] (00/50) No match (V2 was not tested)
20 [ffe9e28d] (00/54) No match (V2 was not tested)

Track Peak [ CRC32 ] [W/O NULL] [ LOG ]
– 99,4 [21125E3F] [278786EF]
01 97,7 [AF29879B] [01C755D5] CRC32
02 97,7 [1F09F60F] [FF85BF04] CRC32
03 97,7 [CAC8B525] [4EBFAB93] CRC32
04 97,7 [B5F3DD6F] [0DBA2C37] CRC32
05 97,7 [A218B66C] [EE022E33] CRC32
06 97,7 [A36ED714] [A0E27F7B] CRC32
07 97,7 [5B49D047] [49DD8921] CRC32
08 97,7 [04F4E46F] [68D4E71A] CRC32
09 97,7 [76F00013] [0C547F48] CRC32
10 97,7 [06069170] [B4B8F8A5] CRC32
11 97,7 [EA818194] [5EDBEED6] CRC32
12 97,7 [5AAF013E] [92AA4257] CRC32
13 97,7 [6819CBE9] [C6E3FBFA] CRC32
14 97,7 [6FA053D5] [45B64529] CRC32
15 99,4 [BAFB0B02] [66B59B0E] CRC32
16 97,9 [06B8D534] [4C14DE58] CRC32
17 97,6 [DABB7319] [40C94CD3] CRC32
18 97,6 [3B620B4C] [5E2715B0] CRC32
19 93,3 [768955F2] [C2155121] CRC32
20 98,0 [3FB0DFFB] [DD23E2A1] CRC32

foobar2000 1.2 / Dynamic Range Meter 1.1.1
log date: 2014-03-13 15:42:32

––––––––––––––––––––––––––––––––––––––––
Analyzed: The Jesus and Mary Chain / Psychocandy (2011 Deluxe Edition) (Disc 1)
––––––––––––––––––––––––––––––––––––––––

DR Peak RMS Duration Track
––––––––––––––––––––––––––––––––––––––––
DR6 -0.20 dB -8.29 dB 3:03 01-Just Like Honey
DR7 -0.20 dB -7.48 dB 2:17 02-The Living End
DR6 -0.20 dB -7.01 dB 2:57 03-Taste The Floor
DR6 -0.20 dB -7.39 dB 2:37 04-The Hardest Walk
DR7 -0.20 dB -8.57 dB 2:47 05-Cut Dead
DR6 -0.20 dB -6.82 dB 3:02 06-In A Hole
DR6 -0.20 dB -7.06 dB 1:41 07-Taste Of Cindy
DR6 -0.20 dB -6.64 dB 2:58 08-Never Understand
DR6 -0.20 dB -6.89 dB 3:10 09-Inside Me
DR6 -0.20 dB -7.25 dB 2:50 10-Sowing Seeds
DR7 -0.20 dB -7.73 dB 2:31 11-My Little Underground
DR6 -0.20 dB -6.96 dB 2:25 12-You Trip Me Up
DR6 -0.20 dB -7.19 dB 4:01 13-Something's Wrong
DR6 -0.20 dB -7.72 dB 2:41 14-It's So Hard
DR7 -0.05 dB -9.12 dB 2:08 15-Suck (Never Understand B-Side)
DR6 -0.18 dB -7.24 dB 3:31 16-Ambition (Never Understand B-Side)
DR8 -0.21 dB -10.70 dB 2:09 17-Just Out Of Reach (You Trip Me Up B-Side)
DR5 -0.21 dB -8.80 dB 1:43 18-Boyfriend's Dead (You Trip Me Up B-Side)
DR4 -0.60 dB -8.40 dB 3:53 19-Head (Just Like Honey B-Side)
DR7 -0.17 dB -9.49 dB 3:48 20-Cracked (Just Like Honey B-Side)
––––––––––––––––––––––––––––––––––––––––

Number of tracks: 20
Official DR value: DR6

Samplerate: 44100 Hz
Channels: 2
Bits per sample: 16
Bitrate: 941 kbps
Codec: FLAC
================================================================================


Exact Audio Copy V1.0 beta 1 from 15. November 2010

EAC extraction logfile from 4. October 2011, 16:40

The Jesus and Mary Chain / Psychocandy (2011 Deluxe Edition) (Disc 2)

Used drive : TSSTcorpCDDVDW SH-222AL Adapter: 0 ID: 1

Read mode : Secure
Utilize accurate stream : Yes
Defeat audio cache : Yes
Make use of C2 pointers : No

Read offset correction : 6
Overread into Lead-In and Lead-Out : No
Fill up missing offset samples with silence : Yes
Delete leading and trailing silent blocks : No
Null samples used in CRC calculations : Yes
Used interface : Native Win32 interface for Win NT & 2000
Gap handling : Appended to previous track

Used output format : User Defined Encoder
Selected bitrate : 768 kBit/s
Quality : High
Add ID3 tag : No
Command line compressor : C:\Program Files\EAC\Flac\flac.exe
Additional command line options : -8 -V -T "ARTIST=%a" -T "TITLE=%t" -T "ALBUM=%g" -T "DATE=%y" -T "TRACKNUMBER=%n" -T "TOTALTRACKS=%x" -T "GENRE=%m" -T "ALBUMARTIST=%v" -T "ALBUM ARTIST=%v" -T "COMMENT=EAC Secure Mode, Test & Copy, AccurateRip, FLAC -8" %s


TOC of the extracted CD

Track | Start | Length | Start sector | End sector
––––––––––––––––––––––––––––-
1 | 0:00.00 | 2:59.55 | 0 | 13479
2 | 2:59.55 | 3:34.71 | 13480 | 29600
3 | 6:34.51 | 2:41.23 | 29601 | 41698
4 | 9:15.74 | 2:07.09 | 41699 | 51232
5 | 11:23.08 | 3:08.31 | 51233 | 65363
6 | 14:31.39 | 3:08.04 | 65364 | 79467
7 | 17:39.43 | 2:15.18 | 79468 | 89610
8 | 19:54.61 | 3:00.50 | 89611 | 103160
9 | 22:55.36 | 2:48.64 | 103161 | 115824
10 | 25:44.25 | 3:12.40 | 115825 | 130264
11 | 28:56.65 | 2:00.68 | 130265 | 139332
12 | 30:57.58 | 2:40.50 | 139333 | 151382
13 | 33:38.33 | 2:46.42 | 151383 | 163874
14 | 36:25.00 | 3:43.43 | 163875 | 180642
15 | 40:08.43 | 3:09.48 | 180643 | 194865
16 | 43:18.16 | 3:18.10 | 194866 | 209725
17 | 46:36.26 | 3:06.19 | 209726 | 223694
18 | 49:42.45 | 2:41.62 | 223695 | 235831
19 | 52:24.32 | 3:26.65 | 235832 | 251346
20 | 55:51.22 | 2:57.47 | 251347 | 264668
21 | 58:48.69 | 2:16.12 | 264669 | 274880
22 | 61:05.06 | 2:32.48 | 274881 | 286328
23 | 63:37.54 | 3:25.13 | 286329 | 301716
24 | 67:02.67 | 2:29.65 | 301717 | 312956


Track 1

Filename C:\LosslessII\The Jesus and Mary Chain - Psychocandy (1985) [FLAC] {2011 Deluxe Edition 2CD + DVD}\Disc2\01 - Upside Down.wav

Pre-gap length 0:00:02.00

Peak level 99.4 %
Extraction speed 4.3 X
Track quality 100.0 %
Test CRC C59288FF
Copy CRC C59288FF
Track not present in AccurateRip database
Copy OK

Track 2

Filename C:\LosslessII\The Jesus and Mary Chain - Psychocandy (1985) [FLAC] {2011 Deluxe Edition 2CD + DVD}\Disc2\02 - Vegetable Man.wav

Pre-gap length 0:00:01.00

Peak level 99.4 %
Extraction speed 4.9 X
Track quality 100.0 %
Test CRC 61546E5E
Copy CRC 61546E5E
Track not present in AccurateRip database
Copy OK

Track 3

Filename C:\LosslessII\The Jesus and Mary Chain - Psychocandy (1985) [FLAC] {2011 Deluxe Edition 2CD + DVD}\Disc2\03 - In A Hole (John Peel Session 23rd October 1984).wav

Pre-gap length 0:00:01.22

Peak level 99.4 %
Extraction speed 4.9 X
Track quality 100.0 %
Test CRC E0321E32
Copy CRC E0321E32
Track not present in AccurateRip database
Copy OK

Track 4

Filename C:\LosslessII\The Jesus and Mary Chain - Psychocandy (1985) [FLAC] {2011 Deluxe Edition 2CD + DVD}\Disc2\04 - You Trip Me Up (John Peel Session 23rd October 1984).wav

Pre-gap length 0:00:00.59

Peak level 99.4 %
Extraction speed 4.8 X
Track quality 100.0 %
Test CRC 11D495E7
Copy CRC 11D495E7
Track not present in AccurateRip database
Copy OK

Track 5

Filename C:\LosslessII\The Jesus and Mary Chain - Psychocandy (1985) [FLAC] {2011 Deluxe Edition 2CD + DVD}\Disc2\05 - Never Understand (John Peel Session 23rd October 1984).wav

Pre-gap length 0:00:00.42

Peak level 99.4 %
Extraction speed 5.6 X
Track quality 100.0 %
Test CRC B86C6711
Copy CRC B86C6711
Track not present in AccurateRip database
Copy OK

Track 6

Filename C:\LosslessII\The Jesus and Mary Chain - Psychocandy (1985) [FLAC] {2011 Deluxe Edition 2CD + DVD}\Disc2\06 - Taste The Floor (John Peel Session 23rd October 1984).wav

Pre-gap length 0:00:00.01

Peak level 99.4 %
Extraction speed 5.8 X
Track quality 100.0 %
Test CRC C5F714A2
Copy CRC C5F714A2
Track not present in AccurateRip database
Copy OK

Track 7

Filename C:\LosslessII\The Jesus and Mary Chain - Psychocandy (1985) [FLAC] {2011 Deluxe Edition 2CD + DVD}\Disc2\07 - The Living End (John Peel Session 3rd February 1985).wav

Pre-gap length 0:00:00.33

Peak level 99.4 %
Extraction speed 5.6 X
Track quality 100.0 %
Test CRC 195574AE
Copy CRC 195574AE
Track not present in AccurateRip database
Copy OK

Track 8

Filename C:\LosslessII\The Jesus and Mary Chain - Psychocandy (1985) [FLAC] {2011 Deluxe Edition 2CD + DVD}\Disc2\08 - Inside Me (John Peel Session 3rd February 1985).wav

Pre-gap length 0:00:00.46

Peak level 99.4 %
Extraction speed 4.6 X
Track quality 99.9 %
Test CRC E38140D3
Copy CRC E38140D3
Track not present in AccurateRip database
Copy OK

Track 9

Filename C:\LosslessII\The Jesus and Mary Chain - Psychocandy (1985) [FLAC] {2011 Deluxe Edition 2CD + DVD}\Disc2\09 - Just Like Honey (John Peel Session 3rd February 1985).wav

Pre-gap length 0:00:00.44

Peak level 99.4 %
Extraction speed 6.2 X
Track quality 100.0 %
Test CRC D9F0FA2B
Copy CRC D9F0FA2B
Track not present in AccurateRip database
Copy OK

Track 10

Filename C:\LosslessII\The Jesus and Mary Chain - Psychocandy (1985) [FLAC] {2011 Deluxe Edition 2CD + DVD}\Disc2\10 - Some Candy Talking (John Peel Session 29th October 1985).wav

Pre-gap length 0:00:01.02

Peak level 98.0 %
Extraction speed 6.7 X
Track quality 100.0 %
Test CRC EE44A7EC
Copy CRC EE44A7EC
Track not present in AccurateRip database
Copy OK

Track 11

Filename C:\LosslessII\The Jesus and Mary Chain - Psychocandy (1985) [FLAC] {2011 Deluxe Edition 2CD + DVD}\Disc2\11 - Psychocandy (John Peel Session 29th October 1985).wav

Pre-gap length 0:00:00.21

Peak level 98.0 %
Extraction speed 6.2 X
Track quality 100.0 %
Test CRC A699154C
Copy CRC A699154C
Track not present in AccurateRip database
Copy OK

Track 12

Filename C:\LosslessII\The Jesus and Mary Chain - Psychocandy (1985) [FLAC] {2011 Deluxe Edition 2CD + DVD}\Disc2\12 - You Trip Me Up (John Peel Session 29th October 1985).wav

Pre-gap length 0:00:00.42

Peak level 98.0 %
Extraction speed 6.8 X
Track quality 100.0 %
Test CRC C68D7A88
Copy CRC C68D7A88
Track not present in AccurateRip database
Copy OK

Track 13

Filename C:\LosslessII\The Jesus and Mary Chain - Psychocandy (1985) [FLAC] {2011 Deluxe Edition 2CD + DVD}\Disc2\13 - Cut Dead (John Peel Session 29th October 1985).wav

Peak level 98.0 %
Extraction speed 7.0 X
Track quality 100.0 %
Test CRC 958D0109
Copy CRC 958D0109
Track not present in AccurateRip database
Copy OK

Track 14

Filename C:\LosslessII\The Jesus and Mary Chain - Psychocandy (1985) [FLAC] {2011 Deluxe Edition 2CD + DVD}\Disc2\14 - Up Too High (Demo).wav

Pre-gap length 0:00:00.41

Peak level 93.1 %
Extraction speed 7.5 X
Track quality 100.0 %
Test CRC B079762F
Copy CRC B079762F
Track not present in AccurateRip database
Copy OK

Track 15

Filename C:\LosslessII\The Jesus and Mary Chain - Psychocandy (1985) [FLAC] {2011 Deluxe Edition 2CD + DVD}\Disc2\15 - Upside Down (Demo).wav

Pre-gap length 0:00:00.46

Peak level 99.4 %
Extraction speed 7.5 X
Track quality 100.0 %
Test CRC 2B7AD128
Copy CRC 2B7AD128
Track not present in AccurateRip database
Copy OK

Track 16

Filename C:\LosslessII\The Jesus and Mary Chain - Psychocandy (1985) [FLAC] {2011 Deluxe Edition 2CD + DVD}\Disc2\16 - Never Understand (Demo).wav

Pre-gap length 0:00:00.15

Peak level 84.5 %
Extraction speed 7.8 X
Track quality 100.0 %
Test CRC 5110E147
Copy CRC 5110E147
Track not present in AccurateRip database
Copy OK

Track 17

Filename C:\LosslessII\The Jesus and Mary Chain - Psychocandy (1985) [FLAC] {2011 Deluxe Edition 2CD + DVD}\Disc2\17 - Taste The Floor (Demo).wav

Pre-gap length 0:00:00.46

Peak level 89.1 %
Extraction speed 7.9 X
Track quality 100.0 %
Test CRC B019FC30
Copy CRC B019FC30
Track not present in AccurateRip database
Copy OK

Track 18

Filename C:\LosslessII\The Jesus and Mary Chain - Psychocandy (1985) [FLAC] {2011 Deluxe Edition 2CD + DVD}\Disc2\18 - In A Hole (Demo).wav

Pre-gap length 0:00:00.62

Peak level 90.8 %
Extraction speed 7.8 X
Track quality 100.0 %
Test CRC 3FE3A8ED
Copy CRC 3FE3A8ED
Track not present in AccurateRip database
Copy OK

Track 19

Filename C:\LosslessII\The Jesus and Mary Chain - Psychocandy (1985) [FLAC] {2011 Deluxe Edition 2CD + DVD}\Disc2\19 - Something's Wrong (Demo).wav

Pre-gap length 0:00:00.30

Peak level 99.4 %
Extraction speed 6.5 X
Track quality 99.9 %
Test CRC 83B3CBB4
Copy CRC 83B3CBB4
Track not present in AccurateRip database
Copy OK

Track 20

Filename C:\LosslessII\The Jesus and Mary Chain - Psychocandy (1985) [FLAC] {2011 Deluxe Edition 2CD + DVD}\Disc2\20 - Just Like Honey (Demo).wav

Pre-gap length 0:00:00.39

Peak level 99.4 %
Extraction speed 6.2 X
Track quality 99.9 %
Test CRC 5D92100F
Copy CRC 5D92100F
Track not present in AccurateRip database
Copy OK

Track 21

Filename C:\LosslessII\The Jesus and Mary Chain - Psychocandy (1985) [FLAC] {2011 Deluxe Edition 2CD + DVD}\Disc2\21 - The Livng End (Demo).wav

Pre-gap length 0:00:00.48

Peak level 99.4 %
Extraction speed 5.6 X
Track quality 99.9 %
Test CRC 767F165F
Copy CRC 767F165F
Track not present in AccurateRip database
Copy OK

Track 22

Filename C:\LosslessII\The Jesus and Mary Chain - Psychocandy (1985) [FLAC] {2011 Deluxe Edition 2CD + DVD}\Disc2\22 - My Little Underground (Demo).wav

Pre-gap length 0:00:00.30

Peak level 89.1 %
Extraction speed 8.4 X
Track quality 100.0 %
Test CRC BCD1B1F6
Copy CRC BCD1B1F6
Track not present in AccurateRip database
Copy OK

Track 23

Filename C:\LosslessII\The Jesus and Mary Chain - Psychocandy (1985) [FLAC] {2011 Deluxe Edition 2CD + DVD}\Disc2\23 - Never Understand (Alternate Version).wav

Pre-gap length 0:00:00.32

Peak level 88.7 %
Extraction speed 8.9 X
Track quality 100.0 %
Test CRC 77A405D6
Copy CRC 77A405D6
Track not present in AccurateRip database
Copy OK

Track 24

Filename C:\LosslessII\The Jesus and Mary Chain - Psychocandy (1985) [FLAC] {2011 Deluxe Edition 2CD + DVD}\Disc2\24 - Jesus Fuck.wav

Pre-gap length 0:00:00.19

Peak level 98.0 %
Extraction speed 8.6 X
Track quality 100.0 %
Test CRC F0FBB181
Copy CRC F0FBB181
Track not present in AccurateRip database
Copy OK


None of the tracks are present in the AccurateRip database

No errors occurred

End of status report

==== Log checksum 001538E0F716648D3A506F48621D017A79F9ECD85C7549A5C1032031743BE97F ====

[CUETools log; Date: 19.10.2017 3:43:46; Version: 2.1.4]
[CTDB TOCID: t1udl27Jdi8wuGS8rT_ObWkNBdc-] found.
Track | CTDB Status
1 | (47/47) Accurately ripped
2 | (47/47) Accurately ripped
3 | (47/47) Accurately ripped
4 | (47/47) Accurately ripped
5 | (47/47) Accurately ripped
6 | (47/47) Accurately ripped
7 | (47/47) Accurately ripped
8 | (47/47) Accurately ripped
9 | (47/47) Accurately ripped
10 | (47/47) Accurately ripped
11 | (47/47) Accurately ripped
12 | (47/47) Accurately ripped
13 | (47/47) Accurately ripped
14 | (47/47) Accurately ripped
15 | (47/47) Accurately ripped
16 | (47/47) Accurately ripped
17 | (47/47) Accurately ripped
18 | (47/47) Accurately ripped
19 | (47/47) Accurately ripped
20 | (47/47) Accurately ripped
21 | (47/47) Accurately ripped
22 | (47/47) Accurately ripped
23 | (47/47) Accurately ripped
24 | (47/47) Accurately ripped
[AccurateRip ID: 003bad30-040b2c78-6c104c18] found.
Track [ CRC | V2 ] Status
01 [082b772b|de4a4ff3] (11+50/61) Accurately ripped
02 [c25f3e7d|50e53fb4] (11+50/61) Accurately ripped
03 [68a8ee58|1769227f] (11+48/59) Accurately ripped
04 [7fc893b6|3c697dd0] (11+50/61) Accurately ripped
05 [a69f745c|f754e7e8] (11+50/61) Accurately ripped
06 [cd32fdb5|547928be] (11+50/61) Accurately ripped
07 [8af210ca|9c6b335b] (11+50/61) Accurately ripped
08 [709ff032|573b9728] (11+50/61) Accurately ripped
09 [bfdce080|5787f58f] (11+50/61) Accurately ripped
10 [336ac8d3|d5345c3a] (11+50/61) Accurately ripped
11 [49061c3b|f4eef921] (11+50/61) Accurately ripped
12 [40b8f1fe|d30477c6] (11+50/61) Accurately ripped
13 [30c36e03|65751743] (11+51/62) Accurately ripped
14 [2a233c44|05d30792] (11+51/62) Accurately ripped
15 [5a0634e3|c3c37eac] (11+51/62) Accurately ripped
16 [f0776b67|7ea24edd] (11+51/62) Accurately ripped
17 [8a11058f|8a25b6d0] (11+51/62) Accurately ripped
18 [559fb8d7|d37d0b47] (11+51/62) Accurately ripped
19 [65897f4c|5da26b2b] (11+51/62) Accurately ripped
20 [7e77a288|2edc5c58] (11+51/62) Accurately ripped
21 [ce17fcfd|3934bc00] (11+51/62) Accurately ripped
22 [a15c19d6|aac6da92] (11+51/62) Accurately ripped
23 [abce1e20|e0c07b80] (11+51/62) Accurately ripped
24 [da77fcaf|ac6a5aef] (11+51/62) Accurately ripped

Track Peak [ CRC32 ] [W/O NULL] [ LOG ]
– 99,4 [B0538A10] [EF852F87]
01 99,4 [C59288FF] [3E87527B] CRC32
02 99,4 [61546E5E] [59D54D31] CRC32
03 99,4 [E0321E32] [90C4AF4A] CRC32
04 99,4 [11D495E7] [4A03510F] CRC32
05 99,4 [B86C6711] [55A10ED4] CRC32
06 99,4 [C5F714A2] [CB6A8953] CRC32
07 99,4 [195574AE] [61AF3E16] CRC32
08 99,4 [E38140D3] [89555E51] CRC32
09 99,4 [D9F0FA2B] [0971EDC0] CRC32
10 98,0 [EE44A7EC] [E46271F4] CRC32
11 98,0 [A699154C] [9769F6E3] CRC32
12 98,0 [C68D7A88] [70AEBC3F] CRC32
13 98,0 [958D0109] [07A55923] CRC32
14 93,1 [B079762F] [9F7F1A37] CRC32
15 99,4 [2B7AD128] [FC41A6B7] CRC32
16 84,5 [5110E147] [4B3F0F31] CRC32
17 89,1 [B019FC30] [FEC15188] CRC32
18 90,8 [3FE3A8ED] [6586813A] CRC32
19 99,4 [83B3CBB4] [B252FE20] CRC32
20 99,4 [5D92100F] [3E508354] CRC32
21 99,4 [767F165F] [2A97499B] CRC32
22 89,1 [BCD1B1F6] [E5E43BAD] CRC32
23 88,7 [77A405D6] [084E2BDD] CRC32
24 98,0 [F0FBB181] [0724DF79] CRC32

foobar2000 1.2 / Dynamic Range Meter 1.1.1
log date: 2014-03-13 15:42:54

––––––––––––––––––––––––––––––––––––––––
Analyzed: The Jesus and Mary Chain / Psychocandy (2011 Deluxe Edition) (Disc 2)
––––––––––––––––––––––––––––––––––––––––

DR Peak RMS Duration Track
––––––––––––––––––––––––––––––––––––––––
DR8 -0.05 dB -8.87 dB 3:00 01-Upside Down
DR8 -0.05 dB -10.18 dB 3:35 02-Vegetable Man
DR8 -0.05 dB -8.98 dB 2:41 03-In A Hole (John Peel Session 23rd October 1984)
DR8 -0.05 dB -8.64 dB 2:07 04-You Trip Me Up (John Peel Session 23rd October 1984)
DR8 -0.05 dB -8.24 dB 3:08 05-Never Understand (John Peel Session 23rd October 1984)
DR8 -0.05 dB -9.14 dB 3:08 06-Taste The Floor (John Peel Session 23rd October 1984)
DR8 -0.05 dB -9.23 dB 2:15 07-The Living End (John Peel Session 3rd February 1985)
DR8 -0.05 dB -9.05 dB 3:01 08-Inside Me (John Peel Session 3rd February 1985)
DR8 -0.05 dB -9.74 dB 2:49 09-Just Like Honey (John Peel Session 3rd February 1985)
DR11 -0.17 dB -13.41 dB 3:13 10-Some Candy Talking (John Peel Session 29th October 1985)
DR7 -0.17 dB -8.92 dB 2:01 11-Psychocandy (John Peel Session 29th October 1985)
DR10 -0.17 dB -12.71 dB 2:41 12-You Trip Me Up (John Peel Session 29th October 1985)
DR11 -0.17 dB -13.88 dB 2:47 13-Cut Dead (John Peel Session 29th October 1985)
DR7 -0.62 dB -8.68 dB 3:44 14-Up Too High (Demo)
DR6 -0.05 dB -7.52 dB 3:10 15-Upside Down (Demo)
DR6 -1.46 dB -8.04 dB 3:18 16-Never Understand (Demo)
DR6 -1.00 dB -7.90 dB 3:06 17-Taste The Floor (Demo)
DR7 -0.83 dB -8.56 dB 2:42 18-In A Hole (Demo)
DR8 -0.05 dB -8.61 dB 3:27 19-Something's Wrong (Demo)
DR9 -0.05 dB -11.01 dB 2:58 20-Just Like Honey (Demo)
DR8 -0.05 dB -8.80 dB 2:16 21-The Livng End (Demo)
DR6 -1.00 dB -7.98 dB 2:33 22-My Little Underground (Demo)
DR6 -1.04 dB -8.83 dB 3:25 23-Never Understand (Alternate Version)
DR6 -0.17 dB -7.35 dB 2:30 24-Jesus Fuck
––––––––––––––––––––––––––––––––––––––––

Number of tracks: 24
Official DR value: DR8

Samplerate: 44100 Hz
Channels: 2
Bits per sample: 16
Bitrate: 1005 kbps
Codec: FLAC
================================================================================




The Jesus And Mary Chain - Albums Collection 1985-1993 (6CD + 2DVD)

The Jesus And Mary Chain - Albums Collection 1985-1993 (6CD + 2DVD)

The Jesus And Mary Chain - Albums Collection 1985-1993 (6CD + 2DVD)

The Jesus And Mary Chain - Albums Collection 1985-1993 (6CD + 2DVD)

The Jesus And Mary Chain - Albums Collection 1985-1993 (6CD + 2DVD)

The Jesus And Mary Chain - Albums Collection 1985-1993 (6CD + 2DVD)

The Jesus And Mary Chain - Albums Collection 1985-1993 (6CD + 2DVD)


DVD Content:

PROMO VIDEOS

1. Never Understand
2. You Trip Me Up
3. Just Like Honey

TV APPEARANCES

4. In A Hole - Old Grey Whistle Test, BBC, 12th March 1985
5. Riot at North London Polytechnic - 15th March 1985
6. Interview - VRT Belgium, 17th March 1985
7. Never Understand - VRT Belgium, 17th March 1985
8. Just Like Honey - Live on the Tube, Channel 4, 11th October 1985
9. Inside Me - Live on the Tube, Channel 4, 11th October 1985


The Jesus And Mary Chain - Albums Collection 1985-1993 (6CD + 2DVD)

The Jesus And Mary Chain - Albums Collection 1985-1993 (6CD + 2DVD)




The Jesus And Mary Chain - Albums Collection 1985-1993 (6CD + 2DVD)

The Jesus and Mary Chain - Darklands (1987)
2CD + DVD Expanded Remastered Deluxe Edition 2011

EAC | FLAC | Tracks (Cue&Log) ~ 935 Mb | Mp3 (CBR320) ~ 321 Mb | Time: 02:17:42
DVD5 | VIDEO_TS | NTSC, 4:3 (720x480) VBR | AC3, 2.0 ch, 224 kbps | 00:29:18 | 1.5 Gb
Label: Edsel/Rhino | # EDSG 8007 | Scans ~ 98 Mb

Expanded three disc (two CDs + DVD) edition of this 1987 from the groundbreaking British Alt-Rockers. A more subtle and understated album than their debut, it nevertheless contains their biggest chart hit in 'April Skies' and several of the Reid brothers' most loved songs. Premiering a more expansive and nuanced sound, Jim and William wrote, produced and played everything on here. This deluxe expanded edition features all the non-album B-sides, the pre-Dark lands Some Candy Talking EP, outtakes, BBC Radio Sessions and much more. The DVD features the promo videos for all the singles, a first time on DVD for the band-made film for b-side 'Kill Surf City', and previously unreleased archival TV appearances, including their only appearance on Top of the Pops, alongside performances on Belgian TV and ITV's short-lived TOTP rival the Roxy.

Feeling no doubt burdened by the various claims of being the new Sex Pistols, and likely fed up with accusations that the walls of feedback were their own trick, the Reid brothers underwent a bit of a rethink with Darklands. The end result must have fallen squarely between two camps – hardly eligible for sunny commercial airplay, not quite as flailing as the earliest efforts – but, from a distance, this is an appealing, enjoyable record. Songs were often longer while the album itself was shorter than Psychocandy, walls of sound were often stripped away in favor of calmer classic rock twang and groove, while William Reid took the lead vocal at points, showing he had a slightly sweeter, wistful tone in comparison to his brother. However, the changes on Darklands can be overstated – the basic formula at the heart of the band (inspired plagiarism of melodies and lyrics alike, plenty of reverb, etc.) stayed pretty much the same, even if the mixes were cleaned up – compare "Down on Me" to any Psychocandy cut for a good example of the difference. The use of drum machines in place of Bobby Gillespie's rumble tended to enforce the newer focus, but at the album's best, such a seeming dichotomy didn't cause too much worry. "April Skies" made for a great single, while the soaring-in-spite-of-itself "Happy When It Rains" was another winner, one that Garbage more or less made its own some years later for its own similarly titled hit. William's singing turns made for other highlights as well, notably "Nine Million Rainy Days," the overt misery of the title suiting the dark crawl of the song, and the lengthy lament "On the Wall." Darklands is no Psychocandy in the end – nothing the band released later ever was – but it's still a good listen.

Review by Ned Raggett, Allmusic.com


Tracklist:

CD1:

01. Darklands (05:28)
02. Deep One Perfect Morning (02:44)
03. Happy When It Rains (03:37)
04. Down On Me (02:36)
05. Nine Million Rainy Days (04:30)
06. April Skies (04:00)
07. Fall (02:29)
08. Cherry Came Too (03:05)
09. On The Wall (05:05)
10. About You (02:34)
11. Some Candy Talking (03:18)
12. Taste Of Cindy (Acoustic Version) (02:00)
13. Psychocandy (02:53)
14. Hit (03:28)
15. Darklands (BBC Janice Long Session 23rd Nov 1986) (04:40)
16. Down On Me (BBC Janice Long Session 23rd Nov 1986) (02:28)
17. Deep One Perfect Morning (BBC Janice Long Session 23rd Nov 1986) (02:36)
18. Fall (BBC John Peel Session 25th Nov 1986) (03:11)
19. In The Rain (BBC John Peel Session 25th Nov 1986) (02:27)
20. Happy Place (BBC John Peel Session 25th Nov 1986) (02:23)

CD2:

01. Kill Surf City (April Skies B-Side) (03:12)
02. Bo Diddley Is Jesus (April Skies B-Side) (03:17)
03. Who Do You Love (April Skies B-Side) (04:04)
04. Everything's Alright When You're Down (Happy When It Rains B-Side) (02:39)
05. Shake (Happy When It Rains B-Side) (02:00)
06. Happy When It Rains (Demo) (Happy When It Rains B-Side) (03:46)
07. Happy Place (Happy When It Rains B-Side) (02:23)
08. F-Hole (Happy When It Rains B-Side) (01:06)
09. Rider (Darklands B-Side) (02:11)
10. On The Wall (Demo) (Darklands B-Side) (03:41)
11. Surfin' USA (April Outtake) (Darklands B-Side) (02:58)
12. Here It Comes Again (Darklands B-Side) (02:31)
13. Walk And Crawl (02:24)
14. Some Candy Talking (NME Version) (03:09)
15. Mushroom (Live) (03:18)
16. The Hardest Walk (Some Kind Of Wonderful OST) (03:12)
17. Don't Ever Change (03:32)
18. Swing (Outtake) (02:25)
19. Darklands (with Strings) (Outtake) (05:26)
20. Janice Long Interview 28th April 1987 (14:36)


Exact Audio Copy V1.0 beta 1 from 15. November 2010

EAC extraction logfile from 10. November 2011, 22:57

The Jesus and Mary Chain / Darklands (2011 Deluxe Edition) (Disc 1)

Used drive : TSSTcorpCDDVDW SH-222AL Adapter: 0 ID: 1

Read mode : Secure
Utilize accurate stream : Yes
Defeat audio cache : Yes
Make use of C2 pointers : No

Read offset correction : 6
Overread into Lead-In and Lead-Out : No
Fill up missing offset samples with silence : Yes
Delete leading and trailing silent blocks : No
Null samples used in CRC calculations : Yes
Used interface : Native Win32 interface for Win NT & 2000
Gap handling : Appended to previous track

Used output format : User Defined Encoder
Selected bitrate : 768 kBit/s
Quality : High
Add ID3 tag : No
Command line compressor : C:\Program Files\EAC\Flac\flac.exe
Additional command line options : -8 -V -T "ARTIST=%a" -T "TITLE=%t" -T "ALBUM=%g" -T "DATE=%y" -T "TRACKNUMBER=%n" -T "TOTALTRACKS=%x" -T "GENRE=%m" -T "ALBUMARTIST=%v" -T "ALBUM ARTIST=%v" -T "COMMENT=EAC Secure Mode, Test & Copy, AccurateRip, FLAC -8" %s


TOC of the extracted CD

Track | Start | Length | Start sector | End sector
––––––––––––––––––––––––––––-
1 | 0:01.02 | 5:28.68 | 77 | 24744
2 | 5:29.70 | 2:44.18 | 24745 | 37062
3 | 8:14.13 | 3:37.20 | 37063 | 53357
4 | 11:51.33 | 2:36.39 | 53358 | 65096
5 | 14:27.72 | 4:30.56 | 65097 | 85402
6 | 18:58.53 | 4:00.40 | 85403 | 103442
7 | 22:59.18 | 2:29.56 | 103443 | 114673
8 | 25:28.74 | 3:05.53 | 114674 | 128601
9 | 28:34.52 | 5:05.07 | 128602 | 151483
10 | 33:39.59 | 2:34.40 | 151484 | 163073
11 | 36:14.24 | 3:18.28 | 163074 | 177951
12 | 39:32.52 | 2:00.35 | 177952 | 186986
13 | 41:33.12 | 2:53.74 | 186987 | 200035
14 | 44:27.11 | 3:28.50 | 200036 | 215685
15 | 47:55.61 | 4:40.03 | 215686 | 236688
16 | 52:35.64 | 2:28.64 | 236689 | 247852
17 | 55:04.53 | 2:36.62 | 247853 | 259614
18 | 57:41.40 | 3:11.09 | 259615 | 273948
19 | 60:52.49 | 2:27.69 | 273949 | 285042
20 | 63:20.43 | 2:23.72 | 285043 | 295839


Track 1

Filename C:\LosslessII\The Jesus and Mary Chain - Darklands (1987) [FLAC] {2011 Deluxe Edition 2CD + DVD}\Disc1\01 - Darklands.wav

Pre-gap length 0:00:03.02

Peak level 98.8 %
Extraction speed 1.9 X
Track quality 100.0 %
Test CRC 449864E1
Copy CRC 449864E1
Track not present in AccurateRip database
Copy OK

Track 2

Filename C:\LosslessII\The Jesus and Mary Chain - Darklands (1987) [FLAC] {2011 Deluxe Edition 2CD + DVD}\Disc1\02 - Deep One Perfect Morning.wav

Pre-gap length 0:00:00.07

Peak level 99.4 %
Extraction speed 1.9 X
Track quality 100.0 %
Test CRC B39C6F79
Copy CRC B39C6F79
Track not present in AccurateRip database
Copy OK

Track 3

Filename C:\LosslessII\The Jesus and Mary Chain - Darklands (1987) [FLAC] {2011 Deluxe Edition 2CD + DVD}\Disc1\03 - Happy When It Rains.wav

Pre-gap length 0:00:00.53

Peak level 98.8 %
Extraction speed 2.1 X
Track quality 100.0 %
Test CRC CC3C8031
Copy CRC CC3C8031
Track not present in AccurateRip database
Copy OK

Track 4

Filename C:\LosslessII\The Jesus and Mary Chain - Darklands (1987) [FLAC] {2011 Deluxe Edition 2CD + DVD}\Disc1\04 - Down On Me.wav

Pre-gap length 0:00:01.12

Peak level 99.4 %
Extraction speed 2.1 X
Track quality 100.0 %
Test CRC 15C19C37
Copy CRC 15C19C37
Track not present in AccurateRip database
Copy OK

Track 5

Filename C:\LosslessII\The Jesus and Mary Chain - Darklands (1987) [FLAC] {2011 Deluxe Edition 2CD + DVD}\Disc1\05 - Nine Million Rainy Days.wav

Pre-gap length 0:00:02.65

Peak level 99.4 %
Extraction speed 2.5 X
Track quality 100.0 %
Test CRC 7453FC98
Copy CRC 7453FC98
Track not present in AccurateRip database
Copy OK

Track 6

Filename C:\LosslessII\The Jesus and Mary Chain - Darklands (1987) [FLAC] {2011 Deluxe Edition 2CD + DVD}\Disc1\06 - April Skies.wav

Pre-gap length 0:00:02.46

Peak level 99.4 %
Extraction speed 2.6 X
Track quality 100.0 %
Test CRC 4504D58D
Copy CRC 4504D58D
Track not present in AccurateRip database
Copy OK

Track 7

Filename C:\LosslessII\The Jesus and Mary Chain - Darklands (1987) [FLAC] {2011 Deluxe Edition 2CD + DVD}\Disc1\07 - Fall.wav

Pre-gap length 0:00:01.15

Peak level 98.8 %
Extraction speed 2.1 X
Track quality 99.9 %
Test CRC 8CA329E7
Copy CRC 8CA329E7
Track not present in AccurateRip database
Copy OK

Track 8

Filename C:\LosslessII\The Jesus and Mary Chain - Darklands (1987) [FLAC] {2011 Deluxe Edition 2CD + DVD}\Disc1\08 - Cherry Came Too.wav

Pre-gap length 0:00:02.38

Peak level 99.4 %
Extraction speed 2.7 X
Track quality 100.0 %
Test CRC 3D9DCCC3
Copy CRC 3D9DCCC3
Track not present in AccurateRip database
Copy OK

Track 9

Filename C:\LosslessII\The Jesus and Mary Chain - Darklands (1987) [FLAC] {2011 Deluxe Edition 2CD + DVD}\Disc1\09 - On The Wall.wav

Pre-gap length 0:00:01.23

Peak level 99.4 %
Extraction speed 3.0 X
Track quality 100.0 %
Test CRC 5D439D3B
Copy CRC 5D439D3B
Track not present in AccurateRip database
Copy OK

Track 10

Filename C:\LosslessII\The Jesus and Mary Chain - Darklands (1987) [FLAC] {2011 Deluxe Edition 2CD + DVD}\Disc1\10 - About You.wav

Pre-gap length 0:00:02.11

Peak level 99.4 %
Extraction speed 2.8 X
Track quality 100.0 %
Test CRC 41D9C881
Copy CRC 41D9C881
Track not present in AccurateRip database
Copy OK

Track 11

Filename C:\LosslessII\The Jesus and Mary Chain - Darklands (1987) [FLAC] {2011 Deluxe Edition 2CD + DVD}\Disc1\11 - Some Candy Talking.wav

Pre-gap length 0:00:02.64

Peak level 98.8 %
Extraction speed 3.0 X
Track quality 100.0 %
Test CRC D511AD70
Copy CRC D511AD70
Track not present in AccurateRip database
Copy OK

Track 12

Filename C:\LosslessII\The Jesus and Mary Chain - Darklands (1987) [FLAC] {2011 Deluxe Edition 2CD + DVD}\Disc1\12 - Taste Of Cindy (Acoustic Version).wav

Pre-gap length 0:00:01.26

Peak level 99.4 %
Extraction speed 2.8 X
Track quality 100.0 %
Test CRC DB28C5B0
Copy CRC DB28C5B0
Track not present in AccurateRip database
Copy OK

Track 13

Filename C:\LosslessII\The Jesus and Mary Chain - Darklands (1987) [FLAC] {2011 Deluxe Edition 2CD + DVD}\Disc1\13 - Psychocandy.wav

Pre-gap length 0:00:01.74

Peak level 99.4 %
Extraction speed 2.6 X
Track quality 99.9 %
Test CRC CDE6DB47
Copy CRC CDE6DB47
Track not present in AccurateRip database
Copy OK

Track 14

Filename C:\LosslessII\The Jesus and Mary Chain - Darklands (1987) [FLAC] {2011 Deluxe Edition 2CD + DVD}\Disc1\14 - Hit.wav

Pre-gap length 0:00:02.52

Peak level 93.3 %
Extraction speed 3.3 X
Track quality 100.0 %
Test CRC 28F90A31
Copy CRC 28F90A31
Track not present in AccurateRip database
Copy OK

Track 15

Filename C:\LosslessII\The Jesus and Mary Chain - Darklands (1987) [FLAC] {2011 Deluxe Edition 2CD + DVD}\Disc1\15 - Darklands (BBC Janice Long Session 23rd Nov 1986).wav

Pre-gap length 0:00:01.39

Peak level 99.4 %
Extraction speed 3.5 X
Track quality 100.0 %
Test CRC E4CF4263
Copy CRC E4CF4263
Track not present in AccurateRip database
Copy OK

Track 16

Filename C:\LosslessII\The Jesus and Mary Chain - Darklands (1987) [FLAC] {2011 Deluxe Edition 2CD + DVD}\Disc1\16 - Down On Me (BBC Janice Long Session 23rd Nov 1986).wav

Pre-gap length 0:00:03.17

Peak level 97.6 %
Extraction speed 3.3 X
Track quality 100.0 %
Test CRC 27B5CC71
Copy CRC 27B5CC71
Track not present in AccurateRip database
Copy OK

Track 17

Filename C:\LosslessII\The Jesus and Mary Chain - Darklands (1987) [FLAC] {2011 Deluxe Edition 2CD + DVD}\Disc1\17 - Deep One Perfect Morning (BBC Janice Long Session 23rd Nov 1986).wav

Pre-gap length 0:00:00.69

Peak level 99.4 %
Extraction speed 3.3 X
Track quality 100.0 %
Test CRC 1D1A3861
Copy CRC 1D1A3861
Track not present in AccurateRip database
Copy OK

Track 18

Filename C:\LosslessII\The Jesus and Mary Chain - Darklands (1987) [FLAC] {2011 Deluxe Edition 2CD + DVD}\Disc1\18 - Fall (BBC John Peel Session 25th Nov 1986).wav

Pre-gap length 0:00:01.08

Peak level 98.8 %
Extraction speed 3.5 X
Track quality 100.0 %
Test CRC F4AA5688
Copy CRC F4AA5688
Track not present in AccurateRip database
Copy OK

Track 19

Filename C:\LosslessII\The Jesus and Mary Chain - Darklands (1987) [FLAC] {2011 Deluxe Edition 2CD + DVD}\Disc1\19 - In The Rain (BBC John Peel Session 25th Nov 1986).wav

Pre-gap length 0:00:00.72

Peak level 99.4 %
Extraction speed 3.4 X
Track quality 100.0 %
Test CRC 2BE677D0
Copy CRC 2BE677D0
Track not present in AccurateRip database
Copy OK

Track 20

Filename C:\LosslessII\The Jesus and Mary Chain - Darklands (1987) [FLAC] {2011 Deluxe Edition 2CD + DVD}\Disc1\20 - Happy Place (BBC John Peel Session 25th Nov 1986).wav

Pre-gap length 0:00:00.66

Peak level 98.0 %
Extraction speed 3.5 X
Track quality 100.0 %
Test CRC AF6DEF5B
Copy CRC AF6DEF5B
Track not present in AccurateRip database
Copy OK


None of the tracks are present in the AccurateRip database

No errors occurred

End of status report

==== Log checksum 2DBFB850481DBA7C4ECA7BC53C70B8B559A8C388A9800004B4E95A40E39BE931 ====

foobar2000 1.3.8 / Dynamic Range Meter 1.1.1
log date: 2015-11-14 19:48:57

––––––––––––––––––––––––––––––––––––––––
Analyzed: The Jesus and Mary Chain / Darklands (Deluxe Edition)
––––––––––––––––––––––––––––––––––––––––

DR Peak RMS Duration Track
––––––––––––––––––––––––––––––––––––––––
DR7 -0.10 dB -9.20 dB 5:29 01-Darklands
DR7 -0.05 dB -9.52 dB 2:44 02-Deep One Perfect Morning
DR8 -0.10 dB -9.09 dB 3:37 03-Happy When It Rains
DR7 -0.05 dB -8.73 dB 2:37 04-Down On Me
DR7 -0.05 dB -9.28 dB 4:31 05-Nine Million Rainy Days
DR8 -0.05 dB -9.35 dB 4:01 06-April Skies
DR7 -0.10 dB -8.87 dB 2:30 07-Fall
DR9 -0.05 dB -9.91 dB 3:06 08-Cherry Came Too
DR7 -0.05 dB -10.24 dB 5:05 09-On The Wall
DR9 -0.05 dB -10.98 dB 2:35 10-About You
DR7 -0.10 dB -9.45 dB 3:18 11-Some Candy Talking
DR11 -0.05 dB -13.86 dB 2:00 12-Taste Of Cindy (Acoustic Version)
DR8 -0.05 dB -9.09 dB 2:54 13-Psychocandy
DR6 -0.60 dB -9.05 dB 3:29 14-Hit
DR7 -0.05 dB -9.01 dB 4:40 15-Darklands (BBC Janice Long Session 23rd Nov 1986)
DR6 -0.21 dB -6.67 dB 2:29 16-Down On Me (BBC Janice Long Session 23rd Nov 1986)
DR7 -0.05 dB -9.70 dB 2:37 17-Deep One Perfect Morning (BBC Janice Long Session 23rd Nov 1986)
DR6 -0.10 dB -8.19 dB 3:11 18-Fall (BBC John Peel Session 25th Nov 1986)
DR8 -0.05 dB -10.04 dB 2:28 19-In The Rain (BBC John Peel Session 25th Nov 1986)
DR6 -0.17 dB -6.91 dB 2:24 20-Happy Place (BBC John Peel Session 25th Nov 1986)
––––––––––––––––––––––––––––––––––––––––

Number of tracks: 20
Official DR value: DR7

Samplerate: 44100 Hz
Channels: 2
Bits per sample: 16
Bitrate: 966 kbps
Codec: FLAC
================================================================================


Exact Audio Copy V1.0 beta 1 from 15. November 2010

EAC extraction logfile from 1. October 2011, 19:00

The Jesus and Mary Chain / Darklands (2011 Deluxe Edition) (Disc 2)

Used drive : TSSTcorpCDDVDW SH-222AL Adapter: 0 ID: 1

Read mode : Secure
Utilize accurate stream : Yes
Defeat audio cache : Yes
Make use of C2 pointers : No

Read offset correction : 6
Overread into Lead-In and Lead-Out : No
Fill up missing offset samples with silence : Yes
Delete leading and trailing silent blocks : No
Null samples used in CRC calculations : Yes
Used interface : Native Win32 interface for Win NT & 2000
Gap handling : Appended to previous track

Used output format : User Defined Encoder
Selected bitrate : 768 kBit/s
Quality : High
Add ID3 tag : No
Command line compressor : C:\Program Files\EAC\Flac\flac.exe
Additional command line options : -8 -V -T "ARTIST=%a" -T "TITLE=%t" -T "ALBUM=%g" -T "DATE=%y" -T "TRACKNUMBER=%n" -T "TOTALTRACKS=%x" -T "GENRE=%m" -T "ALBUMARTIST=%v" -T "ALBUM ARTIST=%v" -T "COMMENT=EAC Secure Mode, Test & Copy, AccurateRip, FLAC -8" %s


TOC of the extracted CD

Track | Start | Length | Start sector | End sector
––––––––––––––––––––––––––––-
1 | 0:00.00 | 3:12.00 | 0 | 14399
2 | 3:12.00 | 3:17.23 | 14400 | 29197
3 | 6:29.23 | 4:04.61 | 29198 | 47558
4 | 10:34.09 | 2:39.17 | 47559 | 59500
5 | 13:13.26 | 2:00.69 | 59501 | 68569
6 | 15:14.20 | 3:46.31 | 68570 | 85550
7 | 19:00.51 | 2:23.59 | 85551 | 96334
8 | 21:24.35 | 1:06.56 | 96335 | 101340
9 | 22:31.16 | 2:11.45 | 101341 | 111210
10 | 24:42.61 | 3:41.36 | 111211 | 127821
11 | 28:24.22 | 2:58.14 | 127822 | 141185
12 | 31:22.36 | 2:31.48 | 141186 | 152558
13 | 33:54.09 | 2:24.22 | 152559 | 163380
14 | 36:18.31 | 3:09.64 | 163381 | 177619
15 | 39:28.20 | 3:18.49 | 177620 | 192518
16 | 42:46.69 | 3:12.13 | 192519 | 206931
17 | 45:59.07 | 3:32.05 | 206932 | 222836
18 | 49:31.12 | 2:25.22 | 222837 | 233733
19 | 51:56.34 | 5:26.61 | 233734 | 258244
20 | 57:23.20 | 14:36.06 | 258245 | 323950


Track 1

Filename C:\LosslessII\The Jesus and Mary Chain - Darklands (1987) [FLAC] {2011 Deluxe Edition 2CD + DVD}\Disc2\01 - Kill Surf City (April Skies B-Side).wav

Pre-gap length 0:00:02.00

Peak level 99.4 %
Extraction speed 4.4 X
Track quality 100.0 %
Test CRC 9103A1A9
Copy CRC 9103A1A9
Track not present in AccurateRip database
Copy OK

Track 2

Filename C:\LosslessII\The Jesus and Mary Chain - Darklands (1987) [FLAC] {2011 Deluxe Edition 2CD + DVD}\Disc2\02 - Bo Diddley Is Jesus (April Skies B-Side).wav

Pre-gap length 0:00:00.47

Peak level 99.4 %
Extraction speed 4.7 X
Track quality 100.0 %
Test CRC 79693CB5
Copy CRC 79693CB5
Track not present in AccurateRip database
Copy OK

Track 3

Filename C:\LosslessII\The Jesus and Mary Chain - Darklands (1987) [FLAC] {2011 Deluxe Edition 2CD + DVD}\Disc2\03 - Who Do You Love (April Skies B-Side).wav

Pre-gap length 0:00:00.18

Peak level 99.4 %
Extraction speed 5.3 X
Track quality 100.0 %
Test CRC F29CA370
Copy CRC F29CA370
Track not present in AccurateRip database
Copy OK

Track 4

Filename C:\LosslessII\The Jesus and Mary Chain - Darklands (1987) [FLAC] {2011 Deluxe Edition 2CD + DVD}\Disc2\04 - Everything's Alright When You're Down (Happy When It Rains B-Side).wav

Pre-gap length 0:00:00.65

Peak level 100.0 %
Extraction speed 5.2 X
Track quality 100.0 %
Test CRC 1B9A89AA
Copy CRC 1B9A89AA
Track not present in AccurateRip database
Copy OK

Track 5

Filename C:\LosslessII\The Jesus and Mary Chain - Darklands (1987) [FLAC] {2011 Deluxe Edition 2CD + DVD}\Disc2\05 - Shake (Happy When It Rains B-Side).wav

Pre-gap length 0:00:00.64

Peak level 100.0 %
Extraction speed 5.1 X
Track quality 100.0 %
Test CRC E17CD406
Copy CRC E17CD406
Track not present in AccurateRip database
Copy OK

Track 6

Filename C:\LosslessII\The Jesus and Mary Chain - Darklands (1987) [FLAC] {2011 Deluxe Edition 2CD + DVD}\Disc2\06 - Happy When It Rains (Demo) (Happy When It Rains B-Side).wav

Pre-gap length 0:00:00.21

Peak level 99.4 %
Extraction speed 6.0 X
Track quality 100.0 %
Test CRC C99C7CDC
Copy CRC C99C7CDC
Track not present in AccurateRip database
Copy OK

Track 7

Filename C:\LosslessII\The Jesus and Mary Chain - Darklands (1987) [FLAC] {2011 Deluxe Edition 2CD + DVD}\Disc2\07 - Happy Place (Happy When It Rains B-Side).wav

Pre-gap length 0:00:00.58

Peak level 99.4 %
Extraction speed 4.1 X
Track quality 99.9 %
Test CRC CD904F38
Copy CRC CD904F38
Track not present in AccurateRip database
Copy OK

Track 8

Filename C:\LosslessII\The Jesus and Mary Chain - Darklands (1987) [FLAC] {2011 Deluxe Edition 2CD + DVD}\Disc2\08 - F-Hole (Happy When It Rains B-Side).wav

Pre-gap length 0:00:00.10

Peak level 92.9 %
Extraction speed 2.8 X
Track quality 99.8 %
Test CRC 0F69A950
Copy CRC 0F69A950
Track not present in AccurateRip database
Copy OK

Track 9

Filename C:\LosslessII\The Jesus and Mary Chain - Darklands (1987) [FLAC] {2011 Deluxe Edition 2CD + DVD}\Disc2\09 - Rider (Darklands B-Side).wav

Pre-gap length 0:00:00.25

Peak level 99.4 %
Extraction speed 5.9 X
Track quality 100.0 %
Test CRC A587688C
Copy CRC A587688C
Track not present in AccurateRip database
Copy OK

Track 10

Filename C:\LosslessII\The Jesus and Mary Chain - Darklands (1987) [FLAC] {2011 Deluxe Edition 2CD + DVD}\Disc2\10 - On The Wall (Demo) (Darklands B-Side).wav

Pre-gap length 0:00:00.23

Peak level 99.4 %
Extraction speed 5.3 X
Track quality 99.9 %
Test CRC 42BFB3F6
Copy CRC 42BFB3F6
Track not present in AccurateRip database
Copy OK

Track 11

Filename C:\LosslessII\The Jesus and Mary Chain - Darklands (1987) [FLAC] {2011 Deluxe Edition 2CD + DVD}\Disc2\11 - Surfin' USA (April Outtake) (Darklands B-Side).wav

Pre-gap length 0:00:00.46

Peak level 98.8 %
Extraction speed 6.7 X
Track quality 100.0 %
Test CRC AFDEA628
Copy CRC AFDEA628
Track not present in AccurateRip database
Copy OK

Track 12

Filename C:\LosslessII\The Jesus and Mary Chain - Darklands (1987) [FLAC] {2011 Deluxe Edition 2CD + DVD}\Disc2\12 - Here It Comes Again (Darklands B-Side).wav

Pre-gap length 0:00:00.32

Peak level 99.4 %
Extraction speed 6.6 X
Track quality 100.0 %
Test CRC A6C74A4E
Copy CRC A6C74A4E
Track not present in AccurateRip database
Copy OK

Track 13

Filename C:\LosslessII\The Jesus and Mary Chain - Darklands (1987) [FLAC] {2011 Deluxe Edition 2CD + DVD}\Disc2\13 - Walk And Crawl.wav

Peak level 98.8 %
Extraction speed 6.7 X
Track quality 100.0 %
Test CRC 59B662B9
Copy CRC 59B662B9
Track not present in AccurateRip database
Copy OK

Track 14

Filename C:\LosslessII\The Jesus and Mary Chain - Darklands (1987) [FLAC] {2011 Deluxe Edition 2CD + DVD}\Disc2\14 - Some Candy Talking (NME Version).wav

Pre-gap length 0:00:00.63

Peak level 100.0 %
Extraction speed 7.2 X
Track quality 100.0 %
Test CRC 61AAE27E
Copy CRC 61AAE27E
Track not present in AccurateRip database
Copy OK

Track 15

Filename C:\LosslessII\The Jesus and Mary Chain - Darklands (1987) [FLAC] {2011 Deluxe Edition 2CD + DVD}\Disc2\15 - Mushroom (Live).wav

Pre-gap length 0:00:00.53

Peak level 98.8 %
Extraction speed 7.5 X
Track quality 100.0 %
Test CRC D2253AB9
Copy CRC D2253AB9
Track not present in AccurateRip database
Copy OK

Track 16

Filename C:\LosslessII\The Jesus and Mary Chain - Darklands (1987) [FLAC] {2011 Deluxe Edition 2CD + DVD}\Disc2\16 - The Hardest Walk (Some Kind Of Wonderful OST).wav

Pre-gap length 0:00:00.73

Peak level 87.9 %
Extraction speed 7.6 X
Track quality 100.0 %
Test CRC A16A3F5B
Copy CRC A16A3F5B
Track not present in AccurateRip database
Copy OK

Track 17

Filename C:\LosslessII\The Jesus and Mary Chain - Darklands (1987) [FLAC] {2011 Deluxe Edition 2CD + DVD}\Disc2\17 - Don't Ever Change.wav

Pre-gap length 0:00:00.42

Peak level 93.2 %
Extraction speed 7.9 X
Track quality 100.0 %
Test CRC 22AC2C08
Copy CRC 22AC2C08
Track not present in AccurateRip database
Copy OK

Track 18

Filename C:\LosslessII\The Jesus and Mary Chain - Darklands (1987) [FLAC] {2011 Deluxe Edition 2CD + DVD}\Disc2\18 - Swing (Outtake).wav

Pre-gap length 0:00:00.51

Peak level 94.0 %
Extraction speed 7.6 X
Track quality 100.0 %
Test CRC 40F3E22D
Copy CRC 40F3E22D
Track not present in AccurateRip database
Copy OK

Track 19

Filename C:\LosslessII\The Jesus and Mary Chain - Darklands (1987) [FLAC] {2011 Deluxe Edition 2CD + DVD}\Disc2\19 - Darklands (with Strings) (Outtake).wav

Pre-gap length 0:00:00.63

Peak level 99.4 %
Extraction speed 8.8 X
Track quality 100.0 %
Test CRC C6E14693
Copy CRC C6E14693
Track not present in AccurateRip database
Copy OK

Track 20

Filename C:\LosslessII\The Jesus and Mary Chain - Darklands (1987) [FLAC] {2011 Deluxe Edition 2CD + DVD}\Disc2\20 - Janice Long Interview 28th April 1987.wav

Pre-gap length 0:00:00.34

Peak level 97.8 %
Extraction speed 10.1 X
Track quality 100.0 %
Test CRC 606F5EA8
Copy CRC 606F5EA8
Track not present in AccurateRip database
Copy OK


None of the tracks are present in the AccurateRip database

No errors occurred

End of status report

==== Log checksum 81539E0F485F2E9961C7252F85B7180002EBDA821F96AE395CEB760817CE9316 ====

foobar2000 1.3.8 / Dynamic Range Meter 1.1.1
log date: 2015-11-14 19:50:04

––––––––––––––––––––––––––––––––––––––––
Analyzed: The Jesus and Mary Chain / Darklands (Deluxe Edition)
––––––––––––––––––––––––––––––––––––––––

DR Peak RMS Duration Track
––––––––––––––––––––––––––––––––––––––––
DR5 -0.05 dB -7.87 dB 3:12 01-Kill Surf City (April Skies B-Side)
DR7 -0.05 dB -9.42 dB 3:17 02-Bo Diddley Is Jesus (April Skies B-Side)
DR5 -0.05 dB -8.05 dB 4:05 03-Who Do You Love (April Skies B-Side)
DR5 0.00 dB -6.30 dB 2:39 04-Everything's Alright When You're Down (Happy When It Rains B-Side)
DR6 0.00 dB -8.56 dB 2:01 05-Shake (Happy When It Rains B-Side)
DR7 -0.05 dB -8.99 dB 3:46 06-Happy When It Rains (Demo) (Happy When It Rains B-Side)
DR7 -0.05 dB -8.14 dB 2:24 07-Happy Place (Happy When It Rains B-Side)
DR8 -0.63 dB -13.23 dB 1:07 08-F-Hole (Happy When It Rains B-Side)
DR6 -0.05 dB -7.78 dB 2:12 09-Rider (Darklands B-Side)
DR7 -0.05 dB -8.51 dB 3:41 10-On The Wall (Demo) (Darklands B-Side)
DR4 -0.10 dB -6.83 dB 2:58 11-Surfin' USA (April Outtake) (Darklands B-Side)
DR6 -0.05 dB -7.99 dB 2:32 12-Here It Comes Again (Darklands B-Side)
DR5 -0.10 dB -6.44 dB 2:24 13-Walk And Crawl
DR6 0.00 dB -7.58 dB 3:10 14-Some Candy Talking (NME Version)
DR8 -0.10 dB -10.56 dB 3:19 15-Mushroom (Live)
DR5 -1.11 dB -9.48 dB 3:12 16-The Hardest Walk (Some Kind Of Wonderful OST)
DR10 -0.61 dB -11.81 dB 3:32 17-Don't Ever Change
DR6 -0.53 dB -8.66 dB 2:25 18-Swing (Outtake)
DR9 -0.05 dB -10.42 dB 5:27 19-Darklands (with Strings) (Outtake)
DR12 -0.19 dB -16.89 dB 14:36 20-Janice Long Interview 28th April 1987
––––––––––––––––––––––––––––––––––––––––

Number of tracks: 20
Official DR value: DR7

Samplerate: 44100 Hz
Channels: 2
Bits per sample: 16
Bitrate: 693 kbps
Codec: FLAC
================================================================================

The Jesus And Mary Chain - Albums Collection 1985-1993 (6CD + 2DVD)

The Jesus And Mary Chain - Albums Collection 1985-1993 (6CD + 2DVD)

The Jesus And Mary Chain - Albums Collection 1985-1993 (6CD + 2DVD)

The Jesus And Mary Chain - Albums Collection 1985-1993 (6CD + 2DVD)

The Jesus And Mary Chain - Albums Collection 1985-1993 (6CD + 2DVD)

The Jesus And Mary Chain - Albums Collection 1985-1993 (6CD + 2DVD)

Promo Videos:

1. Some Candy Talking
2. April Skies
3. Kill Surf City
4. Happy When It Rains
5. Darklands

TV Appearances
6. April Skies - Top Of The Pops, BBC, 30th April 1987
7. April Skies - Villa Tempo, VRT Belgium, 23rd May 1987
8. Happy When It Rains - The Roxy, ITV, 18th August 1987

The Jesus And Mary Chain - Albums Collection 1985-1993 (6CD + 2DVD)

The Jesus And Mary Chain - Albums Collection 1985-1993 (6CD + 2DVD)




The Jesus And Mary Chain - Albums Collection 1985-1993 (6CD + 2DVD)

The Jesus And Mary Chain - Barbed Wire Kisses: B-Sides And More (1988)
EAC | FLAC | Tracks (Cue&Log) ~ 437 Mb | Mp3 (CBR320) ~ 160 Mb | Scans included
Label: Blanco Y Negro | # 2292-42331-2 | 01:03:25

Barbed Wire Kisses (B-Sides and More) is a compilation of singles, b-sides and rare tracks by Scottish alternative rock band The Jesus and Mary Chain. Throughout the 1980s the band was known for their prodigious output in these formats, often in limited editions which quickly went out of print. This album collects many of those releases spanning the bands career up to that point.

Just a few years into their official recording career, the Jesus and Mary Chain had enough B-sides, outtakes, and other things sitting around to warrant a collection of nearly all of them, thus Barbed Wire Kisses. A welcome inclusion is the original debut single on Creation, "Upside Down," which in terms of the mix alone makes Psychocandy sound like Boston. Unfortunately the flip side cover of the Pink Floyd rarity "Vegetable Man" doesn't make it, but obvious inspirations the Beach Boys get saluted twice, once through a heavily thrashed-up cover of "Surfin' USA" that's pure Psychocandy in fidelity and impact, then again through a hilarious parody. "Kill Surf City" is pure Brian Wilson circa 1963 in melody, but the lyrics are something else again – death, doom, destruction, and a bit of love here and there – and the end result is a truly nutty combination. Another double tribute is given to Bo Diddley; his "Who Do You Love" becomes a low, menacing lope, echo cranked up high, while "Bo Diddley Is Jesus" just about says it all in the title, while of all bands, Can gets a nod via a cool live cover of "Mushroom." A single came with the whole thing as well, "Sidewalking," one of the band's best yet. Taking a T. Rex-styled glam strut and running it through their trademark clang'n'scrape feedback wringer, it's a monstrous track, the best song from the group since their Psychocandy days. A large number of tracks essentially continue the Psychocandy aesthetic without adding much to it, though those not entirely taken with Darklands will find much to love with the likes of "Head" and "Cracked." Meanwhile, two alternate versions of album cuts – an acoustic take on "Taste of Cindy" and a neat demo take of "On the Wall" – add to the fun.

Review by Ned Raggett, Allmusic.com


Tracklist:

01. Kill Surf City (03:13)
02. Head (03:52)
03. Rider (02:11)
04. Hit (03:29)
05. Don't Ever Change (Darklands Out-Take) (03:35)
06. Just Out Of Reach (03:06)
07. Happy Place (02:23)
08. Psycho Candy (02:59)
09. Sidewalking (03:34)
10. Who Do You Love (04:04)
11. Surfin' USA (02:58)
12. Everything's Alright When You're Down (02:39)
13. Upside Down (02:59)
14. Taste Of Cindy (Acoustic Version) (02:01)
15. Swing (Darklands Out-Take) (02:28)
16. On The Wall (Demo) (04:50)
17. Cracked (03:45)
18. Here It Comes Again (02:33)
19. Mushroom (Live 1986) (03:20)
20. Bo Diddley Is Jesus (03:17)


Exact Audio Copy V1.0 beta 1 from 15. November 2010

EAC extraction logfile from 12. June 2012, 17:05

The Jesus And Mary Chain / Barbed Wire Kisses

Used drive : HL-DT-STDVD-RAM GH22NP20 Adapter: 1 ID: 1

Read mode : Secure
Utilize accurate stream : Yes
Defeat audio cache : Yes
Make use of C2 pointers : No

Read offset correction : 102
Overread into Lead-In and Lead-Out : No
Fill up missing offset samples with silence : Yes
Delete leading and trailing silent blocks : No
Null samples used in CRC calculations : Yes
Used interface : Native Win32 interface for Win NT & 2000
Gap handling : Appended to previous track

Used output format : User Defined Encoder
Selected bitrate : 896 kBit/s
Quality : High
Add ID3 tag : No
Command line compressor : C:\Program Files\Exact Audio Copy\Flac\flac.exe
Additional command line options : -6 -V -T "ARTIST=%a" -T "TITLE=%t" -T "ALBUM=%g" -T "DATE=%y" -T "TRACKNUMBER=%n" -T "GENRE=%m" -T "COMMENT=%e" %s -o %d


TOC of the extracted CD

Track | Start | Length | Start sector | End sector
––––––––––––––––––––––––––––-
1 | 0:00.00 | 3:13.22 | 0 | 14496
2 | 3:13.22 | 3:52.15 | 14497 | 31911
3 | 7:05.37 | 2:11.38 | 31912 | 41774
4 | 9:17.00 | 3:29.60 | 41775 | 57509
5 | 12:46.60 | 3:35.22 | 57510 | 73656
6 | 16:22.07 | 3:06.45 | 73657 | 87651
7 | 19:28.52 | 2:23.08 | 87652 | 98384
8 | 21:51.60 | 2:59.12 | 98385 | 111821
9 | 24:50.72 | 3:34.58 | 111822 | 127929
10 | 28:25.55 | 4:04.22 | 127930 | 146251
11 | 32:30.02 | 2:58.33 | 146252 | 159634
12 | 35:28.35 | 2:39.60 | 159635 | 171619
13 | 38:08.20 | 2:59.02 | 171620 | 185046
14 | 41:07.22 | 2:01.58 | 185047 | 194179
15 | 43:09.05 | 2:28.22 | 194180 | 205301
16 | 45:37.27 | 4:50.23 | 205302 | 227074
17 | 50:27.50 | 3:45.70 | 227075 | 244019
18 | 54:13.45 | 2:33.40 | 244020 | 255534
19 | 56:47.10 | 3:20.57 | 255535 | 270591
20 | 60:07.67 | 3:17.50 | 270592 | 285416


Track 1

Filename C:\New Folder\01. Kill Surf City.wav

Pre-gap length 0:00:02.00

Peak level 95.7 %
Extraction speed 1.6 X
Track quality 100.0 %
Test CRC 298EF95E
Copy CRC 298EF95E
Accurately ripped (confidence 4) [D9FF709F]
Copy OK

Track 2

Filename C:\New Folder\02. Head.wav

Pre-gap length 0:00:01.67

Peak level 98.6 %
Extraction speed 1.6 X
Track quality 100.0 %
Test CRC DEB24ED2
Copy CRC DEB24ED2
Accurately ripped (confidence 4) [ABCE29CB]
Copy OK

Track 3

Filename C:\New Folder\03. Rider.wav

Pre-gap length 0:00:02.42

Peak level 100.0 %
Extraction speed 1.4 X
Track quality 99.9 %
Test CRC 628F6C4F
Copy CRC 628F6C4F
Accurately ripped (confidence 4) [BDFEFDF1]
Copy OK

Track 4

Filename C:\New Folder\04. Hit.wav

Pre-gap length 0:00:01.13

Peak level 100.0 %
Extraction speed 2.0 X
Track quality 100.0 %
Test CRC E8947BE1
Copy CRC E8947BE1
Accurately ripped (confidence 4) [CA08EBFB]
Copy OK

Track 5

Filename C:\New Folder\05. Don't Ever Change (Darklands Out-Take).wav

Pre-gap length 0:00:01.10

Peak level 100.0 %
Extraction speed 2.2 X
Track quality 100.0 %
Test CRC 5796ED49
Copy CRC 5796ED49
Accurately ripped (confidence 3) [300A8A4A]
Copy OK

Track 6

Filename C:\New Folder\06. Just Out Of Reach.wav

Pre-gap length 0:00:01.30

Peak level 100.0 %
Extraction speed 1.8 X
Track quality 99.9 %
Test CRC FB611804
Copy CRC FB611804
Accurately ripped (confidence 4) [3C11FD4D]
Copy OK

Track 7

Filename C:\New Folder\07. Happy Place.wav

Pre-gap length 0:00:01.42

Peak level 95.1 %
Extraction speed 1.8 X
Track quality 99.9 %
Test CRC 7F90FE8E
Copy CRC 7F90FE8E
Accurately ripped (confidence 4) [462F197B]
Copy OK

Track 8

Filename C:\New Folder\08. Psycho Candy.wav

Pre-gap length 0:00:01.30

Peak level 88.1 %
Extraction speed 2.2 X
Track quality 100.0 %
Test CRC D51A482B
Copy CRC D51A482B
Accurately ripped (confidence 4) [3CE39E8E]
Copy OK

Track 9

Filename C:\New Folder\09. Sidewalking.wav

Pre-gap length 0:00:03.00

Peak level 100.0 %
Extraction speed 2.4 X
Track quality 100.0 %
Test CRC 7A402761
Copy CRC 7A402761
Accurately ripped (confidence 4) [F647EB58]
Copy OK

Track 10

Filename C:\New Folder\10. Who Do You Love.wav

Pre-gap length 0:00:01.65

Peak level 100.0 %
Extraction speed 2.3 X
Track quality 100.0 %
Test CRC 0E2B7E5E
Copy CRC 0E2B7E5E
Accurately ripped (confidence 4) [057183DA]
Copy OK

Track 11

Filename C:\New Folder\11. Surfin' USA.wav

Pre-gap length 0:00:00.35

Peak level 100.0 %
Extraction speed 2.4 X
Track quality 100.0 %
Test CRC DE509536
Copy CRC DE509536
Accurately ripped (confidence 4) [69FEC418]
Copy OK

Track 12

Filename C:\New Folder\12. Everything's Alright When You're Down.wav

Pre-gap length 0:00:00.58

Peak level 99.9 %
Extraction speed 2.4 X
Track quality 100.0 %
Test CRC 9D9C1AA2
Copy CRC 9D9C1AA2
Accurately ripped (confidence 4) [31C1D39C]
Copy OK

Track 13

Filename C:\New Folder\13. Upside Down.wav

Pre-gap length 0:00:01.18

Peak level 90.8 %
Extraction speed 2.4 X
Track quality 100.0 %
Test CRC 4B059A67
Copy CRC 4B059A67
Accurately ripped (confidence 4) [1ADE35E3]
Copy OK

Track 14

Filename C:\New Folder\14. Taste Of Cindy (Acoustic Version).wav

Pre-gap length 0:00:01.07

Peak level 99.3 %
Extraction speed 1.7 X
Track quality 100.0 %
Test CRC 6EA6B5A7
Copy CRC 6EA6B5A7
Accurately ripped (confidence 4) [CCDB67E4]
Copy OK

Track 15

Filename C:\New Folder\15. Swing (Darklands Out-Take).wav

Pre-gap length 0:00:01.53

Peak level 100.0 %
Extraction speed 2.5 X
Track quality 100.0 %
Test CRC 0F3638F0
Copy CRC 0F3638F0
Accurately ripped (confidence 4) [6796D7C6]
Copy OK

Track 16

Filename C:\New Folder\16. On The Wall (Demo).wav

Pre-gap length 0:00:02.20

Peak level 100.0 %
Extraction speed 3.1 X
Track quality 100.0 %
Test CRC 0BC3BD35
Copy CRC 0BC3BD35
Accurately ripped (confidence 4) [0DEB1221]
Copy OK

Track 17

Filename C:\New Folder\17. Cracked.wav

Pre-gap length 0:00:01.68

Peak level 92.9 %
Extraction speed 3.1 X
Track quality 100.0 %
Test CRC 5141777A
Copy CRC 5141777A
Accurately ripped (confidence 4) [A4B379A3]
Copy OK

Track 18

Filename C:\New Folder\18. Here It Comes Again.wav

Pre-gap length 0:00:01.43

Peak level 98.5 %
Extraction speed 1.5 X
Track quality 100.0 %
Test CRC 1ACA9494
Copy CRC 1ACA9494
Accurately ripped (confidence 4) [D0F8A538]
Copy OK

Track 19

Filename C:\New Folder\19. Mushroom (Live 1986).wav

Pre-gap length 0:00:01.48

Peak level 99.0 %
Extraction speed 2.8 X
Track quality 100.0 %
Test CRC 37CDFFB2
Copy CRC 37CDFFB2
Accurately ripped (confidence 4) [90436A98]
Copy OK

Track 20

Filename C:\New Folder\20. Bo Diddley Is Jesus.wav

Pre-gap length 0:00:01.50

Peak level 99.9 %
Extraction speed 2.8 X
Track quality 100.0 %
Test CRC 29AB6F66
Copy CRC 29AB6F66
Accurately ripped (confidence 4) [5C0BB007]
Copy OK


All tracks accurately ripped

No errors occurred

End of status report

==== Log checksum C5C29A474D1E34E3329DDBA6798781466972CBD9AF25FCB581D9B82A880C83D5 ====

foobar2000 1.2 / Dynamic Range Meter 1.1.1
log date: 2014-03-13 22:35:14

––––––––––––––––––––––––––––––––––––––––
Analyzed: The Jesus And Mary Chain / Barbed Wire Kisses
––––––––––––––––––––––––––––––––––––––––

DR Peak RMS Duration Track
––––––––––––––––––––––––––––––––––––––––
DR9 -0.38 dB -12.07 dB 3:13 01-Kill Surf City
DR9 -0.12 dB -12.62 dB 3:52 02-Head
DR11 0.00 dB -13.90 dB 2:12 03-Rider
DR11 0.00 dB -14.38 dB 3:30 04-Hit
DR12 0.00 dB -13.78 dB 3:35 05-Don't Ever Change (Darklands Out-Take)
DR10 0.00 dB -13.15 dB 3:07 06-Just Out Of Reach
DR11 -0.43 dB -13.29 dB 2:23 07-Happy Place
DR11 -1.10 dB -13.76 dB 2:59 08-Psycho Candy
DR11 0.00 dB -12.68 dB 3:35 09-Sidewalking
DR10 0.00 dB -13.18 dB 4:04 10-Who Do You Love
DR10 0.00 dB -12.68 dB 2:58 11-Surfin' USA
DR10 -0.01 dB -12.15 dB 2:40 12-Everything's Alright When You're Down
DR9 -0.83 dB -11.20 dB 2:59 13-Upside Down
DR14 -0.06 dB -18.71 dB 2:02 14-Taste Of Cindy (Acoustic Version)
DR11 0.00 dB -13.33 dB 2:28 15-Swing (Darklands Out-Take)
DR12 0.00 dB -13.64 dB 4:50 16-On The Wall (Demo)
DR10 -0.63 dB -14.10 dB 3:46 17-Cracked
DR11 -0.13 dB -13.40 dB 2:34 18-Here It Comes Again
DR11 -0.08 dB -14.77 dB 3:21 19-Mushroom (Live 1986)
DR11 0.00 dB -14.45 dB 3:18 20-Bo Diddley Is Jesus
––––––––––––––––––––––––––––––––––––––––

Number of tracks: 20
Official DR value: DR11

Samplerate: 44100 Hz
Channels: 2
Bits per sample: 16
Bitrate: 932 kbps
Codec: FLAC
================================================================================

The Jesus And Mary Chain - Albums Collection 1985-1993 (6CD + 2DVD)

The Jesus And Mary Chain - Albums Collection 1985-1993 (6CD + 2DVD)




The Jesus And Mary Chain - Albums Collection 1985-1993 (6CD + 2DVD)

The Jesus And Mary Chain - The Sound Of Speed (1993)
EAC | FLAC | Tracks (Cue&Log) ~ 499 Mb | Mp3 (CBR320) ~ 207 Mb | Scans included
Label: Blanco Y Negro | # 4509-93105-2 | 01:10:53

The Sound of Speed is second in the trilogy of Jesus and Mary Chain "odds and sods" releases. This one isn't quite as essential as Barbed Wire Kisses (the first), but it definitely holds less cash-cow negativity and greater value over The Jesus and Mary Chain Hate Rock 'n' Roll (the third). The period covered here is 1989-1993, collecting most of the B-sides from Automatic and Honey's Dead. It's not quite complete, missing at least four B-sides ("Subway," "In the Black," "Terminal Beach," "I'm Glad I Never") and a small number of remixes. "Snakedriver" provides the best reason for picking this up, a classic Jesus and Mary Chain song in the sleazy, bluesy, "Beach Boys on lots of smack" mold. "Write Record Release Blues" skewers the Man while poking fun at themselves; one major demand: "Leave me in peaceful abject misery." The radio mix of "Reverence" doesn't sound any friendlier than the original, adding two minutes to the wailing beast and turning it into the dance remix of Big Black's "Kerosene" that it really is. Desperate, immature malevolence doesn't get any better. Speaking of reverence, this offers another clutch of covers, including Leonard Cohen's "Tower of Song" (pleasantly dirgeful), the Temptations' "My Girl" (pointless), Willie Dixon's "Little Red Rooster" (maxed vocal distortion), the 13th Floor Elevators' "Reverberation" (jug-free), and Jerry Reed's "Guitarman" (doesn't quite work). Other highlights in this decent package include the nasty "Lowlife" and an eight-minute version of "Sidewalking" that should please those who like the sludgy battering of the regular version.

Review by Andy Kellman, Allmusic.com


Tracklist:

01. Snakedriver (03:44)
02. Reverence (Radio Mix) (05:39)
03. Heat (03:00)
04. Teenage Lust (Acoustic Version) (02:25)
05. Why'd You Want Me (03:15)
06. Don't Come Down (02:39)
07. Guitarman (03:43)
08. Something I Can't Have (03:02)
09. Sometimes (02:53)
10. Write Record Release Blues (02:58)
11. Shimmer (02:46)
12. Penetration (02:48)
13. My Girl (03:05)
14. Tower Of Song (04:49)
15. Little Red Rooster (03:25)
16. Break Me Down (02:29)
17. Lowlife (03:27)
18. Deviant Slice (03:01)
19. Reverberation (03:46)
20. Sidewalking (Extended Version) (07:52)


Exact Audio Copy V1.0 beta 1 from 15. November 2010

EAC extraction logfile from 26. March 2012, 22:04

The Jesus And Mary Chain / The Sound Of Speed

Used drive : HL-DT-STDVD-RAM GH22NP20 Adapter: 1 ID: 1

Read mode : Secure
Utilize accurate stream : Yes
Defeat audio cache : Yes
Make use of C2 pointers : No

Read offset correction : 102
Overread into Lead-In and Lead-Out : No
Fill up missing offset samples with silence : Yes
Delete leading and trailing silent blocks : No
Null samples used in CRC calculations : Yes
Used interface : Installed external ASPI interface
Gap handling : Appended to previous track

Used output format : User Defined Encoder
Selected bitrate : 896 kBit/s
Quality : High
Add ID3 tag : No
Command line compressor : C:\Program Files\Exact Audio Copy\Flac\flac.exe
Additional command line options : -5 -V -T "ARTIST=%a" -T "TITLE=%t" -T "ALBUM=%g" -T "DATE=%y" -T "TRACKNUMBER=%n" -T "GENRE=%m" -T "COMMENT=%e" %s -o %d


TOC of the extracted CD

Track | Start | Length | Start sector | End sector
––––––––––––––––––––––––––––-
1 | 0:00.00 | 3:44.00 | 0 | 16799
2 | 3:44.00 | 5:39.20 | 16800 | 42244
3 | 9:23.20 | 3:00.30 | 42245 | 55774
4 | 12:23.50 | 2:25.02 | 55775 | 66651
5 | 14:48.52 | 3:15.13 | 66652 | 81289
6 | 18:03.65 | 2:39.55 | 81290 | 93269
7 | 20:43.45 | 3:43.17 | 93270 | 110011
8 | 24:26.62 | 3:02.03 | 110012 | 123664
9 | 27:28.65 | 2:53.07 | 123665 | 136646
10 | 30:21.72 | 2:58.53 | 136647 | 150049
11 | 33:20.50 | 2:46.37 | 150050 | 162536
12 | 36:07.12 | 2:48.68 | 162537 | 175204
13 | 38:56.05 | 3:05.05 | 175205 | 189084
14 | 42:01.10 | 4:49.15 | 189085 | 210774
15 | 46:50.25 | 3:25.22 | 210775 | 226171
16 | 50:15.47 | 2:29.65 | 226172 | 237411
17 | 52:45.37 | 3:27.60 | 237412 | 252996
18 | 56:13.22 | 3:01.20 | 252997 | 266591
19 | 59:14.42 | 3:46.40 | 266592 | 283581
20 | 63:01.07 | 7:52.25 | 283582 | 319006


Track 1

Filename C:\New Folder\01. Snakedriver.wav

Pre-gap length 0:00:02.00

Peak level 73.7 %
Extraction speed 1.7 X
Track quality 100.0 %
Test CRC 5FF863DC
Copy CRC 5FF863DC
Accurately ripped (confidence 8) [D1276F1A]
Copy OK

Track 2

Filename C:\New Folder\02. Reverence (Radio Mix).wav

Pre-gap length 0:00:01.23

Peak level 60.6 %
Extraction speed 2.0 X
Track quality 100.0 %
Test CRC 57059F3A
Copy CRC 57059F3A
Accurately ripped (confidence 8) [C9DB9F14]
Copy OK

Track 3

Filename C:\New Folder\03. Heat.wav

Pre-gap length 0:00:00.65

Peak level 70.4 %
Extraction speed 2.0 X
Track quality 100.0 %
Test CRC 6CC7C4EF
Copy CRC 6CC7C4EF
Accurately ripped (confidence 8) [B77285BC]
Copy OK

Track 4

Filename C:\New Folder\04. Teenage Lust (Acoustic Version).wav

Pre-gap length 0:00:00.20

Peak level 54.7 %
Extraction speed 1.9 X
Track quality 100.0 %
Test CRC 53849806
Copy CRC 53849806
Accurately ripped (confidence 8) [1766808C]
Copy OK

Track 5

Filename C:\New Folder\05. Why'd You Want Me.wav

Pre-gap length 0:00:01.10

Peak level 52.0 %
Extraction speed 2.2 X
Track quality 100.0 %
Test CRC 03DD876C
Copy CRC 03DD876C
Accurately ripped (confidence 8) [C98FC1CF]
Copy OK

Track 6

Filename C:\New Folder\06. Don't Come Down.wav

Pre-gap length 0:00:01.53

Peak level 65.9 %
Extraction speed 1.9 X
Track quality 99.9 %
Test CRC FA72E432
Copy CRC FA72E432
Accurately ripped (confidence 8) [2A897C33]
Copy OK

Track 7

Filename C:\New Folder\07. Guitarman.wav

Pre-gap length 0:00:01.13

Peak level 68.7 %
Extraction speed 2.4 X
Track quality 100.0 %
Test CRC 5032DA91
Copy CRC 5032DA91
Accurately ripped (confidence 8) [8E875B2B]
Copy OK

Track 8

Filename C:\New Folder\08. Something I Can't Have.wav

Pre-gap length 0:00:01.70

Peak level 43.7 %
Extraction speed 2.5 X
Track quality 100.0 %
Test CRC 29B3AC06
Copy CRC 29B3AC06
Accurately ripped (confidence 8) [8DBC7698]
Copy OK

Track 9

Filename C:\New Folder\09. Sometimes.wav

Pre-gap length 0:00:00.73

Peak level 69.4 %
Extraction speed 2.5 X
Track quality 100.0 %
Test CRC 4AAD56ED
Copy CRC 4AAD56ED
Accurately ripped (confidence 8) [F9E0E9DE]
Copy OK

Track 10

Filename C:\New Folder\10. Write Record Release Blues.wav

Pre-gap length 0:00:02.40

Peak level 62.9 %
Extraction speed 2.6 X
Track quality 100.0 %
Test CRC CBCB4237
Copy CRC CBCB4237
Accurately ripped (confidence 8) [DE8EE631]
Copy OK

Track 11

Filename C:\New Folder\11. Shimmer.wav

Pre-gap length 0:00:01.15

Peak level 62.7 %
Extraction speed 2.6 X
Track quality 100.0 %
Test CRC CFE979C5
Copy CRC CFE979C5
Accurately ripped (confidence 8) [4D51159C]
Copy OK

Track 12

Filename C:\New Folder\12. Penetration.wav

Pre-gap length 0:00:00.72

Peak level 64.2 %
Extraction speed 2.7 X
Track quality 100.0 %
Test CRC 75228A49
Copy CRC 75228A49
Accurately ripped (confidence 8) [95C6CFD3]
Copy OK

Track 13

Filename C:\New Folder\13. My Girl.wav

Pre-gap length 0:00:02.58

Peak level 62.1 %
Extraction speed 2.7 X
Track quality 100.0 %
Test CRC 2C16F772
Copy CRC 2C16F772
Accurately ripped (confidence 8) [B1ABB34E]
Copy OK

Track 14

Filename C:\New Folder\14. Tower Of Song.wav

Pre-gap length 0:00:00.70

Peak level 57.1 %
Extraction speed 2.7 X
Track quality 99.9 %
Test CRC 758BBD7E
Copy CRC 758BBD7E
Accurately ripped (confidence 8) [59FFB094]
Copy OK

Track 15

Filename C:\New Folder\15. Little Red Rooster.wav

Pre-gap length 0:00:00.33

Peak level 100.0 %
Extraction speed 2.9 X
Track quality 100.0 %
Test CRC 59AB0A2D
Copy CRC 59AB0A2D
Accurately ripped (confidence 8) [BAA86671]
Copy OK

Track 16

Filename C:\New Folder\16. Break Me Down.wav

Pre-gap length 0:00:00.70

Peak level 44.7 %
Extraction speed 2.9 X
Track quality 100.0 %
Test CRC B87484B0
Copy CRC B87484B0
Accurately ripped (confidence 8) [7B4D1436]
Copy OK

Track 17

Filename C:\New Folder\17. Lowlife.wav

Pre-gap length 0:00:01.10

Peak level 66.8 %
Extraction speed 2.9 X
Track quality 100.0 %
Test CRC 93D09D57
Copy CRC 93D09D57
Accurately ripped (confidence 8) [224BAA8B]
Copy OK

Track 18

Filename C:\New Folder\18. Deviant Slice.wav

Pre-gap length 0:00:01.02

Peak level 70.8 %
Extraction speed 3.0 X
Track quality 100.0 %
Test CRC 5419D3A0
Copy CRC 5419D3A0
Accurately ripped (confidence 7) [83C14C3C]
Copy OK

Track 19

Filename C:\New Folder\19. Reverberation.wav

Pre-gap length 0:00:00.52

Peak level 66.9 %
Extraction speed 3.4 X
Track quality 100.0 %
Test CRC 1014205F
Copy CRC 1014205F
Accurately ripped (confidence 7) [196258EB]
Copy OK

Track 20

Filename C:\New Folder\20. Sidewalking (Extended Version).wav

Pre-gap length 0:00:00.45

Peak level 69.7 %
Extraction speed 3.8 X
Track quality 100.0 %
Test CRC 6C285FAD
Copy CRC 6C285FAD
Accurately ripped (confidence 7) [7D807A95]
Copy OK


All tracks accurately ripped

No errors occurred

End of status report

==== Log checksum 74B4E428C3BB806DF832F1D9DEA5D26FBB00B474C5B023E989FD1E03D421E2D8 ====

foobar2000 1.2 / Dynamic Range Meter 1.1.1
log date: 2014-03-13 14:13:31

––––––––––––––––––––––––––––––––––––––––
Analyzed: The Jesus And Mary Chain / The Sound Of Speed
––––––––––––––––––––––––––––––––––––––––

DR Peak RMS Duration Track
––––––––––––––––––––––––––––––––––––––––
DR10 -2.64 dB -15.05 dB 3:44 01-Snakedriver
DR7 -4.35 dB -13.97 dB 5:39 02-Reverence (Radio Mix)
DR10 -3.04 dB -14.70 dB 3:00 03-Heat
DR12 -5.24 dB -19.35 dB 2:25 04-Teenage Lust (Acoustic Version)
DR10 -5.68 dB -17.36 dB 3:15 05-Why'd You Want Me
DR11 -3.62 dB -17.48 dB 2:40 06-Don't Come Down
DR11 -3.25 dB -15.25 dB 3:43 07-Guitarman
DR5 -7.18 dB -12.94 dB 3:02 08-Something I Can't Have
DR9 -3.16 dB -14.68 dB 2:53 09-Sometimes
DR9 -4.03 dB -14.53 dB 2:59 10-Write Record Release Blues
DR11 -4.04 dB -19.14 dB 2:46 11-Shimmer
DR11 -3.85 dB -16.48 dB 2:49 12-Penetration
DR13 -4.13 dB -19.70 dB 3:05 13-My Girl
DR10 -4.87 dB -17.31 dB 4:49 14-Tower Of Song
DR11 0.00 dB -14.17 dB 3:25 15-Little Red Rooster
DR11 -6.98 dB -20.68 dB 2:30 16-Break Me Down
DR9 -3.50 dB -14.27 dB 3:28 17-Lowlife
DR9 -2.99 dB -14.37 dB 3:01 18-Deviant Slice
DR10 -3.49 dB -15.80 dB 3:47 19-Reverberation
DR10 -3.12 dB -14.41 dB 7:52 20-Sidewalking (Extended Version)
––––––––––––––––––––––––––––––––––––––––

Number of tracks: 20
Official DR value: DR10

Samplerate: 44100 Hz
Channels: 2
Bits per sample: 16
Bitrate: 937 kbps
Codec: FLAC
================================================================================

The Jesus And Mary Chain - Albums Collection 1985-1993 (6CD + 2DVD)

The Jesus And Mary Chain - Albums Collection 1985-1993 (6CD + 2DVD)




All thanks to original releasers

More interesting music in My Blog