Tags
Language
Tags

The KLF - The White Room (1991) [Japanese Edition]

Posted By: Designol
The KLF - The White Room (1991) [Japanese Edition]

The KLF - The White Room (1991) Japanese Edition
EAC | FLAC | Image (Cue&Log) ~ 373 Mb | Mp3 (CBR320) ~ 140 Mb | Scans ~ 270 Mb
Label: DJ:/Toshiba EMI | # TOCP-6743 | Time: 01:01:04
Electronic, Acid House, Ambient House

After the incredible success of their "Doctorin' the Tardis" single in 1988 (better known as that theme from Dr. Who), Drummond and Cauty had plenty of money to hire talented musicians (instead of merely sampling them, as on their early recordings). The White Room is the result, an album bursting with hit singles that nevertheless flows as well as any concept album. Often overlooked as a classic from the acid house era (mostly because of the KLF's retirement one year later), The White Room represents the commercial and artistic peak of late-'80s acid-house.

Review by John Bush, Allmusic.com

The KLF - The White Room (1991) [Japanese Edition]



Tracklist:

01. What Time Is Love? (LP Mix) (05:18)
02. Make It Rain (03:36)
03. 3 A.M. Eternal (Live At The S.S.L.) (03:35)
04. Church Of The KLF (01:21)
05. Last Train To Trancentral (Live From The Lost Continent) (06:05)
06. Build A Fire (04:35)
07. The White Room (05:15)
08. No More Tears (06:41)
09. Justified And Ancient (05:05)

Bonus Tracks:
10. What Time Is Love? (The KLF vs The Moody Boys) (07:36)
11. 3 A.M. Eternal (Guns Of Mumu) (05:21)
12. Last Train To Trancentral (808 Bass Version) (06:19)


Exact Audio Copy V0.99 prebeta 5 from 4. May 2009

Отчёт EAC об извлечении, выполненном 25. ноября 2010, 19:48

The KLF / The White Room (Japan)

Дисковод: _NEC DVD_RW ND-4571A Adapter: 0 ID: 2

Режим чтения : Достоверность
Использование точного потока : Да
Отключение кэша аудио : Да
Использование указателей C2 : Нет

Коррекция смещения при чтении : 48
Способность читать области Lead-in и Lead-out : Нет
Заполнение пропущенных сэмплов тишиной : Да
Удаление блоков с тишиной в начале и конце : Нет
При вычислениях CRC использовались нулевые сэмплы : Да
Интерфейс : Встроенный Win32-интерфейс для Win NT/2000

Выходной формат : Пользовательский кодировщик
Выбранный битрейт : 1024 kBit/s
Качество : Высокий
Добавление ID3-тэга : Нет
Утилита сжатия : C:\Program Files\Exact Audio Copy\Flac\flac.exe
Дополнительные параметры : -8 -V %s


TOC извлечённого CD

Трек | Старт | Длительность | Начальный сектор | Конечный сектор
––––––––––––––––––––––––––––––––––-
1 | 0:00.00 | 5:22.05 | 0 | 24154
2 | 5:22.05 | 3:36.52 | 24155 | 40406
3 | 8:58.57 | 3:35.40 | 40407 | 56571
4 | 12:34.22 | 1:21.45 | 56572 | 62691
5 | 13:55.67 | 6:06.60 | 62692 | 90201
6 | 20:02.52 | 4:35.13 | 90202 | 110839
7 | 24:37.65 | 5:15.15 | 110840 | 134479
8 | 29:53.05 | 6:41.45 | 134480 | 164599
9 | 36:34.50 | 5:07.17 | 164600 | 187641
10 | 41:41.67 | 7:38.05 | 187642 | 221996
11 | 49:19.72 | 5:25.28 | 221997 | 246399
12 | 54:45.25 | 6:19.07 | 246400 | 274831


Характеристики диапазона извлечения и сообщения об ошибках

Выбранный диапазон

Имя файла M:\Свои\The KLF\Albums\1991 - The White Room (Japan)\The KLF - 1991 - The White Room (Japan).wav

Пиковый уровень 100.0 %
Качество диапазона 100.0 %
CRC теста 2E1ED6DD
CRC копии 2E1ED6DD
Копирование… OK

Ошибок не произошло


AccurateRip: сводка

Трек 1 точное извлечение (доверие 7) [9A52C8A7]
Трек 2 точное извлечение (доверие 7) [B5F5B03D]
Трек 3 точное извлечение (доверие 7) [9FF4E175]
Трек 4 точное извлечение (доверие 7) [D95748D9]
Трек 5 точное извлечение (доверие 7) [418FA380]
Трек 6 точное извлечение (доверие 7) [7F06BB47]
Трек 7 точное извлечение (доверие 7) [0A2BF514]
Трек 8 точное извлечение (доверие 7) [D0597DC5]
Трек 9 точное извлечение (доверие 7) [5E9E840F]
Трек 10 точное извлечение (доверие 7) [EF71E2E9]
Трек 11 точное извлечение (доверие 7) [77C9D096]
Трек 12 точное извлечение (доверие 7) [92D35A66]

Все треки извлечены точно

Конец отчёта

[CUETools log; Date: 30.11.2018 18:07:41; Version: 2.1.4]
[CTDB TOCID: JyXT472TECyGtD0PrDOtGuL8bmk-] found.
Track | CTDB Status
1 | (32/32) Accurately ripped
2 | (32/32) Accurately ripped
3 | (32/32) Accurately ripped
4 | (32/32) Accurately ripped
5 | (32/32) Accurately ripped
6 | (32/32) Accurately ripped
7 | (32/32) Accurately ripped
8 | (32/32) Accurately ripped
9 | (32/32) Accurately ripped
10 | (32/32) Accurately ripped
11 | (32/32) Accurately ripped
12 | (31/32) Accurately ripped
[AccurateRip ID: 0018a3e3-00eb77bf-ac0e500c] found.
Track [ CRC | V2 ] Status
01 [9a52c8a7|17e7357b] (11+09/20) Accurately ripped
02 [b5f5b03d|65a63cfb] (11+09/20) Accurately ripped
03 [9ff4e175|6efc9496] (11+09/20) Accurately ripped
04 [d95748d9|bcab152e] (11+09/20) Accurately ripped
05 [418fa380|83a809e8] (11+09/20) Accurately ripped
06 [7f06bb47|f1fb12b4] (11+09/20) Accurately ripped
07 [0a2bf514|b01ef947] (11+09/20) Accurately ripped
08 [d0597dc5|7f00cfd0] (11+09/20) Accurately ripped
09 [5e9e840f|50a5160b] (11+09/20) Accurately ripped
10 [ef71e2e9|794a06c4] (11+09/20) Accurately ripped
11 [77c9d096|9939aa7e] (11+09/20) Accurately ripped
12 [92d35a66|091606b8] (11+09/20) Accurately ripped

Track Peak [ CRC32 ] [W/O NULL] [ LOG ]
– 100,0 [2E1ED6DD] [3F1E6E8C] CRC32
01 100,0 [01DBCE67] [7F9520B0]
02 97,0 [C4BE2521] [98FE5EA6]
03 99,7 [31647584] [B93BF685]
04 69,4 [A44B4186] [21127C6F]
05 99,0 [3F5ADD2E] [68564D1B]
06 94,7 [A86B794D] [8D917C67]
07 82,6 [68317140] [E037D7D0]
08 79,8 [3B80F579] [B1C7A406]
09 100,0 [36996787] [471C4DEE]
10 100,0 [A89E0358] [54BBC3DE]
11 100,0 [F567BA00] [214D5BAC]
12 97,4 [98575F0E] [A9D9AAE0]

foobar2000 1.2 / Dynamic Range Meter 1.1.1
log date: 2013-08-23 15:18:34

––––––––––––––––––––––––––––––––––––––––
Analyzed: The KLF / The White Room (Japan)
––––––––––––––––––––––––––––––––––––––––

DR Peak RMS Duration Track
––––––––––––––––––––––––––––––––––––––––
DR10 0.00 dB -13.68 dB 5:22 01-What Time Is Love? (LP Mix)
DR13 -0.26 dB -15.39 dB 3:37 02-Make It Rain
DR12 -0.02 dB -16.45 dB 3:36 03-3 A.M. Eternal (Live At The S.S.L.)
DR12 -3.16 dB -20.64 dB 1:22 04-Church Of The KLF
DR12 -0.08 dB -13.59 dB 6:07 05-Last Train To Trancentral (Live From The Lost Continent)
DR14 -0.47 dB -18.16 dB 4:35 06-Build A Fire
DR11 -1.66 dB -16.24 dB 5:15 07-The White Room
DR9 -1.95 dB -13.11 dB 6:42 08-No More Tears
DR12 0.00 dB -17.17 dB 5:07 09-Justified And Ancient
DR11 0.00 dB -13.52 dB 7:38 10-What Time Is Love? (The KLF vs The Moody Boys)
DR14 0.00 dB -15.79 dB 5:25 11-3 A.M. Eternal (Guns Of Mumu)
DR12 -0.23 dB -14.91 dB 6:19 12-Last Train To Trancentral (808 Bass Version)
––––––––––––––––––––––––––––––––––––––––

Number of tracks: 12
Official DR value: DR12

Samplerate: 44100 Hz
Channels: 2
Bits per sample: 16
Bitrate: 853 kbps
Codec: FLAC
================================================================================

The KLF - The White Room (1991) [Japanese Edition]

The KLF - The White Room (1991) [Japanese Edition]