Subcategories
Tags
Language
Tags

The Killers - Sawdust (2007)

Posted By: Designol
The Killers - Sawdust (2007)

The Killers - Sawdust (2007)
EAC | FLAC | Tracks (Cue&Log) ~ 514 Mb | Mp3 (CBR320) ~ 173 Mb | Scans ~ 212 Mb
Alternative/Indie Rock, Post-Punk Revival | Label: Vertigo | # 1753374 | Time: 01:15:29

Sawdust is an album of B-sides, rarities, covers and remixes by the Las Vegas rock band The Killers. Sawdust includes "All The Pretty Faces" (which was the b-side of "When You Were Young"); two movie soundtrack tunes, "Shadowplay" (a Joy Division cover from Control, Anton Corbijn's biopic of Ian Curtis) and "Move Away" (from Spiderman 3); as well as a cover of Kenny Rogers & The First Edition's "Ruby, Don't Take Your Love To Town" (written by Mel Tillis). The collection will also contain songs which weren't completed for Hot Fuss and Sam's Town. The Killers recently went back into the studio to finish the tracks, including "Tranquilize" featuring Rock & Roll Hall of Famer Lou Reed.

Biding time at a juncture when they don't necessarily need to, the Killers released the odds-n-sods collection Sawdust in November 2007, a mere 13 months after their second album, Sam's Town. If the title suggests that the group is digging further into a preposterous fixation on faux Americana, this grab bag of B-sides, new songs, covers, stray tracks, and re-recordings feels more like a sop to the fans who found the Springsteen worship hard to stomach. There's not as much Boss here but the ghost of The Joshua Tree still lingers, particularly in the clatter of the echoing Edge guitars, but that's married to the Killers' studied new wave moves, which is a better fit for that sweeping sound anyway. Better fit doesn't necessarily mean a perfect fit, however – the return to the Killers' stylish throb only emphasizes their scattershot songwriting, where they can get elements right but they can't quite tie it all together. Tellingly, the best moments are leftovers from Hot Fuss – whether it's the cool glam groove of the leftover "Leave the Bourbon on the Shelf" or "The Ballad of Michael Valentine," which does the cod-Americana better than Sam's Town – but too much of the newer stuff clatters around pointlessly, all pomp and no circumstance. This goes double for the directionless Lou Reed duet "Tranquilize," which plays as if Bowie decided to have Lou sing on Tonight, then it goes triple for a stupifyingly silly "Ruby, Don't Take Your Love to Town," where the Killers seem like kids in cowboy hats even more than they did when they were kicking around the desert outskirts of Vegas. Covers don't treat the Killers well at all, as they reveal how hammy Brandon Flowers is at his core (swapping Mark Knopfler's sly, dry delivery for Flowers' community theater bluster robs "Romeo and Juliet" of its delicate beauty). When Flowers is in his natural setting, supported by glistening waves of keyboards and guitars that ring like synths, that ridiculous theatricality can be a bit of a guilty pleasure, and Sawdust does indeed contain some moments of grand pomp, but its scattershot nature works against the band as it winds up emphasizing the lingering question from Sam's Town, that the Killers have a hell of a lot of ideas but they just don't know what the hell to do with them.

Review by Stephen Thomas Erlewine, Allmusic.com

The Killers - Sawdust (2007)

The Killers - Sawdust (2007)



Tracklist:

01 - Tranquilize (Feat. Lou Reed) (3:45)
02 - Shadowplay (4:07)
03 - All The Pretty Faces (4:46)
04 - Leave The Bourbon On The Shelf (3:39)
05 - Sweet Talk (4:19)
06 - Under The Gun (2:34)
07 - Where The White Boys Dance (3:26)
08 - Show You How (2:46)
09 - Move Away (3:50)
10 - Glamorous Indie Rock And Roll (4:17)
11 - Who Let You Go? (3:43)
12 - The Ballad Of Michael Valentine (3:50)
13 - Ruby, Don't Take Your Love To Town (3:05)
14 - Daddy's Eyes (4:15)
15 - Sam's Town (Abbey Road Version) (3:45)
16 - Romeo And Juliet (5:30)
17 - Change Yorn Mind (Bonus Track) (3:13)
18 - Mr. Brightside (Jacques Lu Cont's Then White Duke Remix) (10:40)


Exact Audio Copy V1.0 beta 1 from 15. November 2010

EAC extraction logfile from 20. October 2011, 17:59

The Killers / Sawdust

Used drive : ATAPI iHAS124 Y Adapter: 5 ID: 0

Read mode : Secure
Utilize accurate stream : Yes
Defeat audio cache : Yes
Make use of C2 pointers : No

Read offset correction : 48
Overread into Lead-In and Lead-Out : No
Fill up missing offset samples with silence : Yes
Delete leading and trailing silent blocks : No
Null samples used in CRC calculations : Yes
Used interface : Native Win32 interface for Win NT & 2000
Gap handling : Appended to previous track

Used output format : Internal WAV Routines
Sample format : 44.100 Hz; 16 Bit; Stereo


TOC of the extracted CD

Track | Start | Length | Start sector | End sector
––––––––––––––––––––––––––––-
1 | 0:00.00 | 3:45.14 | 0 | 16888
2 | 3:45.14 | 4:07.16 | 16889 | 35429
3 | 7:52.30 | 4:45.63 | 35430 | 56867
4 | 12:38.18 | 3:38.39 | 56868 | 73256
5 | 16:16.57 | 4:18.63 | 73257 | 92669
6 | 20:35.45 | 2:33.42 | 92670 | 104186
7 | 23:09.12 | 3:26.14 | 104187 | 119650
8 | 26:35.26 | 2:46.16 | 119651 | 132116
9 | 29:21.42 | 3:49.74 | 132117 | 149365
10 | 33:11.41 | 4:16.43 | 149366 | 168608
11 | 37:28.09 | 3:42.68 | 168609 | 185326
12 | 41:11.02 | 3:50.26 | 185327 | 202602
13 | 45:01.28 | 3:05.13 | 202603 | 216490
14 | 48:06.41 | 4:14.60 | 216491 | 235600
15 | 52:21.26 | 3:45.20 | 235601 | 252495
16 | 56:06.46 | 5:29.51 | 252496 | 277221
17 | 61:36.22 | 3:13.02 | 277222 | 291698
18 | 64:49.24 | 10:39.56 | 291699 | 339679


Track 1

Filename F:\something\Temp\01 - Tranquilize (Feat. Lou Reed).wav

Pre-gap length 0:00:02.00

Peak level 99.9 %
Extraction speed 2.4 X
Track quality 100.0 %
Test CRC 38CCE1AD
Copy CRC 38CCE1AD
Accurately ripped (confidence 3) [C99ED6EB]
Copy OK

Track 2

Filename F:\something\Temp\02 - Shadowplay.wav

Peak level 99.9 %
Extraction speed 2.7 X
Track quality 100.0 %
Test CRC 58079373
Copy CRC 58079373
Accurately ripped (confidence 3) [07ACA31D]
Copy OK

Track 3

Filename F:\something\Temp\03 - All The Pretty Faces.wav

Peak level 99.9 %
Extraction speed 3.0 X
Track quality 100.0 %
Test CRC A5F52946
Copy CRC A5F52946
Accurately ripped (confidence 3) [697B9C95]
Copy OK

Track 4

Filename F:\something\Temp\04 - Leave The Bourbon On The Shelf.wav

Peak level 100.0 %
Extraction speed 3.0 X
Track quality 100.0 %
Test CRC D06C9B6D
Copy CRC D06C9B6D
Accurately ripped (confidence 3) [1C963DB5]
Copy OK

Track 5

Filename F:\something\Temp\05 - Sweet Talk.wav

Peak level 99.9 %
Extraction speed 3.4 X
Track quality 100.0 %
Test CRC 0F11A5A8
Copy CRC 0F11A5A8
Accurately ripped (confidence 3) [8211B077]
Copy OK

Track 6

Filename F:\something\Temp\06 - Under The Gun.wav

Peak level 99.9 %
Extraction speed 3.2 X
Track quality 100.0 %
Test CRC C4C96817
Copy CRC C4C96817
Accurately ripped (confidence 3) [0A6AFEAE]
Copy OK

Track 7

Filename F:\something\Temp\07 - Where The White Boys Dance.wav

Peak level 99.9 %
Extraction speed 2.7 X
Track quality 99.9 %
Test CRC 6EF79A2F
Copy CRC 6EF79A2F
Accurately ripped (confidence 3) [C3FD9630]
Copy OK

Track 8

Filename F:\something\Temp\08 - Show You How.wav

Peak level 100.0 %
Extraction speed 3.5 X
Track quality 100.0 %
Test CRC 26BDAE09
Copy CRC 26BDAE09
Accurately ripped (confidence 3) [AD3B2147]
Copy OK

Track 9

Filename F:\something\Temp\09 - Move Away.wav

Peak level 97.6 %
Extraction speed 3.9 X
Track quality 100.0 %
Test CRC 0131DC78
Copy CRC 0131DC78
Accurately ripped (confidence 3) [BF800AFE]
Copy OK

Track 10

Filename F:\something\Temp\10 - Glamorous Indie Rock And Roll.wav

Peak level 99.9 %
Extraction speed 4.1 X
Track quality 100.0 %
Test CRC CC2499AA
Copy CRC CC2499AA
Accurately ripped (confidence 3) [8791FC41]
Copy OK

Track 11

Filename F:\something\Temp\11 - Who Let You Go.wav

Peak level 100.0 %
Extraction speed 4.2 X
Track quality 100.0 %
Test CRC 771225CF
Copy CRC 771225CF
Accurately ripped (confidence 3) [09CECDA8]
Copy OK

Track 12

Filename F:\something\Temp\12 - The Ballad Of Michael Valentine.wav

Peak level 100.0 %
Extraction speed 4.3 X
Track quality 100.0 %
Test CRC 5493FE2F
Copy CRC 5493FE2F
Accurately ripped (confidence 3) [4895384D]
Copy OK

Track 13

Filename F:\something\Temp\13 - Ruby, Don't Take Your Love To Town.wav

Peak level 99.9 %
Extraction speed 4.2 X
Track quality 100.0 %
Test CRC F4C55B6F
Copy CRC F4C55B6F
Accurately ripped (confidence 3) [0EE5B648]
Copy OK

Track 14

Filename F:\something\Temp\14 - Daddy's Eyes.wav

Peak level 100.0 %
Extraction speed 4.6 X
Track quality 100.0 %
Test CRC FBDE392B
Copy CRC FBDE392B
Accurately ripped (confidence 3) [5156BC90]
Copy OK

Track 15

Filename F:\something\Temp\15 - Sam's Town (Abbey Road Version).wav

Peak level 99.9 %
Extraction speed 4.7 X
Track quality 100.0 %
Test CRC 485E4A70
Copy CRC 485E4A70
Accurately ripped (confidence 3) [243F9FCF]
Copy OK

Track 16

Filename F:\something\Temp\16 - Romeo And Juliet.wav

Pre-gap length 0:00:01.44

Peak level 99.9 %
Extraction speed 5.0 X
Track quality 100.0 %
Test CRC 89501AD5
Copy CRC 89501AD5
Accurately ripped (confidence 3) [7F89D98B]
Copy OK

Track 17

Filename F:\something\Temp\17 - Change Yorn Mind (Bonus Track).wav

Pre-gap length 0:00:01.73

Peak level 98.8 %
Extraction speed 4.8 X
Track quality 100.0 %
Test CRC C6D51EB4
Copy CRC C6D51EB4
Accurately ripped (confidence 3) [3B5E8E9A]
Copy OK

Track 18

Filename F:\something\Temp\18 - Mr. Brightside (Jacques Lu Cont's Then White Duke Remix).wav

Pre-gap length 0:00:02.13

Peak level 88.1 %
Extraction speed 5.7 X
Track quality 100.0 %
Test CRC E1D0D53A
Copy CRC E1D0D53A
Accurately ripped (confidence 3) [B237D745]
Copy OK


All tracks accurately ripped

No errors occurred

End of status report

==== Log checksum 48806553B3BC3750BB28FE908CC147B723825A455E1AA23FC29DC2EEF6FD38C1 ====

[CUETools log; Date: 31.10.2018 18:26:47; Version: 2.1.4]
[CTDB TOCID: qpvCHRbE64ESn0QPYisxtrZrYv8-] found.
Track | CTDB Status
1 | (220/220) Accurately ripped
2 | (220/220) Accurately ripped
3 | (219/220) Accurately ripped
4 | (220/220) Accurately ripped
5 | (220/220) Accurately ripped
6 | (219/220) Accurately ripped
7 | (216/220) Accurately ripped
8 | (217/220) Accurately ripped, or (2/220) differs in 72 samples @01:05:25
9 | (220/220) Accurately ripped
10 | (220/220) Accurately ripped
11 | (219/220) Accurately ripped
12 | (217/220) Accurately ripped
13 | (220/220) Accurately ripped
14 | (218/220) Accurately ripped
15 | (218/220) Accurately ripped
16 | (213/220) Accurately ripped
17 | (217/220) Accurately ripped
18 | (208/220) Accurately ripped
[AccurateRip ID: 002d0413-02591967-2711b112] found.
Track [ CRC | V2 ] Status
01 [c99ed6eb|a275b094] (028+026/277) Accurately ripped
02 [07aca31d|8e2e40e1] (028+026/279) Accurately ripped
03 [697b9c95|a3ef5aeb] (028+026/277) Accurately ripped
04 [1c963db5|2145eb45] (028+026/277) Accurately ripped
05 [8211b077|f049b450] (028+026/276) Accurately ripped
06 [0a6afeae|c74c4377] (028+025/276) Accurately ripped
07 [c3fd9630|7c21ef5d] (028+026/275) Accurately ripped
08 [ad3b2147|7dfe0fed] (028+026/276) Accurately ripped
09 [bf800afe|3d989c6c] (027+026/275) Accurately ripped
10 [8791fc41|67a6003e] (028+026/277) Accurately ripped
11 [09cecda8|91773376] (028+026/275) Accurately ripped
12 [4895384d|439f2e0a] (027+026/274) Accurately ripped
13 [0ee5b648|4ba2f9e2] (028+026/275) Accurately ripped
14 [5156bc90|ed2157a9] (027+026/272) Accurately ripped
15 [243f9fcf|52110f88] (027+026/274) Accurately ripped
16 [7f89d98b|ad8dbc9c] (027+026/272) Accurately ripped
17 [3b5e8e9a|b0e25eb7] (027+026/277) Accurately ripped
18 [b237d745|e73fc2a4] (026+023/260) Accurately ripped
Offsetted by -646:
01 [0ab56a81] (003/277) Accurately ripped
02 [efd1ba25] (003/279) Accurately ripped
03 [7b86a5ab] (003/277) Accurately ripped
04 [d96944d7] (003/277) Accurately ripped
05 [e97445a4] (003/276) Accurately ripped
06 [d0493c99] (003/276) Accurately ripped
07 [a4ea45e0] (003/275) Accurately ripped
08 [97265067] (002/276) Accurately ripped
09 [82ece5af] (002/275) Accurately ripped
10 [b51e391e] (002/277) Accurately ripped
11 [d7164024] (002/275) Accurately ripped
12 [8dfed655] (002/274) Accurately ripped
13 [9b1b48cc] (002/275) Accurately ripped
14 [0a0e3152] (002/272) Accurately ripped
15 [05947cf1] (002/274) Accurately ripped
16 [860132ef] (002/272) Accurately ripped
17 [3fae8b74] (003/277) Accurately ripped
18 [7e6e3856] (003/260) Accurately ripped
Offsetted by 18:
01 [6cdf5697] (106/277) Accurately ripped
02 [51165acd] (108/279) Accurately ripped
03 [9df4e343] (106/277) Accurately ripped
04 [2401b2cf] (107/277) Accurately ripped
05 [378794de] (107/276) Accurately ripped
06 [0b1ea7eb] (107/276) Accurately ripped
07 [1f0ef75e] (106/275) Accurately ripped
08 [1f8b6de9] (107/276) Accurately ripped
09 [ade3cdbc] (107/275) Accurately ripped
10 [0c632081] (107/277) Accurately ripped
11 [05ac5134] (107/275) Accurately ripped
12 [8a046835] (106/274) Accurately ripped
13 [bee763bc] (105/275) Accurately ripped
14 [6caff0ca] (105/272) Accurately ripped
15 [4e5112e9] (105/274) Accurately ripped
16 [6794ca5f] (103/272) Accurately ripped
17 [88ebc88c] (105/277) Accurately ripped
18 [7aa73c50] (100/260) Accurately ripped
Offsetted by 24:
01 [4731773f] (000/277) No match
02 [be1c1160] (000/279) No match
03 [04c1f9fe] (000/277) No match
04 [7bd02f2d] (000/277) No match
05 [0f97e100] (000/276) No match (V2 was not tested)
06 [60b2e055] (000/276) No match
07 [25d1edce] (000/275) No match
08 [f0573229] (000/276) No match
09 [274c9441] (000/275) No match
10 [8e0ed73e] (000/277) No match
11 [aef627b8] (000/275) No match
12 [f529782d] (000/274) No match
13 [a43d4838] (000/275) No match
14 [20785788] (000/272) No match
15 [b1ac3947] (000/274) No match
16 [5f986ffb] (002/272) Accurately ripped
17 [4d703132] (002/277) Accurately ripped
18 [6a544c82] (000/260) No match

Track Peak [ CRC32 ] [W/O NULL] [ LOG ]
– 100,0 [C829A78C] [B04ECE2B]
01 99,9 [38CCE1AD] [0E8A1247] CRC32
02 99,9 [58079373] [0CDDC74F] CRC32
03 99,9 [A5F52946] [53CE4DA4] CRC32
04 100,0 [D06C9B6D] [F20ADE43] CRC32
05 99,9 [0F11A5A8] [7DF401EC] CRC32
06 99,9 [C4C96817] [AC840EFE] CRC32
07 99,9 [6EF79A2F] [03DB46D5] CRC32
08 100,0 [26BDAE09] [CCF57575] CRC32
09 97,6 [0131DC78] [7021163F] CRC32
10 99,9 [CC2499AA] [11D5CE4D] CRC32
11 100,0 [771225CF] [B388BC24] CRC32
12 100,0 [5493FE2F] [79354ED1] CRC32
13 99,9 [F4C55B6F] [3C1D5505] CRC32
14 100,0 [FBDE392B] [BA57521F] CRC32
15 99,9 [485E4A70] [F219A3E9] CRC32
16 99,9 [89501AD5] [A370896A] CRC32
17 98,8 [C6D51EB4] [324738AE] CRC32
18 88,1 [E1D0D53A] [49FE2AF7] CRC32

foobar2000 1.2 / Dynamic Range Meter 1.1.1
log date: 2018-10-31 18:19:05

––––––––––––––––––––––––––––––––––––––––
Analyzed: The Killers / Sawdust
––––––––––––––––––––––––––––––––––––––––

DR Peak RMS Duration Track
––––––––––––––––––––––––––––––––––––––––
DR5 0.00 dB -7.45 dB 3:45 01-Tranquilize (Feat. Lou Reed)
DR6 -0.01 dB -8.46 dB 4:07 02-Shadowplay
DR6 -0.01 dB -7.52 dB 4:46 03-All The Pretty Faces
DR7 0.00 dB -9.42 dB 3:39 04-Leave The Bourbon On The Shelf
DR6 -0.01 dB -8.35 dB 4:19 05-Sweet Talk
DR6 -0.01 dB -7.68 dB 2:34 06-Under The Gun
DR5 -0.01 dB -8.41 dB 3:26 07-Where The White Boys Dance
DR6 0.00 dB -7.55 dB 2:46 08-Show You How
DR4 -0.21 dB -6.08 dB 3:50 09-Move Away
DR6 -0.01 dB -8.17 dB 4:17 10-Glamorous Indie Rock And Roll
DR7 0.00 dB -8.58 dB 3:43 11-Who Let You Go?
DR7 0.00 dB -7.89 dB 3:50 12-The Ballad Of Michael Valentine
DR6 -0.01 dB -8.08 dB 3:05 13-Ruby, Don't Take Your Love To Town
DR6 0.00 dB -8.23 dB 4:15 14-Daddy's Eyes
DR8 -0.01 dB -11.00 dB 3:45 15-Sam's Town (Abbey Road Version)
DR7 -0.01 dB -9.88 dB 5:30 16-Romeo And Juliet
DR3 -0.10 dB -5.16 dB 3:13 17-Change Yorn Mind (Bonus Track)
DR5 -1.10 dB -9.89 dB 10:40 18-Mr. Brightside (Jacques Lu Cont's Then White Duke Remix)
––––––––––––––––––––––––––––––––––––––––

Number of tracks: 18
Official DR value: DR6

Samplerate: 44100 Hz
Channels: 2
Bits per sample: 16
Bitrate: 862 kbps
Codec: FLAC
================================================================================

The Killers - Sawdust (2007)

The Killers - Sawdust (2007)

All thanks to original releaser - Juicy_J

More interesting music in My Blog