Subcategories
Tags
Language
Tags

The Meteors - Skull N Bones & the Curse of Blood N Bones (2021)

Posted By: ciklon5
The Meteors - Skull N Bones & the Curse of Blood N Bones (2021)

The Meteors - Skull N Bones & the Curse of Blood N Bones (2021)
FLAC (tracks+.cue, log) | 1:12:31 | 487 Mb
Genre: Rock & Roll, Psychobilly, Rockabilly / Label: Cleopatra Records

The brand new double album from psychobilly legends The Meteors available now on CD!Founding vocalist/guitarist P. Paul Fenech continues to smoke any and all of their punk/rockabilly peers with a mixture of thrilling instrumentals and memorable original cuts as well as superb covers!Full publicity campaign planeed including a killer video for "A Night In The Tombs" to be released March 26!

Track List:
01. Chasing Evil (3:02)
02. A Night In The Tombs (3:34)
03. Skull N Bones (4:14)
04. Get Back In The Swamp And Jump (3:36)
05. Changeling (4:16)
06. Dateless Nights Zed Mix (2:01)
07. The Night Comes With Me (3:58)
08. Zombie Noise Rockin Zombie Mix (2:16)
09. More Demons Than Most (3:36)
10. Twisted (3:14)
11. All I Do (4:42)
12. The Queen Of Zorch (3:43)
13. All I Can Do Is Cry (3:58)
14. Creature (3:41)
15. She Is My Witch (2:30)
16. Daughter Of The Deep (3:46)
17. Alligator Man 2020 (2:56)
18. Guilty As Charged Sense Of Humour Mix (3:00)
19. You Used To Be The Usual Suspects (3:46)
20. Little Hellcat (2:53)
21. Ghost Riders In The Sky (4:02)

Exact Audio Copy V1.6 from 23. October 2020

EAC extraction logfile from 28. May 2021, 20:51

The Meteors / Skull And Bones And Curse Of Blood And Bones

Used drive : PIONEER BD-RW BDR-XD05 Adapter: 1 ID: 1

Read mode : Secure
Utilize accurate stream : Yes
Defeat audio cache : Yes
Make use of C2 pointers : No

Read offset correction : 667
Overread into Lead-In and Lead-Out : No
Fill up missing offset samples with silence : Yes
Delete leading and trailing silent blocks : No
Null samples used in CRC calculations : Yes
Used interface : Native Win32 interface for Win NT & 2000
Gap handling : Appended to previous track

Used output format : User Defined Encoder
Selected bitrate : 896 kBit/s
Quality : High
Add ID3 tag : No
Command line compressor : C:\Program Files (x86)\Exact Audio Copy\Flac\flac.exe
Additional command line options : -8 -V -T "ARTIST=%artist%" -T "TITLE=%title%" -T "ALBUM=%albumtitle%" -T "DATE=%year%" -T "TRACKNUMBER=%tracknr%" -T "GENRE=%genre%" -T "PERFORMER=%albuminterpret%" -T "COMPOSER=%composer%" %haslyrics%–tag-from-file=LYRICS="%lyricsfile%"%haslyrics% -T "ALBUMARTIST=%albumartist%" -T "DISCNUMBER=%cdnumber%" -T "TOTALDISCS=%totalcds%" -T "TOTALTRACKS=%numtracks%" -T "COMMENT=%comment%" %source% -o %dest%


TOC of the extracted CD

Track | Start | Length | Start sector | End sector
––––––––––––––––––––––––––––-
1 | 0:00.00 | 3:01.50 | 0 | 13624
2 | 3:01.50 | 3:33.45 | 13625 | 29644
3 | 6:35.20 | 4:14.34 | 29645 | 48728
4 | 10:49.54 | 3:35.62 | 48729 | 64915
5 | 14:25.41 | 4:16.09 | 64916 | 84124
6 | 18:41.50 | 2:00.41 | 84125 | 93165
7 | 20:42.16 | 3:57.59 | 93166 | 110999
8 | 24:40.00 | 2:15.41 | 111000 | 121165
9 | 26:55.41 | 3:35.42 | 121166 | 137332
10 | 30:31.08 | 3:14.33 | 137333 | 151915
11 | 33:45.41 | 4:41.50 | 151916 | 173040
12 | 38:27.16 | 3:43.04 | 173041 | 189769
13 | 42:10.20 | 3:57.59 | 189770 | 207603
14 | 46:08.04 | 3:40.58 | 207604 | 224161
15 | 49:48.62 | 2:30.21 | 224162 | 235432
16 | 52:19.08 | 3:46.08 | 235433 | 252390
17 | 56:05.16 | 2:56.08 | 252391 | 265598
18 | 59:01.24 | 3:00.28 | 265599 | 279126
19 | 62:01.52 | 3:45.63 | 279127 | 296064
20 | 65:47.40 | 2:52.71 | 296065 | 309035
21 | 68:40.36 | 4:01.43 | 309036 | 327153


Track 1

Filename C:\Users\Public\EAC 2020\FLAC\The Meteors - Skull And Bones And Curse Of Blood And Bones EAC FLAC 2021 1.6\01 Chasing Evil.wav

Pre-gap length 0:00:02.00

Peak level 97.7 %
Extraction speed 1.1 X
Track quality 100.0 %
Test CRC 00A1E0E2
Copy CRC 00A1E0E2
Track not present in AccurateRip database
Copy OK

Track 2

Filename C:\Users\Public\EAC 2020\FLAC\The Meteors - Skull And Bones And Curse Of Blood And Bones EAC FLAC 2021 1.6\02 A Night In The Tombs.wav

Pre-gap length 0:00:00.01

Peak level 97.7 %
Extraction speed 1.2 X
Track quality 100.0 %
Test CRC 2454E8D3
Copy CRC 2454E8D3
Track not present in AccurateRip database
Copy OK

Track 3

Filename C:\Users\Public\EAC 2020\FLAC\The Meteors - Skull And Bones And Curse Of Blood And Bones EAC FLAC 2021 1.6\03 Skull N Bones.wav

Pre-gap length 0:00:00.01

Peak level 97.7 %
Extraction speed 1.3 X
Track quality 100.0 %
Test CRC 842AD946
Copy CRC 842AD946
Track not present in AccurateRip database
Copy OK

Track 4

Filename C:\Users\Public\EAC 2020\FLAC\The Meteors - Skull And Bones And Curse Of Blood And Bones EAC FLAC 2021 1.6\04 Get Back In The Swamp And Jump.wav

Pre-gap length 0:00:00.01

Peak level 97.7 %
Extraction speed 1.4 X
Track quality 100.0 %
Test CRC C2B57371
Copy CRC C2B57371
Track not present in AccurateRip database
Copy OK

Track 5

Filename C:\Users\Public\EAC 2020\FLAC\The Meteors - Skull And Bones And Curse Of Blood And Bones EAC FLAC 2021 1.6\05 Changeling.wav

Pre-gap length 0:00:00.01

Peak level 97.7 %
Extraction speed 1.5 X
Track quality 100.0 %
Test CRC 1907D698
Copy CRC 1907D698
Track not present in AccurateRip database
Copy OK

Track 6

Filename C:\Users\Public\EAC 2020\FLAC\The Meteors - Skull And Bones And Curse Of Blood And Bones EAC FLAC 2021 1.6\06 Dateless Nights Zed Mix.wav

Pre-gap length 0:00:00.01

Peak level 97.7 %
Extraction speed 1.4 X
Track quality 100.0 %
Test CRC D4199317
Copy CRC D4199317
Track not present in AccurateRip database
Copy OK

Track 7

Filename C:\Users\Public\EAC 2020\FLAC\The Meteors - Skull And Bones And Curse Of Blood And Bones EAC FLAC 2021 1.6\07 The Night Comes With Me.wav

Pre-gap length 0:00:00.01

Peak level 97.7 %
Extraction speed 1.6 X
Track quality 100.0 %
Test CRC 96ABC815
Copy CRC 96ABC815
Track not present in AccurateRip database
Copy OK

Track 8

Filename C:\Users\Public\EAC 2020\FLAC\The Meteors - Skull And Bones And Curse Of Blood And Bones EAC FLAC 2021 1.6\08 Zombie Noise Rockin Zombie Mix.wav

Peak level 97.7 %
Extraction speed 1.5 X
Track quality 100.0 %
Test CRC DF593D9E
Copy CRC DF593D9E
Track not present in AccurateRip database
Copy OK

Track 9

Filename C:\Users\Public\EAC 2020\FLAC\The Meteors - Skull And Bones And Curse Of Blood And Bones EAC FLAC 2021 1.6\09 More Demons Than Most.wav

Pre-gap length 0:00:00.01

Peak level 97.7 %
Extraction speed 1.7 X
Track quality 100.0 %
Test CRC AC4A70D5
Copy CRC AC4A70D5
Track not present in AccurateRip database
Copy OK

Track 10

Filename C:\Users\Public\EAC 2020\FLAC\The Meteors - Skull And Bones And Curse Of Blood And Bones EAC FLAC 2021 1.6\10 Twisted.wav

Pre-gap length 0:00:00.01

Peak level 97.7 %
Extraction speed 1.8 X
Track quality 100.0 %
Test CRC 6F894168
Copy CRC 6F894168
Track not present in AccurateRip database
Copy OK

Track 11

Filename C:\Users\Public\EAC 2020\FLAC\The Meteors - Skull And Bones And Curse Of Blood And Bones EAC FLAC 2021 1.6\11 All I Do.wav

Peak level 97.7 %
Extraction speed 1.9 X
Track quality 100.0 %
Test CRC EB1C2017
Copy CRC EB1C2017
Track not present in AccurateRip database
Copy OK

Track 12

Filename C:\Users\Public\EAC 2020\FLAC\The Meteors - Skull And Bones And Curse Of Blood And Bones EAC FLAC 2021 1.6\12 The Queen Of Zorch.wav

Pre-gap length 0:00:00.01

Peak level 97.7 %
Extraction speed 1.9 X
Track quality 100.0 %
Test CRC 4917B8D2
Copy CRC 4917B8D2
Track not present in AccurateRip database
Copy OK

Track 13

Filename C:\Users\Public\EAC 2020\FLAC\The Meteors - Skull And Bones And Curse Of Blood And Bones EAC FLAC 2021 1.6\13 All I Can Do Is Cry.wav

Peak level 97.7 %
Extraction speed 2.0 X
Track quality 100.0 %
Test CRC 672B5F30
Copy CRC 672B5F30
Track not present in AccurateRip database
Copy OK

Track 14

Filename C:\Users\Public\EAC 2020\FLAC\The Meteors - Skull And Bones And Curse Of Blood And Bones EAC FLAC 2021 1.6\14 Creature.wav

Pre-gap length 0:00:00.01

Peak level 97.7 %
Extraction speed 1.8 X
Track quality 99.9 %
Test CRC 034CF439
Copy CRC 034CF439
Track not present in AccurateRip database
Copy OK

Track 15

Filename C:\Users\Public\EAC 2020\FLAC\The Meteors - Skull And Bones And Curse Of Blood And Bones EAC FLAC 2021 1.6\15 She Is My Witch.wav

Pre-gap length 0:00:00.01

Peak level 97.7 %
Extraction speed 2.0 X
Track quality 100.0 %
Test CRC DE999C26
Copy CRC DE999C26
Track not present in AccurateRip database
Copy OK

Track 16

Filename C:\Users\Public\EAC 2020\FLAC\The Meteors - Skull And Bones And Curse Of Blood And Bones EAC FLAC 2021 1.6\16 Daughter Of The Deep.wav

Peak level 97.7 %
Extraction speed 1.9 X
Track quality 99.9 %
Test CRC 6278921B
Copy CRC 6278921B
Track not present in AccurateRip database
Copy OK

Track 17

Filename C:\Users\Public\EAC 2020\FLAC\The Meteors - Skull And Bones And Curse Of Blood And Bones EAC FLAC 2021 1.6\17 Alligator Man 2020.wav

Peak level 97.7 %
Extraction speed 2.1 X
Track quality 100.0 %
Test CRC 8C513A2E
Copy CRC 8C513A2E
Track not present in AccurateRip database
Copy OK

Track 18

Filename C:\Users\Public\EAC 2020\FLAC\The Meteors - Skull And Bones And Curse Of Blood And Bones EAC FLAC 2021 1.6\18 Guilty As Charged Sense Of Humour Mix.wav

Pre-gap length 0:00:00.01

Peak level 97.7 %
Extraction speed 2.2 X
Track quality 100.0 %
Test CRC 6C64300C
Copy CRC 6C64300C
Track not present in AccurateRip database
Copy OK

Track 19

Filename C:\Users\Public\EAC 2020\FLAC\The Meteors - Skull And Bones And Curse Of Blood And Bones EAC FLAC 2021 1.6\19 You Used To Be The Usual Suspects.wav

Pre-gap length 0:00:00.01

Peak level 97.7 %
Extraction speed 2.3 X
Track quality 100.0 %
Test CRC 4B62C3F1
Copy CRC 4B62C3F1
Track not present in AccurateRip database
Copy OK

Track 20

Filename C:\Users\Public\EAC 2020\FLAC\The Meteors - Skull And Bones And Curse Of Blood And Bones EAC FLAC 2021 1.6\20 Little Hellcat.wav

Pre-gap length 0:00:00.01

Peak level 97.7 %
Extraction speed 1.9 X
Track quality 99.9 %
Test CRC 4FF27A4B
Copy CRC 4FF27A4B
Track not present in AccurateRip database
Copy OK

Track 21

Filename C:\Users\Public\EAC 2020\FLAC\The Meteors - Skull And Bones And Curse Of Blood And Bones EAC FLAC 2021 1.6\21 Ghost Riders In The Sky.wav

Peak level 97.7 %
Extraction speed 2.4 X
Track quality 100.0 %
Test CRC 81EC9868
Copy CRC 81EC9868
Track not present in AccurateRip database
Copy OK


None of the tracks are present in the AccurateRip database

No errors occurred

End of status report

–– CUETools DB Plugin V2.1.6

[CTDB TOCID: a37_TL210.cMvYnP8vtT_NASc_U-] disk not present in database
Submit result: a37_TL210.cMvYnP8vtT_NASc_U- has been uploaded


==== Log checksum 2F5AB35C7852A2277BE3F24B356F9361821917D157DEEF64C03730603961553D ====