Tags
Language
Tags

Danny Elfman & VA - Tim Burton's The Nightmare Before Christmas: Original Motion Picture Soundtrack (1993) 2CD Edition 2006

Posted By: Efgrapha
Danny Elfman & VA - Tim Burton's The Nightmare Before Christmas: Original Motion Picture Soundtrack (1993) 2CD Edition 2006

Danny Elfman & VA - Tim Burton's The Nightmare Before Christmas (1993)
Original Motion Picture Soundtrack, 2-Disc Special Edition, 2006
EAC | FLAC (Tracks) + cue.+log ~ 554 Mb | MP3 (CBR320) ~ 223 Mb | Scans included | 01:34:48
Soundtrack, Score, Modern Classical, Rock | Label: Walt Disney | # 61636-7

Not only is The Nightmare Before Christmas one of the best musicals of the past two decades; it may well be Danny Elfman's masterpiece, successfully integrating his main influences (from Cab Calloway to Nino Rota) into a fantastic whole. The first disc of this reissue features the original soundtrack, its songs still teetering between dark humor and poetic flights of fancy; this so-called kids' music is at least as sophisticated and skilled as anything you're likely to hear on Broadway. The second disc includes demo versions of four songs on which Elfman plays and sings everything, and five new covers of some of Nightmare's best-loved songs. Marilyn Manson successfully applies his spooky Weimar-circus style on "This Is Halloween" while Panic! At the Disco's lushly orchestrated take on the same tune is closer to the original. Fiona Apple's poignant "Sally's Song" is enhanced by very nice string charts, and She Wants Revenge does a disco take on "Kidnap the Sandy Claws." Best perhaps is Fall Out Boy's cover of "What's This?" which sounds like an unexpected cross between the Beach Boys and Queen. A highly recommended set.

–Elisabeth Vincentelli

Danny Elfman, who has scored many of Tim Burton's imaginative films (Edward Scissorhands, his two Batman films, etc.), is a perfect musical partner for the somewhat macabre director, and never more so than here, where, in fact, Elfman gets not only to write the music but to play the part of the main character. The Nightmare Before Christmas is an animated movie musical about the abduction of Christmas by the denizens of Halloween land, and Elfman sings the part of Jack, the Pumpkin King. The score is in his usual lush but threatening style (Kurt Weill is his biggest influence), but the highlight is Elfman's singing. Even in his rock band Oingo Boingo (now merely Boingo), Elfman doesn't get to sing like this. Granted, the soundtrack album inevitably lacks the film's outlandish visuals, but it tells the story on its own, and one is better able to appreciate Elfman's outstanding performance. [The 2006 reissue comes packaged with an additional nine-track bonus CD.]

William Ruhlmann, All Music Guide

~ Danny Elfman at Allmusic
~ Danny Elfman at Wiki

~ Film at IMDB
~ Film at Wiki

Tracklist:

CD1:

01. Overture (1:48)
02. Opening (Narration By Patrick Stewart) (0:57)
03. This Is Halloween (Performed By The Citizens Of Halloween) (3:17)
04. Jack's Lament (Performed By Danny Elfman) (3:14)
05. Doctor Finklestein / In The Forest (2:36)
06. What's This? (Performed By Danny Elfman) (3:06)
07. Town Meeting Song (Performed By Danny Elfman and Cast) (2:57)
08. Jack and Sally Montage (5:17)
09. Jack's Obsession (Performed By Danny Elfman and Cast) (2:46)
10. Kidnap The Sandy Claws (Performed By Paul Reubens, Catherine O'Hara, and Danny Elfman) (3:03)
11. Making Christmas (Performed By Danny Elfman And The Citizens Of Halloween) (3:58)
12. Nabbed (3:04)
13. Oogie Boogie's Song (Performed By Ken Page with Ed Ivory) (3:17)
14. Sally's Song (Performed By Catherine O'Hara) (1:48)
15. Christmas Eve Montage (4:44)
16. Poor Jack (Performed By Danny Elfman) (2:31)
17. To The Rescue (3:38)
18. Finale/Reprise (Performed By Danny Elfman, Catherine O'Hara, and The Citizens Of Halloween) (2:44)
19. Closing (Narration By Patrick Stewart) (1:26)
20. End Title (5:05)


CD2:

01. Marilyn Manson - This is Halloween (3:23)
02. Fiona Apple - Sally's Song (3:21)
03. Fall Out Boy - What's This? (3:01)
04. She Wants Revenge - Kidnap the Sandy Claws (5:10)
05. Panic at the Disco - This is Halloween (3:37)
06. Danny Elfman - Making Christmas (Demo) (5:35)
07. Danny Elfman - Oogie Boogie's Song (Demo) (3:15)
08. Danny Elfman - Kidnap the Sandy Claws (Demo) (2:51)
09. Danny Elfman - This is Halloween (Demo) (3:19)


Exact Audio Copy V0.99 prebeta 4 from 23. January 2008

EAC extraction logfile from 16. March 2009, 20:42

Danny Elfman / The Nightmare Before Christmas Soundtrack [2006 Special Edition] (Disc 1)

Used drive : TSSTcorpDVD+-RW TS-H653B Adapter: 0 ID: 0

Read mode : Secure
Utilize accurate stream : Yes
Defeat audio cache : Yes
Make use of C2 pointers : No

Read offset correction : 6
Overread into Lead-In and Lead-Out : No
Fill up missing offset samples with silence : Yes
Delete leading and trailing silent blocks : No
Null samples used in CRC calculations : Yes
Used interface : Native Win32 interface for Win NT & 2000
Gap handling : Appended to previous track

Used output format : User Defined Encoder
Selected bitrate : 192 kBit/s
Quality : High
Add ID3 tag : No
Command line compressor : C:\Program Files\Exact Audio Copy\Flac\flac.exe
Additional command line options : -8 -A tukey(0.25) -A gauss(0.1875) -b 4096 -V -T "artist=%a" -T "title=%t" -T "album=%g" -T "date=%y" -T "tracknumber=%n" -T "genre=%m" %s


TOC of the extracted CD

Track | Start | Length | Start sector | End sector
––––––––––––––––––––––––––––-
1 | 0:00.00 | 1:48.01 | 0 | 8100
2 | 1:48.01 | 0:57.12 | 8101 | 12387
3 | 2:45.13 | 3:16.42 | 12388 | 27129
4 | 6:01.55 | 3:14.02 | 27130 | 41681
5 | 9:15.57 | 2:36.25 | 41682 | 53406
6 | 11:52.07 | 3:05.43 | 53407 | 67324
7 | 14:57.50 | 2:56.53 | 67325 | 80577
8 | 17:54.28 | 5:17.07 | 80578 | 104359
9 | 23:11.35 | 2:46.33 | 104360 | 116842
10 | 25:57.68 | 3:02.47 | 116843 | 130539
11 | 29:00.40 | 3:57.65 | 130540 | 148379
12 | 32:58.30 | 3:04.15 | 148380 | 162194
13 | 36:02.45 | 3:17.03 | 162195 | 176972
14 | 39:19.48 | 1:47.50 | 176973 | 185047
15 | 41:07.23 | 4:43.72 | 185048 | 206344
16 | 45:51.20 | 2:31.05 | 206345 | 217674
17 | 48:22.25 | 3:38.18 | 217675 | 234042
18 | 52:00.43 | 2:44.27 | 234043 | 246369
19 | 54:44.70 | 1:26.05 | 246370 | 252824
20 | 56:11.00 | 5:05.32 | 252825 | 275731


Track 1

Filename C:\Documents and Settings\Administrator\Desktop\!Music\Various Artists - The Nightmare Before Christmas Soundtrack [2006 Special Edition] FLAC\01 - Overture.wav

Pre-gap length 0:00:02.00

Peak level 95.4 %
Track quality 100.0 %
Test CRC 87F7B68A
Copy CRC 87F7B68A
Accurately ripped (confidence 28) [C98B9200]
Copy OK

Track 2

Filename C:\Documents and Settings\Administrator\Desktop\!Music\Various Artists - The Nightmare Before Christmas Soundtrack [2006 Special Edition] FLAC\02 - Opening (Narration By Patrick Stewart).wav

Peak level 49.9 %
Track quality 100.0 %
Test CRC CC8A8969
Copy CRC CC8A8969
Accurately ripped (confidence 28) [33BFFAF8]
Copy OK

Track 3

Filename C:\Documents and Settings\Administrator\Desktop\!Music\Various Artists - The Nightmare Before Christmas Soundtrack [2006 Special Edition] FLAC\03 - This Is Halloween (Performed By The Citizens Of Halloween).wav

Peak level 95.4 %
Track quality 99.9 %
Test CRC BA3F44EA
Copy CRC BA3F44EA
Accurately ripped (confidence 28) [1DE82284]
Copy OK

Track 4

Filename C:\Documents and Settings\Administrator\Desktop\!Music\Various Artists - The Nightmare Before Christmas Soundtrack [2006 Special Edition] FLAC\04 - Jack's Lament (Performed By Danny Elfman).wav

Peak level 95.4 %
Track quality 100.0 %
Test CRC 9B97D712
Copy CRC 9B97D712
Accurately ripped (confidence 20) [21E6B302]
Copy OK

Track 5

Filename C:\Documents and Settings\Administrator\Desktop\!Music\Various Artists - The Nightmare Before Christmas Soundtrack [2006 Special Edition] FLAC\05 - Doctor Finklestein,In The Forest.wav

Peak level 95.4 %
Track quality 100.0 %
Test CRC CF4A30C2
Copy CRC CF4A30C2
Accurately ripped (confidence 20) [5BAB2E47]
Copy OK

Track 6

Filename C:\Documents and Settings\Administrator\Desktop\!Music\Various Artists - The Nightmare Before Christmas Soundtrack [2006 Special Edition] FLAC\06 - What's This (Performed By Danny Elfman).wav

Peak level 95.4 %
Track quality 100.0 %
Test CRC 0F99D8EB
Copy CRC 0F99D8EB
Accurately ripped (confidence 20) [34472499]
Copy OK

Track 7

Filename C:\Documents and Settings\Administrator\Desktop\!Music\Various Artists - The Nightmare Before Christmas Soundtrack [2006 Special Edition] FLAC\07 - Town Meeting Song (Performed By Danny Elfman and Cast).wav

Peak level 89.3 %
Track quality 100.0 %
Test CRC E402DF61
Copy CRC E402DF61
Accurately ripped (confidence 27) [AA3FE21E]
Copy OK

Track 8

Filename C:\Documents and Settings\Administrator\Desktop\!Music\Various Artists - The Nightmare Before Christmas Soundtrack [2006 Special Edition] FLAC\08 - Jack and Sally Montage.wav

Peak level 91.0 %
Track quality 99.9 %
Test CRC CD1F4B2D
Copy CRC CD1F4B2D
Accurately ripped (confidence 26) [D020984A]
Copy OK

Track 9

Filename C:\Documents and Settings\Administrator\Desktop\!Music\Various Artists - The Nightmare Before Christmas Soundtrack [2006 Special Edition] FLAC\09 - Jack's Obsession (Performed By Danny Elfman and Cast).wav

Peak level 95.3 %
Track quality 100.0 %
Test CRC 14169025
Copy CRC 14169025
Accurately ripped (confidence 23) [EFA0CE87]
Copy OK

Track 10

Filename C:\Documents and Settings\Administrator\Desktop\!Music\Various Artists - The Nightmare Before Christmas Soundtrack [2006 Special Edition] FLAC\10 - Kidnap The Sandy Claws (Performed By Paul Reubens, Catherine O'Hara, and Danny Elfman).wav

Peak level 95.4 %
Track quality 99.9 %
Test CRC 1DA2A82C
Copy CRC 1DA2A82C
Accurately ripped (confidence 28) [01FA435F]
Copy OK

Track 11

Filename C:\Documents and Settings\Administrator\Desktop\!Music\Various Artists - The Nightmare Before Christmas Soundtrack [2006 Special Edition] FLAC\11 - Making Christmas (Performed By Danny Elfman And The Citizens Of Halloween).wav

Peak level 95.4 %
Track quality 100.0 %
Test CRC 69872220
Copy CRC 69872220
Accurately ripped (confidence 28) [06AC1064]
Copy OK

Track 12

Filename C:\Documents and Settings\Administrator\Desktop\!Music\Various Artists - The Nightmare Before Christmas Soundtrack [2006 Special Edition] FLAC\12 - Nabbed.wav

Peak level 95.4 %
Track quality 100.0 %
Test CRC 80770583
Copy CRC 80770583
Accurately ripped (confidence 28) [B5BC6432]
Copy OK

Track 13

Filename C:\Documents and Settings\Administrator\Desktop\!Music\Various Artists - The Nightmare Before Christmas Soundtrack [2006 Special Edition] FLAC\13 - Oogie Boogie's Song (Performed By Ken Page with Ed Ivory).wav

Peak level 95.4 %
Track quality 100.0 %
Test CRC 8B4FD85E
Copy CRC 8B4FD85E
Accurately ripped (confidence 27) [CDE70586]
Copy OK

Track 14

Filename C:\Documents and Settings\Administrator\Desktop\!Music\Various Artists - The Nightmare Before Christmas Soundtrack [2006 Special Edition] FLAC\14 - Sally's Song (Performed By Catherine O'Hara).wav

Peak level 57.9 %
Track quality 100.0 %
Test CRC 91D29A16
Copy CRC 91D29A16
Accurately ripped (confidence 28) [C2C0AB42]
Copy OK

Track 15

Filename C:\Documents and Settings\Administrator\Desktop\!Music\Various Artists - The Nightmare Before Christmas Soundtrack [2006 Special Edition] FLAC\15 - Christmas Eve Montage.wav

Peak level 95.3 %
Track quality 100.0 %
Test CRC DE80514B
Copy CRC DE80514B
Accurately ripped (confidence 28) [1CB50C74]
Copy OK

Track 16

Filename C:\Documents and Settings\Administrator\Desktop\!Music\Various Artists - The Nightmare Before Christmas Soundtrack [2006 Special Edition] FLAC\16 - Poor Jack (Performed By Danny Elfman).wav

Peak level 95.4 %
Track quality 99.9 %
Test CRC 701458A7
Copy CRC 701458A7
Accurately ripped (confidence 28) [51A46366]
Copy OK

Track 17

Filename C:\Documents and Settings\Administrator\Desktop\!Music\Various Artists - The Nightmare Before Christmas Soundtrack [2006 Special Edition] FLAC\17 - To The Rescue.wav

Peak level 95.4 %
Track quality 100.0 %
Test CRC B21A3F5D
Copy CRC B21A3F5D
Accurately ripped (confidence 27) [0702D3B0]
Copy OK

Track 18

Filename C:\Documents and Settings\Administrator\Desktop\!Music\Various Artists - The Nightmare Before Christmas Soundtrack [2006 Special Edition] FLAC\18 - Finale,Reprise (Performed By Danny Elfman, Catherine O'Hara, and The Citizens Of Halloween).wav

Peak level 95.4 %
Track quality 99.9 %
Test CRC 7EDA542D
Copy CRC 7EDA542D
Accurately ripped (confidence 28) [A0953E2E]
Copy OK

Track 19

Filename C:\Documents and Settings\Administrator\Desktop\!Music\Various Artists - The Nightmare Before Christmas Soundtrack [2006 Special Edition] FLAC\19 - Closing (Narration By Patrick Stewart).wav

Peak level 35.9 %
Track quality 100.0 %
Test CRC F8F2B6CB
Copy CRC F8F2B6CB
Accurately ripped (confidence 28) [B7D8F71D]
Copy OK

Track 20

Filename C:\Documents and Settings\Administrator\Desktop\!Music\Various Artists - The Nightmare Before Christmas Soundtrack [2006 Special Edition] FLAC\20 - End Title.wav

Peak level 95.4 %
Track quality 99.9 %
Test CRC E04C21D9
Copy CRC E04C21D9
Accurately ripped (confidence 27) [1009128F]
Copy OK


All tracks accurately ripped

No errors occurred

End of status report

[CUETools log; Date: 06.12.2017 2:19:25; Version: 2.1.4]
[CTDB TOCID: h81jGU_d7P8a8JFXRTNvVnZVOaE-] found.
Track | CTDB Status
1 | (130/133) Accurately ripped
2 | (132/133) Accurately ripped
3 | (132/133) Accurately ripped
4 | (132/133) Accurately ripped
5 | (132/133) Accurately ripped
6 | (130/133) Accurately ripped
7 | (130/133) Accurately ripped
8 | (130/133) Accurately ripped
9 | (130/133) Accurately ripped
10 | (129/133) Accurately ripped
11 | (131/133) Accurately ripped
12 | (131/133) Accurately ripped
13 | (131/133) Accurately ripped
14 | (132/133) Accurately ripped
15 | (131/133) Accurately ripped
16 | (129/133) Accurately ripped
17 | (129/133) Accurately ripped
18 | (132/133) Accurately ripped
19 | (132/133) Accurately ripped
20 | (131/133) Accurately ripped
[AccurateRip ID: 0029ee24-0275339c-210e5c14] found.
Track [ CRC | V2 ] Status
01 [c98b9200|06eec699] (054+062/116) Accurately ripped
02 [33bffaf8|80318da0] (054+064/118) Accurately ripped
03 [1de82284|69d34435] (054+063/117) Accurately ripped
04 [21e6b302|1baa11e9] (052+064/116) Accurately ripped
05 [5bab2e47|dffef363] (053+063/116) Accurately ripped
06 [34472499|3a938def] (053+062/115) Accurately ripped
07 [aa3fe21e|9d9a36d1] (054+063/117) Accurately ripped
08 [d020984a|8235f461] (054+063/117) Accurately ripped
09 [efa0ce87|619b902f] (054+062/116) Accurately ripped
10 [01fa435f|c29e197c] (053+062/115) Accurately ripped
11 [06ac1064|8b2231b2] (054+062/116) Accurately ripped
12 [b5bc6432|9786bd92] (054+063/117) Accurately ripped
13 [cde70586|e9dee4be] (053+063/116) Accurately ripped
14 [c2c0ab42|b8638966] (054+062/116) Accurately ripped
15 [1cb50c74|5899a248] (053+064/117) Accurately ripped
16 [51a46366|a1832e3f] (054+063/117) Accurately ripped
17 [0702d3b0|a29dab46] (053+061/114) Accurately ripped
18 [a0953e2e|e990bccd] (054+061/115) Accurately ripped
19 [b7d8f71d|1f8e6d7e] (054+061/115) Accurately ripped
20 [1009128f|852e22c1] (053+061/114) Accurately ripped
Offsetted by -136:
01 [e3feafbb] (000/116) No match (V2 was not tested)
02 [673fc3d2] (000/118) No match
03 [1b325b88] (000/117) No match (V2 was not tested)
04 [b978abce] (000/116) No match (V2 was not tested)
05 [95370d1c] (000/116) No match (V2 was not tested)
06 [93c5b464] (000/115) No match (V2 was not tested)
07 [9b014e6e] (000/117) No match (V2 was not tested)
08 [e6a5f489] (000/117) No match (V2 was not tested)
09 [2e334d42] (000/116) No match (V2 was not tested)
10 [2df61482] (000/115) No match (V2 was not tested)
11 [c604cba4] (000/116) No match (V2 was not tested)
12 [e5e54c77] (000/117) No match (V2 was not tested)
13 [8baaa2d9] (000/116) No match (V2 was not tested)
14 [010773b4] (000/116) No match (V2 was not tested)
15 [91488c4e] (000/117) No match (V2 was not tested)
16 [77fe9e24] (000/117) No match (V2 was not tested)
17 [a8bbde7f] (000/114) No match (V2 was not tested)
18 [59677c7d] (000/115) No match (V2 was not tested)
19 [0a72561d] (000/115) No match (V2 was not tested)
20 [08f6e639] (000/114) No match (V2 was not tested)

Track Peak [ CRC32 ] [W/O NULL] [ LOG ]
– 95,4 [DDC837E2] [F0D18C29]
01 95,4 [87F7B68A] [273AE63B] CRC32
02 49,9 [CC8A8969] [48CB3BA1] CRC32
03 95,4 [BA3F44EA] [57649FE8] CRC32
04 95,4 [9B97D712] [E17D839B] CRC32
05 95,4 [CF4A30C2] [FA8EA338] CRC32
06 95,4 [0F99D8EB] [2741C2E4] CRC32
07 89,3 [E402DF61] [FD84D1E8] CRC32
08 91,0 [CD1F4B2D] [81E9E35A] CRC32
09 95,3 [14169025] [8220AFB8] CRC32
10 95,4 [1DA2A82C] [35E80F38] CRC32
11 95,4 [69872220] [7D2B1DD8] CRC32
12 95,4 [80770583] [A4E445EF] CRC32
13 95,4 [8B4FD85E] [B25C9A99] CRC32
14 57,9 [91D29A16] [654DE977] CRC32
15 95,3 [DE80514B] [DFBCA4A3] CRC32
16 95,4 [701458A7] [CCEEF80A] CRC32
17 95,4 [B21A3F5D] [D5860558] CRC32
18 95,4 [7EDA542D] [7B1EB2EB] CRC32
19 35,9 [F8F2B6CB] [FB06CF45] CRC32
20 95,4 [E04C21D9] [ECFB2B99] CRC32

foobar2000 1.2 / Dynamic Range Meter 1.1.1
log date: 2017-12-06 02:30:19

––––––––––––––––––––––––––––––––––––––––
Analyzed: Danny Elfman / The Nightmare Before Christmas
––––––––––––––––––––––––––––––––––––––––

DR Peak RMS Duration Track
––––––––––––––––––––––––––––––––––––––––
DR11 -0.41 dB -15.15 dB 1:48 01-Overture
DR14 -6.02 dB -25.96 dB 0:57 02-Opening (Narration By Patrick Stewart)
DR13 -0.41 dB -16.24 dB 3:17 03-This Is Halloween (Performed By The Citizens Of Halloween)
DR12 -0.41 dB -18.29 dB 3:14 04-Jack's Lament (Performed By Danny Elfman)
DR12 -0.40 dB -18.45 dB 2:36 05-Doctor Finklestein / In The Forest
DR10 -0.40 dB -14.62 dB 3:06 06-What's This? (Performed By Danny Elfman)
DR14 -0.98 dB -18.84 dB 2:57 07-Town Meeting Song (Performed By Danny Elfman and Cast)
DR15 -0.82 dB -22.35 dB 5:17 08-Jack and Sally Montage
DR13 -0.41 dB -17.45 dB 2:46 09-Jack's Obsession (Performed By Danny Elfman and Cast)
DR12 -0.41 dB -15.38 dB 3:03 10-Kidnap The Sandy Claws (Performed By Paul Reubens, Catherine O'Hara, and Danny Elfman)
DR11 -0.41 dB -15.31 dB 3:58 11-Making Christmas (Performed By Danny Elfman And The Citizens Of Halloween)
DR15 -0.41 dB -22.22 dB 3:04 12-Nabbed
DR12 -0.41 dB -14.81 dB 3:17 13-Oogie Boogie's Song (Performed By Ken Page with Ed Ivory)
DR12 -4.73 dB -21.20 dB 1:48 14-Sally's Song (Performed By Catherine O'Hara)
DR15 -0.41 dB -20.67 dB 4:44 15-Christmas Eve Montage
DR11 -0.41 dB -16.00 dB 2:31 16-Poor Jack (Performed By Danny Elfman)
DR13 -0.41 dB -18.14 dB 3:38 17-To The Rescue
DR13 -0.41 dB -17.80 dB 2:44 18-Finale/Reprise (Performed By Danny Elfman, Catherine O'Hara, and The Citizens Of Halloween)
DR17 -8.89 dB -29.44 dB 1:26 19-Closing (Narration By Patrick Stewart)
DR12 -0.41 dB -16.18 dB 5:05 20-End Title
––––––––––––––––––––––––––––––––––––––––

Number of tracks: 20
Official DR value: DR13

Samplerate: 44100 Hz
Channels: 2
Bits per sample: 16
Bitrate: 776 kbps
Codec: FLAC
================================================================================


Exact Audio Copy V0.99 prebeta 4 from 23. January 2008

EAC extraction logfile from 16. March 2009, 21:18

VA / The Nightmare Before Christmas [2006 Special Edition] (Disc 2)

Used drive : TSSTcorpDVD+-RW TS-H653B Adapter: 0 ID: 0

Read mode : Secure
Utilize accurate stream : Yes
Defeat audio cache : Yes
Make use of C2 pointers : No

Read offset correction : 6
Overread into Lead-In and Lead-Out : No
Fill up missing offset samples with silence : Yes
Delete leading and trailing silent blocks : No
Null samples used in CRC calculations : Yes
Used interface : Native Win32 interface for Win NT & 2000
Gap handling : Appended to previous track

Used output format : User Defined Encoder
Selected bitrate : 192 kBit/s
Quality : High
Add ID3 tag : No
Command line compressor : C:\Program Files\Exact Audio Copy\Flac\flac.exe
Additional command line options : -8 -A tukey(0.25) -A gauss(0.1875) -b 4096 -V -T "artist=%a" -T "title=%t" -T "album=%g" -T "date=%y" -T "tracknumber=%n" -T "genre=%m" %s


TOC of the extracted CD

Track | Start | Length | Start sector | End sector
––––––––––––––––––––––––––––-
1 | 0:00.00 | 3:22.68 | 0 | 15217
2 | 3:22.68 | 3:20.65 | 15218 | 30282
3 | 6:43.58 | 3:00.70 | 30283 | 43852
4 | 9:44.53 | 5:09.44 | 43853 | 67071
5 | 14:54.22 | 3:36.70 | 67072 | 83341
6 | 18:31.17 | 5:34.48 | 83342 | 108439
7 | 24:05.65 | 3:15.34 | 108440 | 123098
8 | 27:21.24 | 2:51.02 | 123099 | 135925
9 | 30:12.26 | 3:19.15 | 135926 | 150865


Track 1

Filename C:\Documents and Settings\Administrator\Desktop\!Music\Various Artists - The Nightmare Before Christmas Soundtrack [2006 Special Edition] FLAC\Disc 2\01 - Marilyn Manson - This is Halloween.wav

Pre-gap length 0:00:02.00

Peak level 84.1 %
Track quality 100.0 %
Test CRC 740EB92D
Copy CRC 740EB92D
Accurately ripped (confidence 11) [F7BDEC2F]
Copy OK

Track 2

Filename C:\Documents and Settings\Administrator\Desktop\!Music\Various Artists - The Nightmare Before Christmas Soundtrack [2006 Special Edition] FLAC\Disc 2\02 - Fiona Apple - Sally's Song.wav

Peak level 95.4 %
Track quality 100.0 %
Test CRC C64B384A
Copy CRC C64B384A
Accurately ripped (confidence 11) [AECDB138]
Copy OK

Track 3

Filename C:\Documents and Settings\Administrator\Desktop\!Music\Various Artists - The Nightmare Before Christmas Soundtrack [2006 Special Edition] FLAC\Disc 2\03 - Fall Out Boy - What's This .wav

Peak level 95.4 %
Track quality 100.0 %
Test CRC F7E91A82
Copy CRC F7E91A82
Accurately ripped (confidence 11) [63DDA139]
Copy OK

Track 4

Filename C:\Documents and Settings\Administrator\Desktop\!Music\Various Artists - The Nightmare Before Christmas Soundtrack [2006 Special Edition] FLAC\Disc 2\04 - She Wants Revenge - Kidnap the Sandy Claws.wav

Peak level 95.4 %
Track quality 100.0 %
Test CRC 0D761810
Copy CRC 0D761810
Accurately ripped (confidence 11) [84BDADA7]
Copy OK

Track 5

Filename C:\Documents and Settings\Administrator\Desktop\!Music\Various Artists - The Nightmare Before Christmas Soundtrack [2006 Special Edition] FLAC\Disc 2\05 - Panic at the Disco - This is Halloween.wav

Peak level 95.4 %
Track quality 100.0 %
Test CRC B7DAD560
Copy CRC B7DAD560
Accurately ripped (confidence 11) [70B2E2C9]
Copy OK

Track 6

Filename C:\Documents and Settings\Administrator\Desktop\!Music\Various Artists - The Nightmare Before Christmas Soundtrack [2006 Special Edition] FLAC\Disc 2\06 - Danny Elfman - Making Christmas (Demo).wav

Peak level 85.0 %
Track quality 100.0 %
Test CRC 627C775D
Copy CRC 627C775D
Accurately ripped (confidence 11) [ABB079AD]
Copy OK

Track 7

Filename C:\Documents and Settings\Administrator\Desktop\!Music\Various Artists - The Nightmare Before Christmas Soundtrack [2006 Special Edition] FLAC\Disc 2\07 - Danny Elfman - Oogie Boogie's Song (Demo).wav

Peak level 85.0 %
Track quality 100.0 %
Test CRC 99E45E46
Copy CRC 99E45E46
Accurately ripped (confidence 11) [3BCDCCD5]
Copy OK

Track 8

Filename C:\Documents and Settings\Administrator\Desktop\!Music\Various Artists - The Nightmare Before Christmas Soundtrack [2006 Special Edition] FLAC\Disc 2\08 - Danny Elfman - Kidnap the Sandy Claws (Demo).wav

Peak level 85.0 %
Track quality 99.9 %
Test CRC EDB9E3C1
Copy CRC EDB9E3C1
Accurately ripped (confidence 11) [D10B8AC2]
Copy OK

Track 9

Filename C:\Documents and Settings\Administrator\Desktop\!Music\Various Artists - The Nightmare Before Christmas Soundtrack [2006 Special Edition] FLAC\Disc 2\09 - Danny Elfman - This is Halloween (Demo).wav

Peak level 85.0 %
Track quality 100.0 %
Test CRC 92056F35
Copy CRC 92056F35
Accurately ripped (confidence 11) [1339760E]
Copy OK


All tracks accurately ripped

No errors occurred

End of status report

[CUETools log; Date: 06.12.2017 2:19:35; Version: 2.1.4]
[CTDB TOCID: gBBKAL5qx2e7EXynTpdLXtzKJJg-] found.
Track | CTDB Status
1 | (50/50) Accurately ripped
2 | (50/50) Accurately ripped
3 | (50/50) Accurately ripped
4 | (50/50) Accurately ripped
5 | (50/50) Accurately ripped
6 | (50/50) Accurately ripped
7 | (50/50) Accurately ripped
8 | (50/50) Accurately ripped
9 | (50/50) Accurately ripped
[AccurateRip ID: 000b9153-00559228-6d07db09] found.
Track [ CRC | V2 ] Status
01 [f7bdec2f|6920104c] (27+26/53) Accurately ripped
02 [aecdb138|e362c8a2] (27+26/53) Accurately ripped
03 [63dda139|63079d06] (27+26/53) Accurately ripped
04 [84bdada7|d6000178] (26+26/52) Accurately ripped
05 [70b2e2c9|26d6e046] (26+24/50) Accurately ripped
06 [abb079ad|81e442cb] (27+26/53) Accurately ripped
07 [3bcdccd5|e9a300c5] (26+26/52) Accurately ripped
08 [d10b8ac2|cdb73136] (27+26/53) Accurately ripped
09 [1339760e|580d7edb] (27+27/54) Accurately ripped

Track Peak [ CRC32 ] [W/O NULL] [ LOG ]
– 95,4 [F054FBF4] [5518ACA5]
01 84,1 [740EB92D] [4ED34DC9] CRC32
02 95,4 [C64B384A] [51543435] CRC32
03 95,4 [F7E91A82] [7453639D] CRC32
04 95,4 [0D761810] [EC0E873D] CRC32
05 95,4 [B7DAD560] [DB0996BD] CRC32
06 85,0 [627C775D] [E4157F4A] CRC32
07 85,0 [99E45E46] [A65E15D8] CRC32
08 85,0 [EDB9E3C1] [90FAF990] CRC32
09 85,0 [92056F35] [DBC351E2] CRC32

foobar2000 1.2 / Dynamic Range Meter 1.1.1
log date: 2017-12-06 02:30:31

––––––––––––––––––––––––––––––––––––––––
Analyzed: Danny Elfman / The Nightmare Before Christmas (1-4)
Fall Out Boy / The Nightmare Before Christmas (5)
Fiona Apple / The Nightmare Before Christmas (6)
Marilyn Manson / The Nightmare Before Christmas (7)
Panic at the Disco / The Nightmare Before Christmas (8)
She Wants Revenge / The Nightmare Before Christmas (9)
––––––––––––––––––––––––––––––––––––––––

DR Peak RMS Duration Track
––––––––––––––––––––––––––––––––––––––––
DR7 -1.40 dB -10.24 dB 5:35 06-Making Christmas (Demo)
DR6 -1.40 dB -10.00 dB 3:15 07-Oogie Boogie's Song (Demo)
DR6 -1.40 dB -8.81 dB 2:51 08-Kidnap the Sandy Claws (Demo)
DR6 -1.40 dB -9.04 dB 3:19 09-This is Halloween (Demo)
DR6 -0.40 dB -8.40 dB 3:01 03-What's This?
DR7 -0.40 dB -9.73 dB 3:21 02-Sally's Song
DR5 -1.50 dB -7.41 dB 3:23 01-This is Halloween
DR6 -0.41 dB -9.71 dB 3:37 05-This is Halloween
DR6 -0.40 dB -7.32 dB 5:10 04-Kidnap the Sandy Claws
––––––––––––––––––––––––––––––––––––––––

Number of tracks: 9
Official DR value: DR6

Samplerate: 44100 Hz
Channels: 2
Bits per sample: 16
Bitrate: 959 kbps
Codec: FLAC
================================================================================

Danny Elfman & VA - Tim Burton's The Nightmare Before Christmas: Original Motion Picture Soundtrack (1993) 2CD Edition 2006

All thanks to original uploader

More Movies & Soundtracks in Efgrapha Blog