Tags
Language
Tags

The Pat Metheny Group ‎- In Concert, USA 1992 (1993) [Unofficial Release]

Posted By: Designol
The Pat Metheny Group ‎- In Concert, USA 1992 (1993) [Unofficial Release]

The Pat Metheny Group ‎- In Concert, USA 1992 (1993)
EAC | FLAC | Image (Cue&Log) ~ 443 Mb | Mp3 (CBR320) ~ 157 Mb | Scans included
Contemporary Jazz, Crossover Jazz, Post-Bop | Label: Jazz Door | # JD 1231 | Time: 01:07:51

This live American concert in 1992 emerged on cd at about the same time as the Geffen release "The road to you" which was culled from PMG's european concerts in the early 90's.

While this current selection may not quite equal that release in the quality of the sound, it is a much better live performance overall. There are a couple of small blips in the performance but this is live and taken from one concert. Raw Metheny but edge of your seat performance.

The concert was recorded live in the USA in 1992 at what venue we are sadly not informed.

Review by zargb5, Amazon.co.uk

I was fortunate to find this rare CD in a "pre-owned" CD shop in pristine condition. This was the fabled "Secret Story Tour" in 1992, which took the PMG to various campuses and venues across the USA. Playing with Metheny are his long-time band mates Lyle Mays (keyboards), Paul Wertico (drums), Steve Rodby (bass), Armand Marcai (percussion), & Pedro Aznar (vocals & other instruments). The playing is excellent, reflecting Metheny's output at the time. Some may have issues with the sound quality, perhaps a little mixing was in order (sounds like it came direct from the mixing board), but it is intimate and warm. Also, this falls into the " commercial bootleg" category, so that is why this recording did not receive wide distribution. Much of Metheny's work has a timeless quality, and this recording fits that category - airy, light, and cerebral. This line-up was on several subsequent PMG recordings, including "Road to You" & 'We Live Here". Recommended.

Review by S. Mar, Amazon.com

The Pat Metheny Group ‎- In Concert, USA 1992 (1993) [Unofficial Release]



Pat Metheny - guitar
Lyle Mays - keyboards
Steve Rodby - bass
Paul Wertico - drums
Armand Marcai - percussion
Pedro Aznar - vocal misc. instr.


Tracklist:

01. Have You Heard (07:18)
02. Every Summer Night (07:07)
03. Better Days Ahead (05:37)
04. Last Train Home (05:12)
05. If I Could (08:41)
06. Spring Ain't Here (06:53)
07. Straight on Red (07:33)
08. Minuano (Six Eight) (09:18)
09. Third Wind (10:08)


Exact Audio Copy V1.0 beta 3 from 29. August 2011

Отчёт EAC об извлечении, выполненном 29. августа 2016, 13:34

Pat Metheny Group / In Concert

Дисковод: TSSTcorpCDDVDW SH-224DB Adapter: 1 ID: 0

Режим чтения : Достоверность
Использование точного потока : Да
Отключение кэша аудио : Да
Использование указателей C2 : Нет

Коррекция смещения при чтении : 6
Способность читать области Lead-in и Lead-out : Нет
Заполнение пропущенных сэмплов тишиной : Да
Удаление блоков с тишиной в начале и конце : Нет
При вычислениях CRC использовались нулевые сэмплы : Да
Интерфейс : Встроенный Win32-интерфейс для Win NT/2000

Выходной формат : Пользовательский кодировщик
Выбранный битрейт : 768 kBit/s
Качество : Высокий
Добавление ID3-тега : Нет
Утилита сжатия : C:\Program Files\Exact Audio Copy\Flac\flac.exe
Дополнительные параметры : -V -8 -T "Date=%year%" -T "Genre=%genre%" %source%


TOC извлечённого CD

Трек | Старт | Длительность | Начальный сектор | Конечный сектор
––––––––––––––––––––––––––––––––––-
1 | 0:00.00 | 7:18.30 | 0 | 32879
2 | 7:18.30 | 7:07.50 | 32880 | 64954
3 | 14:26.05 | 5:37.40 | 64955 | 90269
4 | 20:03.45 | 5:12.00 | 90270 | 113669
5 | 25:15.45 | 8:41.42 | 113670 | 152786
6 | 33:57.12 | 6:53.13 | 152787 | 183774
7 | 40:50.25 | 7:33.65 | 183775 | 217814
8 | 48:24.15 | 9:18.25 | 217815 | 259689
9 | 57:42.40 | 10:08.65 | 259690 | 305354


Характеристики диапазона извлечения и сообщения об ошибках

Выбранный диапазон

Имя файла D:\lo$$le$$\Pat Metheny'92 (live)\Pat Metheny Group - In Concert.wav

Пиковый уровень 100.0 %
Скорость извлечения 8.3 X
Качество диапазона 100.0 %
CRC теста 30B4CFAC
CRC копии 30B4CFAC
Копирование… OK

Ошибок не произошло

Конец отчёта

==== Контрольная сумма отчёта AB571BB5B1F4E3CD11951932CDD3C5904931C1765F4A3FC26002BAA8281BCD32 ====

[CUETools log; Date: 08.09.2016 16:14:39; Version: 2.1.4]
[CTDB TOCID: gVd1Ca5i5ZlQjvMWnTIHT5ayKxs-] found.
Track | CTDB Status
1 | (20/21) Accurately ripped
2 | (20/21) Accurately ripped
3 | (20/21) Accurately ripped
4 | (20/21) Accurately ripped
5 | (20/21) Accurately ripped
6 | (20/21) Accurately ripped
7 | (20/21) Accurately ripped
8 | (20/21) Accurately ripped
9 | (20/21) Accurately ripped
[AccurateRip ID: 0015af8d-00a09f13-730fe709] found.
Track [ CRC | V2 ] Status
01 [309109cf|fffc8c5c] (00+00/21) No match
02 [8c39b2b2|a4a2d693] (00+00/23) No match
03 [a5335983|c60424f4] (00+00/23) No match
04 [8a45eb16|9a72d4ab] (00+00/23) No match
05 [f40c7a8f|7670f106] (00+00/23) No match
06 [a296bf31|29868b10] (00+00/22) No match
07 [a7134ea8|c170ae1d] (00+00/22) No match
08 [ae652019|df106661] (00+00/23) No match
09 [eb63cefe|9440f3c2] (00+00/19) No match

Track Peak [ CRC32 ] [W/O NULL] [ LOG ]
– 100,0 [30B4CFAC] [CFFE3BE7] CRC32
01 91,3 [E0BC7042] [FEB3EAC4]
02 100,0 [AFF4BD00] [A7388A6B]
03 100,0 [3F7F3E6F] [CF435B15]
04 79,3 [CB400193] [698083FA]
05 100,0 [EA1077B7] [C8064A50]
06 97,0 [196FF615] [2ED5ADBE]
07 100,0 [C1D5F294] [A9D98CF5]
08 100,0 [410A6902] [06C29C19]
09 100,0 [021D6918] [C44A1E14]

foobar2000 1.2 / Dynamic Range Meter 1.1.1
log date: 2016-09-08 14:55:53

––––––––––––––––––––––––––––––––––––––––
Analyzed: Pat Metheny Group / In Concert
––––––––––––––––––––––––––––––––––––––––

DR Peak RMS Duration Track
––––––––––––––––––––––––––––––––––––––––
DR12 -0.79 dB -15.34 dB 7:18 01-Have You Heard
DR12 0.00 dB -13.06 dB 7:08 02-Every Summer Night
DR12 0.00 dB -13.78 dB 5:38 03-Better Days Ahead
DR11 -2.01 dB -16.61 dB 5:12 04-Last Train Home
DR16 0.00 dB -19.25 dB 8:42 05-If I Could
DR12 -0.26 dB -15.00 dB 6:53 06-Spring Ain't Here
DR12 0.00 dB -14.41 dB 7:34 07-Straight on Red
DR12 0.00 dB -13.97 dB 9:18 08-Minuano (Six Eight)
DR13 0.00 dB -14.22 dB 10:09 09-Third Wind
––––––––––––––––––––––––––––––––––––––––

Number of tracks: 9
Official DR value: DR12

Samplerate: 44100 Hz
Channels: 2
Bits per sample: 16
Bitrate: 908 kbps
Codec: FLAC
================================================================================

The Pat Metheny Group ‎- In Concert, USA 1992 (1993) [Unofficial Release]

The Pat Metheny Group ‎- In Concert, USA 1992 (1993) [Unofficial Release]