Tags
Language
Tags

The Pentangle - Basket Of Light (1969) [Non-Remastered, 1988]

Posted By: Designol
The Pentangle - Basket Of Light (1969) [Non-Remastered, 1988]

The Pentangle - Basket Of Light (1969) [Non-Remastered, 1988]
EAC | WavPack | Image (Cue&Log) ~ 223 Mb | Mp3 (CBR320) ~ 95 Mb | Covers included
Label: Line Records/Transatlantic Records | # TACD 9.00555 O | Time: 00:40:43
British Folk-Rock, Psychedelic, Progressive Folk, Folk-Jazz

Although Sweet Child is usually cited as the group's high-water mark, Basket of Light finds them at their most progressive and exciting. Highlights of this album – which actually reached the Top Five in the U.K. – include the buzzing jazz dynamics of "Light Flight," their moving rendition of the traditional folk song "Once I Had a Sweetheart," their reinvention of the girl group smash "Sally Go Round the Roses," and "Springtime Promises," one of their finest original tunes.

Review by Richie Unterberger, Allmusic.com

The Pentangle - Basket Of Light (1969) [Non-Remastered, 1988]



Tracklist:

01. Light Flight (3:18)
02. Once I Had a Sweetheart (4:39)
03. Springtime Promises (4:08)
04. Lyke-Wake Dirge (3:35)
05. Train Song (4:47)
06. Hunting Song (6:43)
07. Sally Go Round the Roses (3:38)
08. The Cuckoo (4:28)
09. House Carpenter (5:27)


Exact Audio Copy V1.0 beta 3 from 29. August 2011

EAC extraction logfile from 29. May 2017, 21:24

The Pentangle / Basket of Light

Used drive : MATSHITADVD-RAM UJ8B1AS Adapter: 0 ID: 1

Read mode : Secure
Utilize accurate stream : Yes
Defeat audio cache : Yes
Make use of C2 pointers : No

Read offset correction : 6
Overread into Lead-In and Lead-Out : No
Fill up missing offset samples with silence : Yes
Delete leading and trailing silent blocks : No
Null samples used in CRC calculations : Yes
Used interface : Native Win32 interface for Win NT & 2000

Used output format : User Defined Encoder
Selected bitrate : 896 kBit/s
Quality : High
Add ID3 tag : Yes
Command line compressor : D:\DISTRIBUTIVE\WavPack\wavpack-4.80.0-x64\wavpack.exe
Additional command line options : -hm -w "Year=%year%" -w "Genre=%genre%" %source% %dest%


TOC of the extracted CD

Track | Start | Length | Start sector | End sector
––––––––––––––––––––––––––––-
1 | 0:00.00 | 3:18.25 | 0 | 14874
2 | 3:18.25 | 4:38.50 | 14875 | 35774
3 | 7:57.00 | 4:08.25 | 35775 | 54399
4 | 12:05.25 | 3:34.50 | 54400 | 70499
5 | 15:40.00 | 4:47.00 | 70500 | 92024
6 | 20:27.00 | 6:43.12 | 92025 | 122261
7 | 27:10.12 | 3:38.13 | 122262 | 138624
8 | 30:48.25 | 4:28.12 | 138625 | 158736
9 | 35:16.37 | 5:26.38 | 158737 | 183224


Range status and errors

Selected range

Filename D:\MUSIC\1969 Pentangle - Basket Of Light [1988,Line - TACD 9.00555 O,Germany,CD]\1969 Pentangle - Basket Of Light [1988,Line - TACD 9.00555 O,Germany,CD].wav

Peak level 95.4 %
Extraction speed 4.1 X
Range quality 100.0 %
Test CRC C6A8EB07
Copy CRC C6A8EB07
Copy OK

No errors occurred


AccurateRip summary

Track 1 accurately ripped (confidence 23) [95B13402] (AR v2)
Track 2 accurately ripped (confidence 23) [F7573065] (AR v2)
Track 3 accurately ripped (confidence 23) [63909200] (AR v2)
Track 4 accurately ripped (confidence 23) [D78408A0] (AR v2)
Track 5 accurately ripped (confidence 23) [7BF84C6D] (AR v2)
Track 6 accurately ripped (confidence 22) [60FF95C5] (AR v2)
Track 7 accurately ripped (confidence 23) [86A73DEE] (AR v2)
Track 8 accurately ripped (confidence 23) [BF3CDE51] (AR v2)
Track 9 accurately ripped (confidence 23) [7248BF73] (AR v2)

All tracks accurately ripped

End of status report

==== Log checksum 0AE752C8C73145F8FB82316E9EFF1005645BCAC94D1BD6319661D2BAF99C9C3D ====

[CUETools log; Date: 02.04.2018 2:58:54; Version: 2.1.4]
[CTDB TOCID: os3fBG0l6GjoS2mUCEKmxiuQ9BE-] found.
Track | CTDB Status
1 | (50/52) Accurately ripped
2 | (51/52) Accurately ripped
3 | (50/52) Accurately ripped
4 | (51/52) Accurately ripped
5 | (51/52) Accurately ripped
6 | (50/52) Accurately ripped
7 | (51/52) Accurately ripped
8 | (51/52) Accurately ripped
9 | (51/52) Accurately ripped
[AccurateRip ID: 000d4818-0062f433-6b098b09] found.
Track [ CRC | V2 ] Status
01 [639ae3f1|95b13402] (17+25/42) Accurately ripped
02 [8f28b974|f7573065] (16+25/41) Accurately ripped
03 [0afd3c35|63909200] (13+25/38) Accurately ripped
04 [7412ed9f|d78408a0] (17+25/42) Accurately ripped
05 [bdd8ae17|7bf84c6d] (17+25/42) Accurately ripped
06 [8dec0c97|60ff95c5] (16+24/40) Accurately ripped
07 [731c0ff0|86a73dee] (16+25/41) Accurately ripped
08 [91ba3cc3|bf3cde51] (16+25/41) Accurately ripped
09 [cc6854b5|7248bf73] (16+25/41) Accurately ripped

Track Peak [ CRC32 ] [W/O NULL] [ LOG ]
– 95,4 [C6A8EB07] [C273BDE1] CRC32
01 95,4 [9F42373E] [FB9CB2C6]
02 76,7 [FFB48978] [60D953D5]
03 92,5 [AF65017E] [3225E588]
04 69,3 [F7351086] [D31C2F99]
05 84,2 [AAA8ADD2] [0CCCD8CB]
06 94,8 [A2311EEE] [0A4B9D5B]
07 73,1 [9960EF46] [E065CF0C]
08 62,9 [5D52574C] [48F86722]
09 53,0 [C1ADFE28] [EF210864]

foobar2000 1.2 / Dynamic Range Meter 1.1.1
log date: 2018-04-02 03:01:13

––––––––––––––––––––––––––––––––––––––––
Analyzed: The Pentangle / Basket of Light
––––––––––––––––––––––––––––––––––––––––

DR Peak RMS Duration Track
––––––––––––––––––––––––––––––––––––––––
DR11 -0.40 dB -14.33 dB 3:18 01-Light Flight
DR10 -2.30 dB -16.57 dB 4:39 02-Once I Had a Sweetheart
DR12 -0.67 dB -15.25 dB 4:08 03-Springtime Promises
DR11 -3.18 dB -17.95 dB 3:35 04-Lyke-Wake Dirge
DR13 -1.49 dB -17.41 dB 4:47 05-Train Song
DR11 -0.46 dB -16.27 dB 6:43 06-Hunting Song
DR11 -2.71 dB -15.84 dB 3:38 07-Sally Go Round the Roses
DR11 -4.02 dB -17.07 dB 4:28 08-The Cuckoo
DR10 -5.51 dB -19.38 dB 5:27 09-House Carpenter
––––––––––––––––––––––––––––––––––––––––

Number of tracks: 9
Official DR value: DR11

Samplerate: 44100 Hz
Channels: 2
Bits per sample: 16
Bitrate: 759 kbps
Codec: WavPack
================================================================================

The Pentangle - Basket Of Light (1969) [Non-Remastered, 1988]

The Pentangle - Basket Of Light (1969) [Non-Remastered, 1988]