Tags
Language
Tags
February 2024
Su Mo Tu We Th Fr Sa
28 29 30 31 1 2 3
4 5 6 7 8 9 10
11 12 13 14 15 16 17
18 19 20 21 22 23 24
25 26 27 28 29 1 2
Attention❗ To save your time, in order to download anything on this site, you must be registered 👉 HERE. If you do not have a registration yet, it is better to do it right away. ✌

( • )( • ) ( ͡⚆ ͜ʖ ͡⚆ ) (‿ˠ‿)
SpicyMags.xyz

The Puppini Sisters - Best Of The Puppini Sisters (2015) {Japanese Edition}

Posted By: popsakov
The Puppini Sisters - Best Of The Puppini Sisters (2015) {Japanese Edition}

The Puppini Sisters - Best Of The Puppini Sisters (2015) {Japanese Edition}
EAC Rip | FLAC (Img) + Cue + Log ~ 433 Mb | MP3 CBR320 ~ 216 Mb
Full Scans | 00:56:58 | RAR 5% Recovery
Vocal Jazz, Easy Listening, Swing | Universal Music / Rambling Records #RBCP-2879

Modernizing the harmony vocal pop of '30s and '40s groups like the Andrews Sisters, London's Puppini Sisters took the name of Marcella Puppini, who founded the act after being inspired by the music in the film The Triplets of Belleville. Puppini, a native of Bologna, Italy, moved to London in 1990 to study fashion and quickly became immersed in the city's music scene. Though she had a career at Vivienne Westwood's design studio, she left to focus on music, and in 2003 earned a music degree at Trinity College of Music. Jazz was her passion, and Puppini spent time as the musical director and orchestra conductor for the Whoopee Club, as well as leading her own quartet. For the Puppini Sisters, she enlisted vocalists Stephanie O'Brien and Kate Mullins to fill out the group's three-part harmonies. Producer Benoît Charest, who worked on The Triplets of Belleville soundtrack, collaborated in the studio with the Puppini Sisters, and their debut single, "Boogie Woogie Bugle Boy," arrived in 2006; that summer, their full-length debut, Betcha Bottom Dollar, was released. Spring 2007 saw the U.S. release of the album on Verve. Also in 2007, the trio released its similarly retro-inclined sophomore effort, The Rise & Fall of Ruby Woo. In 2010, the band released the holiday-themed album Christmas with the Puppini Sisters. In 2011, the Puppini Sisters returned with their third studio effort, Hollywood, featuring covers of classic film songs. Emma Smith replaced O'Brien in the trio's lineup in September 2012, and this edition of the Puppini Sisters released The Highlife in March of 2016.

~ Heather Phares, All Music
The Puppini Sisters - Best Of The Puppini Sisters (2015) {Japanese Edition}


***************

The Puppini Sisters - Best Of The Puppini Sisters (2015) {Japanese Edition}

Track List:

01. Boogie Woogie Bugle Boy (of Company B) [02:28]
02. Bei Mir Bist Du Schon [02:19]
03. Mr Sandman [02:38]
04. Java Jive [03:37]
05. Jilted [05:39]
06. It Don’t Mean A Thing (If It Ain’t Got That Swing) [04:52]
07. Rum And Coca Cola [03:58]
08. Heart Of Glass [02:56]
09. I Can’t Believe I’m Not A Millionaire [04:31]
10. Don’t Sit Under The Apple Tree [02:53]
11. It’s Not Over (Death Or The Toy Piano) [03:16]
12. Tu Vuo Fa L’Americano [01:55]
13. Walk Like An Egyptian [02:45]
14. Spooky [02:44]
15. In The Mood [03:11]
16. Liar Liar [03:46]
17. I Love To Be-Bop [03:38]

Exact Audio Copy V1.0 beta 3 from 29. August 2011

Отчёт EAC об извлечении, выполненном 13. марта 2016, 12:19

The Puppini Sisters / Best Of The Puppini Sisters

Дисковод: ATAPI iHAS424 A Adapter: 0 ID: 0

Режим чтения : Достоверность
Использование точного потока : Да
Отключение кэша аудио : Да
Использование указателей C2 : Нет

Коррекция смещения при чтении : 6
Способность читать области Lead-in и Lead-out : Нет
Заполнение пропущенных сэмплов тишиной : Да
Удаление блоков с тишиной в начале и конце : Нет
При вычислениях CRC использовались нулевые сэмплы : Да
Интерфейс : Установленный внешний ASPI-интерфейс

Выходной формат : Пользовательский кодировщик
Выбранный битрейт : 1024 kBit/s
Качество : Высокий
Добавление ID3-тега : Нет
Утилита сжатия : C:\Program Files\Exact Audio Copy\FLAC\FLAC.EXE
Дополнительные параметры : -8 -V -T "ARTIST=%artist%" -T "ALBUM=%albumtitle%" -T "DATE=%year%" -T "GENRE=%genre%" -T "COMMENT=ripped by izia1956" %source%


TOC извлечённого CD

Трек | Старт | Длительность | Начальный сектор | Конечный сектор
––––––––––––––––––––––––––––––––––-
1 | 0:00.00 | 2:27.67 | 0 | 11091
2 | 2:27.67 | 2:18.57 | 11092 | 21498
3 | 4:46.49 | 2:37.47 | 21499 | 33320
4 | 7:24.21 | 3:36.42 | 33321 | 49562
5 | 11:00.63 | 5:39.00 | 49563 | 74987
6 | 16:39.63 | 4:51.29 | 74988 | 96841
7 | 21:31.17 | 3:57.38 | 96842 | 114654
8 | 25:28.55 | 2:55.11 | 114655 | 127790
9 | 28:23.66 | 4:30.54 | 127791 | 148094
10 | 32:54.45 | 2:52.03 | 148095 | 160997
11 | 35:46.48 | 3:16.00 | 160998 | 175697
12 | 39:02.48 | 1:54.19 | 175698 | 184266
13 | 40:56.67 | 2:44.19 | 184267 | 196585
14 | 43:41.11 | 2:43.52 | 196586 | 208862
15 | 46:24.63 | 3:10.19 | 208863 | 223131
16 | 49:35.07 | 3:45.47 | 223132 | 240053
17 | 53:20.54 | 3:37.13 | 240054 | 256341


Характеристики диапазона извлечения и сообщения об ошибках

Выбранный диапазон

Имя файла D:\BitComet\The Puppini Sisters\2015 - Best Of The Puppini Sisters\The Puppini Sisters - Best Of The Puppini Sisters.wav

Пиковый уровень 100.0 %
Скорость извлечения 5.8 X
Качество диапазона 100.0 %
CRC теста DF9BFC11
CRC копии DF9BFC11
Копирование… OK

Ошибок не произошло


AccurateRip: сводка

Трек 1 : извлечено точно (доверие 1) [4F53AB9D] (AR v2)
Трек 2 : извлечено точно (доверие 1) [23BBF7F9] (AR v2)
Трек 3 : извлечено точно (доверие 1) [151FC584] (AR v2)
Трек 4 : извлечено точно (доверие 1) [2392DD35] (AR v2)
Трек 5 : извлечено точно (доверие 1) [CEA0A08D] (AR v2)
Трек 6 : извлечено точно (доверие 1) [7847A633] (AR v2)
Трек 7 : извлечено точно (доверие 1) [33277571] (AR v2)
Трек 8 : извлечено точно (доверие 1) [5B81A636] (AR v2)
Трек 9 : извлечено точно (доверие 1) [7E5F9BE7] (AR v2)
Трек 10 : извлечено точно (доверие 1) [794BD453] (AR v2)
Трек 11 : извлечено точно (доверие 1) [322230E5] (AR v2)
Трек 12 : извлечено точно (доверие 1) [6B8C5F81] (AR v2)
Трек 13 : извлечено точно (доверие 1) [A980EDF8] (AR v2)
Трек 14 : извлечено точно (доверие 1) [33DB2AD0] (AR v2)
Трек 15 : извлечено точно (доверие 1) [0BEE0426] (AR v2)
Трек 16 : извлечено точно (доверие 1) [873BF76D] (AR v2)
Трек 17 : извлечено точно (доверие 1) [4554119D] (AR v2)

Все треки извлечены точно

Конец отчёта

==== Контрольная сумма отчёта 89A6B20A8D238FEF92D42E8FDB5E57685828849DF1B0D2DE67F5E4F95603C555 ====

The Puppini Sisters - Best Of The Puppini Sisters (2015) {Japanese Edition}


All thanks go to izia1956

>>> The Puppini Sisters in my Blog <<<

DOWNLOAD: