Tags
Language
Tags

The Robert Cray Band - Strong Persuader (1986)

Posted By: Designol
The Robert Cray Band - Strong Persuader (1986)

The Robert Cray Band - Strong Persuader (1986)
EAC | FLAC | Image (Cue&Log) ~ 291 Mb | Mp3 (CBR320) ~ 127 Mb | Scans included
Modern Electric Blues, Soul-Blues | Label: Mercury | # 830 568-2 M-1 | 00:39:24

The set that made Cray a pop star, despite its enduring blues base. Cray's smoldering stance on "Smoking Gun" and "Right Next Door" rendered him the first sex symbol to emerge from the blues field in decades, but it was his innovative expansion of the genre itself that makes this album a genuine 1980s classic. "Nothing but a Woman" boasts an irresistible groove pushed by the Memphis Horns and some metaphorically inspired lyrics, while "I Wonder" and "Guess I Showed Her" sizzle with sensuality.

Review by Bill Dahl, Allmusic.com

Stinging urban blues by way of Texas and Memphis distinguish Robert Cray's major-label debut, which followed three strong independent releases. Here he fleshes out his sound with bursts of brassy Southern soul courtesy of the Memphis Horns, but keeps his pungent, steely guitar solos out front in an engaging dialogue with his plaintive vocals. Released in 1986, Strong Persuader signaled that Cray, as a writer–like his contemporary Stevie Ray Vaughan–had something to say about his interior life beyond the usual bluesman's laments, an approach that pays homage to the music's rich traditions while suggesting new areas of inquiry.

Review by David McGee

The Robert Cray Band - Strong Persuader (1986)



Tracklist:

01. Smoking Gun (4:09)
02. I Guess I Showed Her (3:41)
03. Right Next Door (Because Of Me) (4:21)
04. Nothin' But A Woman (3:59)
05. Still Around (3:44)
06. More Than I Can Stand (2:58)
07. Foul Play (4:08)
08. I Wonder (3:58)
09. Fantasized (4:05)
10. New Blood (4:21)


Exact Audio Copy V1.0 beta 3 from 29. August 2011

Отчёт EAC об извлечении, выполненном 13. октября 2011, 17:38

The Robert Cray Band / Strong Persuader

Дисковод: SONY CD-RW CRX230ED Adapter: 0 ID: 1

Режим чтения : Достоверность
Использование точного потока : Да
Отключение кэша аудио : Да
Использование указателей C2 : Нет

Коррекция смещения при чтении : 6
Способность читать области Lead-in и Lead-out : Нет
Заполнение пропущенных сэмплов тишиной : Да
Удаление блоков с тишиной в начале и конце : Нет
При вычислениях CRC использовались нулевые сэмплы : Да
Интерфейс : Установленный внешний ASPI-интерфейс

Выходной формат : Внутренние WAV-операции
Формат сэмплов : 44.100 Гц; 16 бит; стерео


TOC извлечённого CD

Трек | Старт | Длительность | Начальный сектор | Конечный сектор
––––––––––––––––––––––––––––––––––-
1 | 0:00.33 | 4:09.00 | 33 | 18707
2 | 4:09.33 | 3:40.62 | 18708 | 35269
3 | 7:50.20 | 4:21.05 | 35270 | 54849
4 | 12:11.25 | 3:58.70 | 54850 | 72769
5 | 16:10.20 | 3:43.63 | 72770 | 89557
6 | 19:54.08 | 2:58.22 | 89558 | 102929
7 | 22:52.30 | 4:07.65 | 102930 | 121519
8 | 27:00.20 | 3:57.68 | 121520 | 139362
9 | 30:58.13 | 4:05.07 | 139363 | 157744
10 | 35:03.20 | 4:20.63 | 157745 | 177307


Характеристики диапазона извлечения и сообщения об ошибках

Выбранный диапазон

Имя файла E:\MusicCD\Torrent\The Robert Cray Band - Strong Persuader\The Robert Cray Band - Strong Persuader.wav

Пиковый уровень 99.5 %
Скорость извлечения 5.5 X
Качество диапазона 100.0 %
CRC теста F340E516
CRC копии F340E516
Копирование… OK

Ошибок не произошло


AccurateRip: сводка

Трек 1 : извлечено точно (доверие 12) [5B24E665] (AR v2)
Трек 2 : извлечено точно (доверие 12) [46AABF7D] (AR v2)
Трек 3 : извлечено точно (доверие 13) [6D3DD734] (AR v2)
Трек 4 : извлечено точно (доверие 13) [E768B1F4] (AR v2)
Трек 5 : извлечено точно (доверие 13) [32077862] (AR v2)
Трек 6 : извлечено точно (доверие 13) [0AAE7969] (AR v2)
Трек 7 : извлечено точно (доверие 12) [3AB7D6BF] (AR v2)
Трек 8 : извлечено точно (доверие 13) [C5EF9375] (AR v2)
Трек 9 : извлечено точно (доверие 13) [4C45802C] (AR v2)
Трек 10 : извлечено точно (доверие 13) [26ED2DE2] (AR v2)

Все треки извлечены точно

Конец отчёта

==== Контрольная сумма отчёта 24F1A2C486BA97DAED0C228B8AF7FDF0FDBC67A60F38145B2B2FC1EF3EA6DE07 ====

[CUETools log; Date: 12.11.2017 16:44:38; Version: 2.1.4]
Pregap length 00:00:33.
[CTDB TOCID: reoTZ4sYggxNvnRpo5bivwp2qmI-] found.
Track | CTDB Status
1 | (654/657) Accurately ripped
2 | (651/657) Accurately ripped
3 | (611/657) Accurately ripped, or (40/657) differs in 111 samples @03:03:27,03:06:42-03:06:55,03:19:40-03:19:42,04:06:07
4 | (609/657) Accurately ripped, or (40/657) differs in 54 samples @00:47:22,01:01:15-01:01:29
5 | (651/657) Accurately ripped
6 | (654/657) Accurately ripped
7 | (652/657) Accurately ripped
8 | (644/657) Accurately ripped, or (6/657) differs in 3 samples @03:18:62
9 | (595/657) Accurately ripped, or (53/657) differs in 242 samples @03:24:38,03:27:44-03:27:45,03:27:60,03:29:03,03:29:33-03:29:34,03:29:49,03:30:35-03:30:36,03:34:14,03:44:06-03:44:07,03:44:68,03:46:42,03:46:57-03:46:58,03:47:13-03:47:14,03:48:00-03:48:01,03:48:47,03:52:57,03:53:13,03:54:00,03:56:36
10 | (598/657) Accurately ripped, or (53/657) differs in 5 samples @00:46:50
[AccurateRip ID: 000ecd47-00761508-78093c0a] found.
Track [ CRC | V2 ] Status
01 [5d0b6b73|5b24e665] (117+144/1044) Accurately ripped
02 [4704fa9c|46aabf7d] (117+145/1051) Accurately ripped
03 [4f6e656a|6d3dd734] (118+145/1049) Accurately ripped
04 [01b613dc|e768b1f4] (118+144/1052) Accurately ripped
05 [02e30c4e|32077862] (116+145/1048) Accurately ripped
06 [71811c5b|0aae7969] (116+145/1050) Accurately ripped
07 [3298719f|3ab7d6bf] (116+143/1045) Accurately ripped
08 [c1709e06|c5ef9375] (115+143/1042) Accurately ripped
09 [5cf2c215|4c45802c] (115+145/1042) Accurately ripped
10 [052bc187|26ed2de2] (114+145/1044) Accurately ripped
Offsetted by -2166:
01 [17bbb2f9] (002/1044) Accurately ripped
02 [7565f9a0] (002/1051) Accurately ripped
03 [908e2e9c] (002/1049) Accurately ripped
04 [28503400] (002/1052) Accurately ripped
05 [dc8639de] (002/1048) Accurately ripped
06 [c4e7ffc3] (002/1050) Accurately ripped
07 [f5d9fba1] (002/1045) Accurately ripped
08 [f9f31566] (002/1042) Accurately ripped
09 [57c1208d] (002/1042) Accurately ripped
10 [947461d5] (002/1044) Accurately ripped
Offsetted by -1707:
01 [1b6dec26] (155/1044) Accurately ripped
02 [59d772be] (156/1051) Accurately ripped
03 [f65849d3] (155/1049) Accurately ripped
04 [1b2b498e] (156/1052) Accurately ripped
05 [55684196] (157/1048) Accurately ripped
06 [ee17564f] (156/1050) Accurately ripped
07 [a247d6f0] (157/1045) Accurately ripped
08 [397f80b6] (156/1042) Accurately ripped
09 [62c87411] (154/1042) Accurately ripped
10 [aed28dde] (155/1044) Accurately ripped
Offsetted by -1688:
01 [d66c604b] (008/1044) Accurately ripped
02 [93d21b2c] (009/1051) Accurately ripped
03 [d1d80272] (009/1049) Accurately ripped
04 [a60efcec] (009/1052) Accurately ripped
05 [ca84048e] (008/1048) Accurately ripped
06 [b776fefb] (009/1050) Accurately ripped
07 [9556fbe7] (009/1045) Accurately ripped
08 [6ca6c786] (008/1042) Accurately ripped
09 [f70a02f5] (008/1042) Accurately ripped
10 [6a327a7f] (008/1044) Accurately ripped
Offsetted by -1169:
01 [86f14b9c] (020/1044) Accurately ripped
02 [9b253c62] (020/1051) Accurately ripped
03 [9bf213d5] (020/1049) Accurately ripped
04 [27177152] (020/1052) Accurately ripped
05 [210115a6] (020/1048) Accurately ripped
06 [84fcd5f7] (020/1050) Accurately ripped
07 [fdf4aa42] (020/1045) Accurately ripped
08 [b986cf16] (020/1042) Accurately ripped
09 [e3b7f149] (020/1042) Accurately ripped
10 [4010695c] (020/1044) Accurately ripped
Offsetted by -667:
01 [245ca696] (028/1044) Accurately ripped
02 [611ed45e] (028/1051) Accurately ripped
03 [6bc24a23] (028/1049) Accurately ripped
04 [10e8602e] (028/1052) Accurately ripped
05 [013ce416] (028/1048) Accurately ripped
06 [b948088f] (028/1050) Accurately ripped
07 [b584cbc0] (028/1045) Accurately ripped
08 [cb28bfb6] (028/1042) Accurately ripped
09 [aa1044d1] (028/1042) Accurately ripped
10 [60ce698e] (028/1044) Accurately ripped
Offsetted by -541:
01 [75b0b648] (005/1044) Accurately ripped
02 [90c5822a] (004/1051) Accurately ripped
03 [d803cf19] (005/1049) Accurately ripped
04 [0847a75a] (005/1052) Accurately ripped
05 [b90277c6] (005/1048) Accurately ripped
06 [92641647] (005/1050) Accurately ripped
07 [f3e93a26] (005/1045) Accurately ripped
08 [cd8b87d6] (005/1042) Accurately ripped
09 [b72156b9] (005/1042) Accurately ripped
10 [ea8de918] (005/1044) Accurately ripped
Offsetted by -308:
01 [5d5a6187] (022/1044) Accurately ripped
02 [b6183554] (024/1051) Accurately ripped
03 [d5072066] (023/1049) Accurately ripped
04 [6c228254] (023/1052) Accurately ripped
05 [b371dc2e] (023/1048) Accurately ripped
06 [7b3c890b] (024/1050) Accurately ripped
07 [7da2f1fb] (023/1045) Accurately ripped
08 [9f29d146] (023/1042) Accurately ripped
09 [3d01eba5] (023/1042) Accurately ripped
10 [42acfb8b] (024/1044) Accurately ripped
Offsetted by -271:
01 [ff64d7ea] (003/1044) Accurately ripped
02 [adbcf696] (003/1051) Accurately ripped
03 [9b6ba2df] (003/1049) Accurately ripped
04 [8813d226] (003/1052) Accurately ripped
05 [1e3c21f6] (003/1048) Accurately ripped
06 [f5e9583f] (003/1050) Accurately ripped
07 [c2c06fdc] (003/1045) Accurately ripped
08 [8983c6f6] (003/1042) Accurately ripped
09 [ae8f0f61] (003/1042) Accurately ripped
10 [364cd5d2] (003/1044) Accurately ripped
Offsetted by -171:
01 [ca195626] (029/1044) Accurately ripped
02 [3d350ebe] (028/1051) Accurately ripped
03 [97f0e7d3] (027/1049) Accurately ripped
04 [1fb4c58e] (029/1052) Accurately ripped
05 [e4e93196] (028/1048) Accurately ripped
06 [5d242e4f] (028/1050) Accurately ripped
07 [a71024f0] (028/1045) Accurately ripped
08 [f50f20b6] (028/1042) Accurately ripped
09 [26a4bc11] (028/1042) Accurately ripped
10 [6ecc6fde] (028/1044) Accurately ripped
Offsetted by -2030:
01 [b08835b1] (000/1044) No match
02 [80324370] (000/1051) No match
03 [62dd0744] (000/1049) No match
04 [e20c6050] (000/1052) No match (V2 was not tested)
05 [8e904f1e] (000/1048) No match
06 [8ebd22e3] (000/1050) No match
07 [7e466289] (000/1045) No match
08 [d3e3cce6] (000/1042) No match
09 [8a6df6ed] (000/1042) No match
10 [3d73d72d] (000/1044) No match
Offsetted by -972:
01 [a082f25f] (043/1044) Accurately ripped
02 [4523bde4] (045/1051) Accurately ripped
03 [c32bd16e] (044/1049) Accurately ripped
04 [68d71364] (043/1052) Accurately ripped
05 [3013746e] (043/1048) Accurately ripped
06 [0b3afbab] (044/1050) Accurately ripped
07 [e391b043] (044/1045) Accurately ripped
08 [1cbfbac6] (043/1042) Accurately ripped
09 [af015c85] (000/1042) No match (V2 was not tested)
10 [27afa083] (000/1044) No match (V2 was not tested)
Offsetted by -525:
01 [b4d7d4b8] (040/1044) Accurately ripped
02 [55ce7bca] (040/1051) Accurately ripped
03 [e1b2bb69] (000/1049) No match (V2 was not tested)
04 [a5a915fa] (000/1052) No match (V2 was not tested)
05 [afd67a46] (040/1048) Accurately ripped
06 [138c3887] (040/1050) Accurately ripped
07 [03f5faf6] (040/1045) Accurately ripped
08 [8cd506d6] (040/1042) Accurately ripped
09 [2680f779] (040/1042) Accurately ripped
10 [1c8dd8c8] (041/1044) Accurately ripped
Offsetted by -198:
01 [6f8752c9] (003/1044) Accurately ripped
02 [20b5e980] (003/1051) Accurately ripped
03 [3799b90c] (003/1049) Accurately ripped
04 [c6205ae0] (003/1052) Accurately ripped
05 [74636d5e] (003/1048) Accurately ripped
06 [d3307483] (003/1050) Accurately ripped
07 [abfa9f91] (003/1045) Accurately ripped
08 [e2431a66] (000/1042) No match (V2 was not tested)
09 [dab35ccd] (003/1042) Accurately ripped
10 [9a6c8b65] (003/1044) Accurately ripped
Offsetted by -34:
01 [36d84ac5] (000/1044) No match (V2 was not tested)
02 [c451e828] (000/1051) No match (V2 was not tested)
03 [5adaaf40] (000/1049) No match (V2 was not tested)
04 [d34708c8] (000/1052) No match (V2 was not tested)
05 [166086fe] (000/1048) No match (V2 was not tested)
06 [3f0bd393] (000/1050) No match (V2 was not tested)
07 [d07d57e5] (000/1045) No match (V2 was not tested)
08 [4af47026] (000/1042) No match (V2 was not tested)
09 [10478c7d] (000/1042) No match (V2 was not tested)
10 [9aebe431] (000/1044) No match (V2 was not tested)
Offsetted by -18:
01 [75ff6935] (000/1044) No match (V2 was not tested)
02 [895ae1c8] (000/1051) No match (V2 was not tested)
03 [64899b90] (000/1049) No match (V2 was not tested)
04 [70a87768] (000/1052) No match (V2 was not tested)
05 [0d34897e] (000/1048) No match (V2 was not tested)
06 [c033f5d3] (000/1050) No match (V2 was not tested)
07 [e08a18b5] (000/1045) No match (V2 was not tested)
08 [0a3def26] (000/1042) No match (V2 was not tested)
09 [7fa72d3d] (000/1042) No match (V2 was not tested)
10 [ccebd3e1] (000/1044) No match (V2 was not tested)

Track Peak [ CRC32 ] [W/O NULL] [ LOG ]
– 99,5 [F340E516] [3D7DBF28] CRC32
01 90,3 [B0DFCAE7] [2A9BF554]
02 99,5 [2ADA6F28] [8B1893F3]
03 83,9 [FC288EC8] [B069971E]
04 79,1 [0080C62E] [6E95CBF4]
05 79,7 [EAD9A339] [D85635DB]
06 83,5 [8E98FE5B] [D24273FC]
07 82,6 [1007DCD8] [0AFD0F4A]
08 80,5 [CC83F9D6] [A570C1BB]
09 82,2 [10606E48] [9980E0B7]
10 85,2 [AA13AB39] [FC3C3B8E]

foobar2000 1.2 / Dynamic Range Meter 1.1.1
log date: 2017-11-12 16:48:18

––––––––––––––––––––––––––––––––––––––––
Analyzed: The Robert Cray Band / Strong Persuader
––––––––––––––––––––––––––––––––––––––––

DR Peak RMS Duration Track
––––––––––––––––––––––––––––––––––––––––
DR13 -0.88 dB -15.78 dB 4:09 01-Smoking Gun
DR13 -0.04 dB -16.36 dB 3:41 02-I Guess I Showed Her
DR13 -1.52 dB -16.97 dB 4:21 03-Right Next Door (Because Of Me)
DR13 -2.03 dB -16.87 dB 3:59 04-Nothin' But A Woman
DR14 -1.96 dB -18.72 dB 3:44 05-Still Around
DR13 -1.56 dB -17.00 dB 2:58 06-More Than I Can Stand
DR14 -1.66 dB -18.45 dB 4:08 07-Foul Play
DR14 -1.88 dB -18.70 dB 3:58 08-I Wonder
DR13 -1.70 dB -17.40 dB 4:05 09-Fantasized
DR15 -1.39 dB -18.19 dB 4:21 10-New Blood
––––––––––––––––––––––––––––––––––––––––

Number of tracks: 10
Official DR value: DR14

Samplerate: 44100 Hz
Channels: 2
Bits per sample: 16
Bitrate: 903 kbps
Codec: FLAC
================================================================================

The Robert Cray Band - Strong Persuader (1986)

The Robert Cray Band - Strong Persuader (1986)

All thanks to original releaser - squirr

More interesting music in My Blog