Tags
Language
Tags

The Rolling Stones - Live At Rupp Arena (1981)

Posted By: v3122
The Rolling Stones - Live At Rupp Arena (1981)

The Rolling Stones - Live At Rupp Arena (1981)
EAC | Flac(Image) + Cue + Log & MP3 CBR 320Kbps
2CD | Empress Valley, EVSD 401-402 | ~ 1004 or 342 Mb | Artwork -> 1.83 Mb
Blues Rock / Rock & Roll / Classic Rock

~ Rupp Arena, Lexington Kentucky, December 11, 1981 ~

The Rolling Stones - Live At Rupp Arena (1981):

TracklistCD1:

1. Intro: Take the A Train [00:00:09]
2. Under My Thumb [00:05:02]
3. When The Whip Comes Down [00:05:28]
4. Let's Spend the Night Together [00:05:13]
5. Shattered [00:05:15]
6. Neighbours [00:04:33]
7. Black Limousine [00:04:12]
8. Just My Imagination (Running Away with Me) [00:10:33]
9. Twenty Flight Rock [00:01:47]
10. Going to a Go-Go [00:03:51]
11. Let Me Go [00:06:50]
12. Time Is on My Side [00:04:24]
13. Beast of Burden [00:08:10]
14. Let It Bleed [00:06:07]
15. Waiting On A Friend [00:06:12]

Exact Audio Copy V0.99 prebeta 3 from 28. July 2007

EAC extraction logfile from 2. March 2009, 12:51

The Rolling Stones / Live At Rupp Arena 1981 disc 1

Used drive : _NEC DVD_RW ND-2510A Adapter: 0 ID: 0

Read mode : Secure
Utilize accurate stream : Yes
Defeat audio cache : No
Make use of C2 pointers : Yes

Read offset correction : 48
Overread into Lead-In and Lead-Out : No
Fill up missing offset samples with silence : Yes
Delete leading and trailing silent blocks : No
Null samples used in CRC calculations : No
Used interface : Native Win32 interface for Win NT & 2000
Gap handling : Not detected, thus appended to previous track

Used output format : Internal WAV Routines
Sample format : 44.100 Hz; 16 Bit; Stereo


TOC of the extracted CD

Track | Start | Length | Start sector | End sector
––––––––––––––––––––––––––––-
1 | 0:00.00 | 0:09.20 | 0 | 694
2 | 0:09.20 | 5:02.40 | 695 | 23384
3 | 5:11.60 | 5:28.59 | 23385 | 48043
4 | 10:40.44 | 5:13.18 | 48044 | 71536
5 | 15:53.62 | 5:15.40 | 71537 | 95201
6 | 21:09.27 | 4:33.61 | 95202 | 115737
7 | 25:43.13 | 4:12.04 | 115738 | 134641
8 | 29:55.17 | 10:33.61 | 134642 | 182177
9 | 40:29.03 | 1:47.14 | 182178 | 190216
10 | 42:16.17 | 3:51.34 | 190217 | 207575
11 | 46:07.51 | 6:50.07 | 207576 | 238332
12 | 52:57.58 | 4:24.55 | 238333 | 258187
13 | 57:22.38 | 8:10.53 | 258188 | 294990
14 | 65:33.16 | 6:12.54 | 294991 | 322944
15 | 71:45.70 | 8:07.18 | 322945 | 359487


Track 1

Filename C:\Documents and Settings\Robert\Desktop\The Rolling Stones - Live At Rupp Arena 1981 (Empress Valley EVSD 401-402) Lexington KY December 11, 1981\Take_The_A_Train.wav

Peak level 58.8 %
Track quality 100.0 %
Copy CRC 7C18A6F2
Track not present in AccurateRip database
Copy OK

Track 2

Filename C:\Documents and Settings\Robert\Desktop\The Rolling Stones - Live At Rupp Arena 1981 (Empress Valley EVSD 401-402) Lexington KY December 11, 1981\Under_My_Thumb.wav

Peak level 100.0 %
Track quality 100.0 %
Copy CRC 1269D0D7
Track not present in AccurateRip database
Copy OK

Track 3

Filename C:\Documents and Settings\Robert\Desktop\The Rolling Stones - Live At Rupp Arena 1981 (Empress Valley EVSD 401-402) Lexington KY December 11, 1981\When_The_Whip_Comes_Down.wav

Peak level 100.0 %
Track quality 100.0 %
Copy CRC B939876D
Track not present in AccurateRip database
Copy OK

Track 4

Filename C:\Documents and Settings\Robert\Desktop\The Rolling Stones - Live At Rupp Arena 1981 (Empress Valley EVSD 401-402) Lexington KY December 11, 1981\Let's_Spend_The_Night_Together.wav

Peak level 100.0 %
Track quality 100.0 %
Copy CRC 4E99BF3B
Track not present in AccurateRip database
Copy OK

Track 5

Filename C:\Documents and Settings\Robert\Desktop\The Rolling Stones - Live At Rupp Arena 1981 (Empress Valley EVSD 401-402) Lexington KY December 11, 1981\Shattered.wav

Peak level 100.0 %
Track quality 99.9 %
Copy CRC E8A90DBA
Track not present in AccurateRip database
Copy OK

Track 6

Filename C:\Documents and Settings\Robert\Desktop\The Rolling Stones - Live At Rupp Arena 1981 (Empress Valley EVSD 401-402) Lexington KY December 11, 1981\Neighbours.wav

Peak level 100.0 %
Track quality 99.9 %
Copy CRC D3913158
Track not present in AccurateRip database
Copy OK

Track 7

Filename C:\Documents and Settings\Robert\Desktop\The Rolling Stones - Live At Rupp Arena 1981 (Empress Valley EVSD 401-402) Lexington KY December 11, 1981\Black_Limousine.wav

Peak level 100.0 %
Track quality 100.0 %
Copy CRC 5E2022CD
Track not present in AccurateRip database
Copy OK

Track 8

Filename C:\Documents and Settings\Robert\Desktop\The Rolling Stones - Live At Rupp Arena 1981 (Empress Valley EVSD 401-402) Lexington KY December 11, 1981\Just_My_Imagination.wav

Peak level 100.0 %
Track quality 100.0 %
Copy CRC B39CC947
Track not present in AccurateRip database
Copy OK

Track 9

Filename C:\Documents and Settings\Robert\Desktop\The Rolling Stones - Live At Rupp Arena 1981 (Empress Valley EVSD 401-402) Lexington KY December 11, 1981\Twenty_Flight_Rock.wav

Peak level 100.0 %
Track quality 100.0 %
Copy CRC 05377235
Track not present in AccurateRip database
Copy OK

Track 10

Filename C:\Documents and Settings\Robert\Desktop\The Rolling Stones - Live At Rupp Arena 1981 (Empress Valley EVSD 401-402) Lexington KY December 11, 1981\Going_To_A_Go_Go.wav

Peak level 100.0 %
Track quality 100.0 %
Copy CRC D0225274
Track not present in AccurateRip database
Copy OK

Track 11

Filename C:\Documents and Settings\Robert\Desktop\The Rolling Stones - Live At Rupp Arena 1981 (Empress Valley EVSD 401-402) Lexington KY December 11, 1981\Let_Me_Go.wav

Peak level 100.0 %
Track quality 100.0 %
Copy CRC AA24CC0E
Track not present in AccurateRip database
Copy OK

Track 12

Filename C:\Documents and Settings\Robert\Desktop\The Rolling Stones - Live At Rupp Arena 1981 (Empress Valley EVSD 401-402) Lexington KY December 11, 1981\Time_Is_On_My_Side.wav

Peak level 100.0 %
Track quality 100.0 %
Copy CRC E7E4E860
Track not present in AccurateRip database
Copy OK

Track 13

Filename C:\Documents and Settings\Robert\Desktop\The Rolling Stones - Live At Rupp Arena 1981 (Empress Valley EVSD 401-402) Lexington KY December 11, 1981\Beast_Of_Burden.wav

Peak level 100.0 %
Track quality 100.0 %
Copy CRC A40EC200
Track not present in AccurateRip database
Copy OK

Track 14

Filename C:\Documents and Settings\Robert\Desktop\The Rolling Stones - Live At Rupp Arena 1981 (Empress Valley EVSD 401-402) Lexington KY December 11, 1981\Waiting_On_A_Friend.wav

Peak level 100.0 %
Track quality 100.0 %
Copy CRC 6E61A159
Track not present in AccurateRip database
Copy OK

Track 15

Filename C:\Documents and Settings\Robert\Desktop\The Rolling Stones - Live At Rupp Arena 1981 (Empress Valley EVSD 401-402) Lexington KY December 11, 1981\Let_It_Bleed.wav

Peak level 100.0 %
Track quality 100.0 %
Copy CRC 7C1E47D3
Track not present in AccurateRip database
Copy OK


None of the tracks are present in the AccurateRip database

No errors occurred

End of status report


[CUETools log; Date: 06.06.2021 17:16:33; Version: 2.1.4]
[AccurateRip ID: 0026ce37-01c76f1e-d512b90f] disk not present in database.

Track Peak [ CRC32 ] [W/O NULL]
– 100,0 [C2EEB6CF] [A69567B9]
01 58,8 [AAFE7FB1] [7C18A6F2]
02 100,0 [B97BF20B] [1269D0D7]
03 100,0 [2AB9A2BF] [B939876D]
04 100,0 [24F23317] [4E99BF3B]
05 100,0 [18187AB5] [E8A90DBA]
06 100,0 [20EE0C41] [D3913158]
07 100,0 [ED86179D] [5E2022CD]
08 100,0 [924645DA] [B39CC947]
09 100,0 [47D2135E] [05377235]
10 100,0 [7941242C] [D0225274]
11 100,0 [86741D84] [AA24CC0E]
12 100,0 [3135E727] [E7E4E860]
13 100,0 [BBCBD540] [A40EC200]
14 100,0 [39DF8BF8] [6E61A159]
15 100,0 [9B1F6063] [7C1E47D3]


TracklistCD2:

1. You Can't Always Get What You Want [00:09:52]
2. Band intro [00:00:57]
3. Little T&A [00:03:51]
4. Tumbling Dice [00:05:04]
5. She's So Cold [00:04:25]
6. Hang Fire [00:03:33]
7. Miss You [00:07:33]
8. Honky Tonk Women [00:03:49]
9. Brown Sugar [00:04:34]
10. Start Me Up [00:05:16]
11. Jumping Jack Flash [00:08:56]
12. (I Can't Get No) Satisfaction [00:06:57]

Exact Audio Copy V0.99 prebeta 3 from 28. July 2007

EAC extraction logfile from 2. March 2009, 13:12

The Rolling Stones / Live At Rupp Arena 1981 disc 2

Used drive : _NEC DVD_RW ND-2510A Adapter: 0 ID: 0

Read mode : Secure
Utilize accurate stream : Yes
Defeat audio cache : No
Make use of C2 pointers : Yes

Read offset correction : 48
Overread into Lead-In and Lead-Out : No
Fill up missing offset samples with silence : Yes
Delete leading and trailing silent blocks : No
Null samples used in CRC calculations : No
Used interface : Native Win32 interface for Win NT & 2000
Gap handling : Not detected, thus appended to previous track

Used output format : Internal WAV Routines
Sample format : 44.100 Hz; 16 Bit; Stereo


TOC of the extracted CD

Track | Start | Length | Start sector | End sector
––––––––––––––––––––––––––––-
1 | 0:00.00 | 9:52.23 | 0 | 44422
2 | 9:52.23 | 0:57.48 | 44423 | 48745
3 | 10:49.71 | 3:51.31 | 48746 | 66101
4 | 14:41.27 | 5:04.01 | 66102 | 88902
5 | 19:45.28 | 4:25.36 | 88903 | 108813
6 | 24:10.64 | 3:33.56 | 108814 | 124844
7 | 27:44.45 | 7:33.50 | 124845 | 158869
8 | 35:18.20 | 3:49.23 | 158870 | 176067
9 | 39:07.43 | 4:34.67 | 176068 | 196684
10 | 43:42.35 | 5:16.29 | 196685 | 220413
11 | 48:58.64 | 8:56.59 | 220414 | 260672
12 | 57:55.48 | 6:57.17 | 260673 | 291964


Track 1

Filename C:\Documents and Settings\Robert\Desktop\The Rolling Stones - Live At Rupp Arena 1981 (Empress Valley EVSD 401-402) Lexington KY December 11, 1981\You_Can't_Always_Get_What_You_Want.wav

Peak level 100.0 %
Track quality 100.0 %
Copy CRC 148058C3
Track not present in AccurateRip database
Copy OK

Track 2

Filename C:\Documents and Settings\Robert\Desktop\The Rolling Stones - Live At Rupp Arena 1981 (Empress Valley EVSD 401-402) Lexington KY December 11, 1981\Band_Introductions.wav

Peak level 100.0 %
Track quality 100.0 %
Copy CRC 97E4B8A5
Track not present in AccurateRip database
Copy OK

Track 3

Filename C:\Documents and Settings\Robert\Desktop\The Rolling Stones - Live At Rupp Arena 1981 (Empress Valley EVSD 401-402) Lexington KY December 11, 1981\Little_T_&_A.wav

Peak level 100.0 %
Track quality 99.9 %
Copy CRC 4A313468
Track not present in AccurateRip database
Copy OK

Track 4

Filename C:\Documents and Settings\Robert\Desktop\The Rolling Stones - Live At Rupp Arena 1981 (Empress Valley EVSD 401-402) Lexington KY December 11, 1981\Tumbling_Dice.wav

Peak level 100.0 %
Track quality 100.0 %
Copy CRC 4A425A99
Track not present in AccurateRip database
Copy OK

Track 5

Filename C:\Documents and Settings\Robert\Desktop\The Rolling Stones - Live At Rupp Arena 1981 (Empress Valley EVSD 401-402) Lexington KY December 11, 1981\She's_So_Cold.wav

Peak level 100.0 %
Track quality 100.0 %
Copy CRC D1244667
Track not present in AccurateRip database
Copy OK

Track 6

Filename C:\Documents and Settings\Robert\Desktop\The Rolling Stones - Live At Rupp Arena 1981 (Empress Valley EVSD 401-402) Lexington KY December 11, 1981\Hang_Fire.wav

Peak level 100.0 %
Track quality 100.0 %
Copy CRC AF702D1A
Track not present in AccurateRip database
Copy OK

Track 7

Filename C:\Documents and Settings\Robert\Desktop\The Rolling Stones - Live At Rupp Arena 1981 (Empress Valley EVSD 401-402) Lexington KY December 11, 1981\Miss_You.wav

Peak level 100.0 %
Track quality 100.0 %
Copy CRC 3E453D9C
Track not present in AccurateRip database
Copy OK

Track 8

Filename C:\Documents and Settings\Robert\Desktop\The Rolling Stones - Live At Rupp Arena 1981 (Empress Valley EVSD 401-402) Lexington KY December 11, 1981\Honky_Tonk_Women.wav

Peak level 100.0 %
Track quality 100.0 %
Copy CRC BBCC40C0
Track not present in AccurateRip database
Copy OK

Track 9

Filename C:\Documents and Settings\Robert\Desktop\The Rolling Stones - Live At Rupp Arena 1981 (Empress Valley EVSD 401-402) Lexington KY December 11, 1981\Brown_Sugar.wav

Peak level 100.0 %
Track quality 100.0 %
Copy CRC B2170549
Track not present in AccurateRip database
Copy OK

Track 10

Filename C:\Documents and Settings\Robert\Desktop\The Rolling Stones - Live At Rupp Arena 1981 (Empress Valley EVSD 401-402) Lexington KY December 11, 1981\Start_Me_Up.wav

Peak level 100.0 %
Track quality 100.0 %
Copy CRC AB112F95
Track not present in AccurateRip database
Copy OK

Track 11

Filename C:\Documents and Settings\Robert\Desktop\The Rolling Stones - Live At Rupp Arena 1981 (Empress Valley EVSD 401-402) Lexington KY December 11, 1981\Jumping_Jack_Flash.wav

Peak level 100.0 %
Track quality 100.0 %
Copy CRC EDCA3959
Track not present in AccurateRip database
Copy OK

Track 12

Filename C:\Documents and Settings\Robert\Desktop\The Rolling Stones - Live At Rupp Arena 1981 (Empress Valley EVSD 401-402) Lexington KY December 11, 1981\(I_Can't_Get_No)_Satisfaction.wav

Peak level 100.0 %
Track quality 99.9 %
Copy CRC B011D447
Track not present in AccurateRip database
Copy OK


None of the tracks are present in the AccurateRip database

No errors occurred

End of status report


[CUETools log; Date: 06.06.2021 17:20:55; Version: 2.1.4]
[AccurateRip ID: 001b428c-00fded7c-ac0f340c] disk not present in database.

Track Peak [ CRC32 ] [W/O NULL]
– 100,0 [479A850E] [D592F1BC]
01 100,0 [BD4E7589] [148058C3]
02 100,0 [E20F5CDC] [97E4B8A5]
03 100,0 [3C098423] [4A313468]
04 100,0 [4FAB37D7] [4A425A99]
05 100,0 [53276EB2] [D1244667]
06 100,0 [04AEF67A] [AF702D1A]
07 100,0 [49C5F093] [3E453D9C]
08 100,0 [75803587] [BBCC40C0]
09 100,0 [F3D2287E] [B2170549]
10 100,0 [D13F7154] [AB112F95]
11 100,0 [3F051640] [EDCA3959]
12 100,0 [18C8A791] [B011D447]


All thanks go to the original releaser

Rolling Stones in my Blog

Download The Rolling Stones - Live At Rupp Arena (1981):