Tags
Language
Tags

The Small Faces - Ogden's Nut Gone Flake (1968) [2018, 3CD + DVD Box Set] Re-up

Posted By: v3122
The Small Faces - Ogden's Nut Gone Flake (1968) [2018, 3CD + DVD Box Set] Re-up

The Small Faces - Ogden's Nut Gone Flake (1968)
EAC | Flac(Image) + Cue + Log & MP3 CBR 320Kbps
Sanctuary Records, IMEB012 | ~ 660 or 307 Mb | Scans(pnpg) -> 1.31 Gb
DVD5: NTSC 4:3 (720x480) VBR | LinearPCM, 2 ch -> 1.58 Gb
Psychedelic Rock / Pop Rock

Limited four disc (three CDs + NTSC/Region 0 DVD) set. This 60-page hardback book edition contains mono and stereo versions of the album plus a disc of rare bonus material, together with a DVD containing The Small Faces' legendary feature on an episode of the BBC's TV show "Colour Me Pop" in June 1968, with the highlights being their performance of "Happiness Stan" and Peter Whitehead's promotional film for 'Lazy Sunday'. It will also feature a deluxe booklet loaded with material, including in-depth sleeve notes by Small Faces authority and Mojo contributor Mark Paytress, interviews, rare photos and memorabilia. What happens when Swinging London's foremost mod quartet grow their hair, change their clothes, and go psychedelic? They write an era-defining smash-hit concept album! Ogdens Nut Gone Flake was originally released by Andrew Loog Oldham's Immediate Records on 24 May 1968 and soon hit the #1 spot where it stayed for six weeks. Critically acclaimed and still featuring in albums-you-must-own-polls, it is by far and away The Small Faces' best-known and most successful album. Alongside classic single tracks like 'Lazy Sunday' and 'Afterglow' plus 'Song Of A Baker' and live favorite 'Rollin' Over', the LP even added a conceptual twist with the story of "Happiness Stan" and the narrations of Stanley Unwin on Side 2. To celebrate the 50th anniversary, the album has been newly remastered by Nick Robbins at Soundmastering with the full cooperation of surviving Small Faces member Kenney Jones. This is the best Ogdens' has ever sounded!

~ amazon
The Small Faces - Ogden's Nut Gone Flake (1968) [2018, 3CD + DVD Box Set] Re-up

The Small Faces - Ogden's Nut Gone Flake (1968):

The Small Faces - Ogden's Nut Gone Flake (1968) [2018, 3CD + DVD Box Set] Re-up

Tracklist CD1 - Mono:

01 Ogdens' Nut Gone Flake
02 Happiness Stan
03 Afterglow
04 Rollin' Over
05 Long Agos And Worlds Apart
06 The Hungry Intruder
07 Rene
08 The Journey
09 Song Of A Baker
10 Mad John
11 Lazy Sunday
12 Happydaystoytown

Exact Audio Copy V1.3 from 2. September 2016

EAC extraction logfile from 8. November 2018, 19:37

Small Faces / Ogdens' Nut Gone Flake CD1 Mono

Used drive : PLEXTOR BD-R PX-B950SA Adapter: 1 ID: 1

Read mode : Secure
Utilize accurate stream : Yes
Defeat audio cache : Yes
Make use of C2 pointers : No

Read offset correction : 6
Overread into Lead-In and Lead-Out : No
Fill up missing offset samples with silence : Yes
Delete leading and trailing silent blocks : No
Null samples used in CRC calculations : Yes
Used interface : Native Win32 interface for Win NT & 2000

Used output format : Internal WAV Routines
Sample format : 44.100 Hz; 16 Bit; Stereo


TOC of the extracted CD

Track | Start | Length | Start sector | End sector
––––––––––––––––––––––––––––-
1 | 0:00.00 | 2:35.07 | 0 | 11631
2 | 2:35.07 | 3:30.33 | 11632 | 27414
3 | 6:05.40 | 2:36.19 | 27415 | 39133
4 | 8:41.59 | 4:02.30 | 39134 | 57313
5 | 12:44.14 | 3:12.51 | 57314 | 71764
6 | 15:56.65 | 3:04.22 | 71765 | 85586
7 | 19:01.12 | 3:37.45 | 85587 | 101906
8 | 22:38.57 | 2:14.03 | 101907 | 111959
9 | 24:52.60 | 2:14.71 | 111960 | 122080
10 | 27:07.56 | 4:03.34 | 122081 | 140339
11 | 31:11.15 | 4:20.34 | 140340 | 159873
12 | 35:31.49 | 2:59.23 | 159874 | 173321


Range status and errors

Selected range

Filename C:\Users\Alex\Desktop\ALLexxess\Small Faces\1968 Ogdens' Nut Gone Flake (4-Disc Box Set Sanctuary Records 2018)\CD1\Small Faces - Ogdens' Nut Gone Flake CD1 Mono.wav

Peak level 96.6 %
Extraction speed 6.5 X
Range quality 100.0 %
Test CRC 4E8DC7A0
Copy CRC 4E8DC7A0
Copy OK

No errors occurred


AccurateRip summary

Track 1 cannot be verified as accurate (confidence 24) [93363907], AccurateRip returned [88B0A863] (AR v2)
Track 2 cannot be verified as accurate (confidence 24) [A4EA072B], AccurateRip returned [E6FC8931] (AR v2)
Track 3 cannot be verified as accurate (confidence 24) [4F3504C9], AccurateRip returned [2FD0CD9D] (AR v2)
Track 4 cannot be verified as accurate (confidence 24) [90C2B605], AccurateRip returned [D3608A29] (AR v2)
Track 5 cannot be verified as accurate (confidence 24) [3379B789], AccurateRip returned [A30E7735] (AR v2)
Track 6 cannot be verified as accurate (confidence 24) [618E7BBB], AccurateRip returned [3DC04EC8] (AR v2)
Track 7 cannot be verified as accurate (confidence 24) [4F0AED09], AccurateRip returned [E3BB4C08] (AR v2)
Track 8 cannot be verified as accurate (confidence 24) [20C6916E], AccurateRip returned [D85679B5] (AR v2)
Track 9 cannot be verified as accurate (confidence 24) [879E4645], AccurateRip returned [6513207F] (AR v2)
Track 10 cannot be verified as accurate (confidence 24) [A014DAA1], AccurateRip returned [60E2A04D] (AR v2)
Track 11 cannot be verified as accurate (confidence 24) [8499A0AF], AccurateRip returned [A7C3D231] (AR v2)
Track 12 cannot be verified as accurate (confidence 24) [EC3FB9CC], AccurateRip returned [61347A9E] (AR v2)

No tracks could be verified as accurate
You may have a different pressing from the one(s) in the database

End of status report

–– CUETools DB Plugin V2.1.6

[CTDB TOCID: gASkePsVqOBC_dKRIrDEbj_F1bs-] found
Submit result: gASkePsVqOBC_dKRIrDEbj_F1bs- has been submitted
Track | CTDB Status
1 | ( 0/52) No match
2 | ( 0/52) No match
3 | ( 0/52) No match
4 | ( 0/52) No match
5 | ( 0/52) No match
6 | ( 0/52) No match
7 | ( 0/52) No match
8 | ( 0/52) No match
9 | ( 0/52) No match
10 | ( 0/52) No match
11 | ( 0/52) No match
12 | ( 0/52) No match


==== Log checksum 1B04D0E1E302433680B89860DC323B16F6C07EE3795E7A3BB2964853A8067FA8 ====


[CUETools log; Date: 10.11.2018 11:13:04; Version: 2.1.4]
[AccurateRip ID: 0010d1fb-009dbc9b-a509060c] found.
Track [ CRC | V2 ] Status
01 [0cd496c0|93363907] (00+00/30) No match
02 [f13d7678|a4ea072b] (00+00/30) No match
03 [95d28c1a|4f3504c9] (00+00/30) No match
04 [f9d353ef|90c2b605] (00+00/30) No match
05 [d5e4db2d|3379b789] (00+00/30) No match
06 [fde27a83|618e7bbb] (00+00/30) No match
07 [68374d61|4f0aed09] (00+00/29) No match
08 [1a09c3f9|20c6916e] (00+00/29) No match
09 [167bdd2e|879e4645] (00+00/29) No match
10 [77ad3ce3|a014daa1] (00+00/28) No match
11 [f91a7a97|8499a0af] (00+00/28) No match
12 [6d0172d7|ec3fb9cc] (00+00/28) No match

Track Peak [ CRC32 ] [W/O NULL] [ LOG ]
– 96,6 [4E8DC7A0] [84BD9397] CRC32
01 96,6 [57070895] [A9B22043]
02 96,5 [77266029] [D7C2C4C8]
03 96,5 [3457C71B] [1B595223]
04 96,5 [6D41BCA7] [65C054A3]
05 96,5 [748A3FB4] [44FB412E]
06 96,5 [6F0F5EEA] [8C9DDE0F]
07 96,5 [3BB1A6FF] [2560EFFA]
08 94,0 [36E54BD9] [98EB4056]
09 96,5 [10486A70] [FC23AA41]
10 96,5 [925AA808] [A471241F]
11 96,5 [AE97064E] [D8360B1C]
12 95,4 [D5C4E827] [A46CDF01]


The Small Faces - Ogden's Nut Gone Flake (1968) [2018, 3CD + DVD Box Set] Re-up

Tracklist CD2 - Stereo:

01 Ogdens' Nut Gone Flake
02 Happiness Stan
03 Afterglow
04 Rollin' Over
05 Long Agos And Worlds Apart
06 The Hungry Intruder
07 Rene
08 The Journey
09 Song Of A Baker
10 Mad John
11 Lazy Sunday
12 Happydaystoytown

Exact Audio Copy V1.3 from 2. September 2016

EAC extraction logfile from 8. November 2018, 19:10

Small Faces / Ogdens' Nut Gone Flake CD2 Stereo

Used drive : PLEXTOR BD-R PX-B950SA Adapter: 1 ID: 1

Read mode : Secure
Utilize accurate stream : Yes
Defeat audio cache : Yes
Make use of C2 pointers : No

Read offset correction : 6
Overread into Lead-In and Lead-Out : No
Fill up missing offset samples with silence : Yes
Delete leading and trailing silent blocks : No
Null samples used in CRC calculations : Yes
Used interface : Native Win32 interface for Win NT & 2000

Used output format : Internal WAV Routines
Sample format : 44.100 Hz; 16 Bit; Stereo


TOC of the extracted CD

Track | Start | Length | Start sector | End sector
––––––––––––––––––––––––––––-
1 | 0:00.00 | 2:27.39 | 0 | 11063
2 | 2:27.39 | 3:29.11 | 11064 | 26749
3 | 5:56.50 | 2:35.57 | 26750 | 38431
4 | 8:32.32 | 4:30.18 | 38432 | 58699
5 | 13:02.50 | 3:15.49 | 58700 | 73373
6 | 16:18.24 | 3:06.64 | 73374 | 87387
7 | 19:25.13 | 3:33.11 | 87388 | 103373
8 | 22:58.24 | 1:53.17 | 103374 | 111865
9 | 24:51.41 | 2:13.41 | 111866 | 121881
10 | 27:05.07 | 4:12.10 | 121882 | 140791
11 | 31:17.17 | 4:13.16 | 140792 | 159782
12 | 35:30.33 | 2:50.65 | 159783 | 172597


Range status and errors

Selected range

Filename C:\Users\Alex\Desktop\ALLexxess\Small Faces\1968 Ogdens' Nut Gone Flake (4-Disc Box Set Sanctuary Records 2018)\CD2\Small Faces - Ogdens' Nut Gone Flake CD2 Stereo.wav

Peak level 96.6 %
Extraction speed 6.4 X
Range quality 100.0 %
Test CRC 92FE34AB
Copy CRC 92FE34AB
Copy OK

No errors occurred


AccurateRip summary

Track 1 not present in database
Track 2 not present in database
Track 3 not present in database
Track 4 not present in database
Track 5 not present in database
Track 6 not present in database
Track 7 not present in database
Track 8 not present in database
Track 9 not present in database
Track 10 not present in database
Track 11 not present in database
Track 12 not present in database

None of the tracks are present in the AccurateRip database

End of status report

–– CUETools DB Plugin V2.1.6

[CTDB TOCID: JQAho65nGHRgvGQBAzJAx6tAcsw-] disk not present in database
Submit result: JQAho65nGHRgvGQBAzJAx6tAcsw- has been uploaded


==== Log checksum 2F4362A3F91CADB5F067773FB695CB43CC9564A5A3BE1E551F134086A99B0A13 ====


[CUETools log; Date: 10.11.2018 11:16:02; Version: 2.1.4]
[AccurateRip ID: 0010e053-009e2497-ab08fd0c] disk not present in database.

Track Peak [ CRC32 ] [W/O NULL] [ LOG ]
– 96,6 [92FE34AB] [B9DB3C74] CRC32
01 96,6 [7774F7CA] [C8399D75]
02 96,5 [90CC3FE5] [3C5359FF]
03 96,5 [E1166593] [3258C353]
04 96,5 [E3DC8EE1] [1DC2F0E8]
05 96,5 [AC4DC49B] [7C1EAEDC]
06 96,5 [D6513915] [DAA61608]
07 96,5 [F58F4C0B] [8198D0E8]
08 96,5 [0FA46DAC] [A759E9E8]
09 96,5 [97A96DC8] [18E231A4]
10 96,5 [7DD0E4B4] [8362F194]
11 96,5 [805E62CF] [9B5B9163]
12 96,5 [E517B282] [7D39A003]


The Small Faces - Ogden's Nut Gone Flake (1968) [2018, 3CD + DVD Box Set] Re-up

Tracklist CD3:

01 Ogdens' Nut Gone Flake (Early Session Version) / Mono
02 Afterglow (Alternate USA Mix) / Stereo
03 Long Agos And Worlds Apart (Alternate USA Mix) / Stereo
04 Rene, The Dockers Delight (Early Session Version) / Stereo
05 Song Of A Baker (Alternate USA Mix) / Stereo
06 Lazy Sunday (Alternate USA Mix) / Stereo
07 Happiness Stan (Backing Track) / Mono
08 Bun In The Oven (Early Session Mix) / Mono
09 The Fly (Take 4 Instrumental Version) / Stereo
10 The Journey (Single Version) / Mono
11 Mad John (Take 7 Early Session Version) / Stereo
12 Mad John (Single Version) / Mono
13 HappyDaysToyTown (Alternate USA Mix) / Stereo
14 Kamikhazi (Take 7 Backing Track) / Mono
15 Every Little Bit Hurts (Early Session Mix) / Mono
16 (If You Think You're) Groovy (Backing Track) / Mono
17 Afterglow Of Your Love (Alternate Single Mix) / Mono
18 Ogdens' Nut Gone Flake (Alternate Take Phased Mix) / Stereo

Exact Audio Copy V1.3 from 2. September 2016

EAC extraction logfile from 3. November 2018, 17:56

Small Faces / Ogdens' Nut Gone Flake CD3

Used drive : PLEXTOR BD-R PX-B950SA Adapter: 1 ID: 1

Read mode : Secure
Utilize accurate stream : Yes
Defeat audio cache : Yes
Make use of C2 pointers : No

Read offset correction : 6
Overread into Lead-In and Lead-Out : No
Fill up missing offset samples with silence : Yes
Delete leading and trailing silent blocks : No
Null samples used in CRC calculations : Yes
Used interface : Native Win32 interface for Win NT & 2000

Used output format : Internal WAV Routines
Sample format : 44.100 Hz; 16 Bit; Stereo


TOC of the extracted CD

Track | Start | Length | Start sector | End sector
––––––––––––––––––––––––––––-
1 | 0:00.00 | 2:49.07 | 0 | 12681
2 | 2:49.07 | 3:03.09 | 12682 | 26415
3 | 5:52.16 | 2:36.10 | 26416 | 38125
4 | 8:28.26 | 4:30.19 | 38126 | 58394
5 | 12:58.45 | 3:00.18 | 58395 | 71912
6 | 15:58.63 | 3:05.47 | 71913 | 85834
7 | 19:04.35 | 2:38.07 | 85835 | 97691
8 | 21:42.42 | 2:13.38 | 97692 | 107704
9 | 23:56.05 | 2:02.46 | 107705 | 116900
10 | 25:58.51 | 2:52.72 | 116901 | 129872
11 | 28:51.48 | 2:20.42 | 129873 | 140414
12 | 31:12.15 | 2:08.03 | 140415 | 150017
13 | 33:20.18 | 4:19.06 | 150018 | 169448
14 | 37:39.24 | 2:17.00 | 169449 | 179723
15 | 39:56.24 | 3:57.03 | 179724 | 197501
16 | 43:53.27 | 3:11.24 | 197502 | 211850
17 | 47:04.51 | 3:25.71 | 211851 | 227296
18 | 50:30.47 | 2:25.34 | 227297 | 238205


Range status and errors

Selected range

Filename C:\Users\Alex\Desktop\ALLexxess\Small Faces\1968 Ogdens' Nut Gone Flake (4-Disc Box Set Sanctuary Records 2018)\CD3\Small Faces - Ogdens' Nut Gone Flake CD3.wav

Peak level 96.6 %
Extraction speed 6.9 X
Range quality 100.0 %
Test CRC 5DA0C005
Copy CRC 5DA0C005
Copy OK

No errors occurred


AccurateRip summary

Track 1 not present in database
Track 2 not present in database
Track 3 not present in database
Track 4 not present in database
Track 5 not present in database
Track 6 not present in database
Track 7 not present in database
Track 8 not present in database
Track 9 not present in database
Track 10 not present in database
Track 11 not present in database
Track 12 not present in database
Track 13 not present in database
Track 14 not present in database
Track 15 not present in database
Track 16 not present in database
Track 17 not present in database
Track 18 not present in database

None of the tracks are present in the AccurateRip database

End of status report

–– CUETools DB Plugin V2.1.6

[CTDB TOCID: JiePIyGvkGO5KliII4X.LCrNs9E-] disk not present in database
Submit result: JiePIyGvkGO5KliII4X.LCrNs9E- has been uploaded


==== Log checksum 425BB30BA4D922D8FB8E073FBD7B9C073C6D4AFEF42682FDCDFD57E36DB31EB2 ====


[CUETools log; Date: 10.11.2018 11:19:30; Version: 2.1.4]
[AccurateRip ID: 00227c20-01c9f27c-dc0c6812] disk not present in database.

Track Peak [ CRC32 ] [W/O NULL] [ LOG ]
– 96,6 [5DA0C005] [D31379B4] CRC32
01 96,6 [989F4758] [46E8BF0B]
02 96,5 [06A60FBF] [967E1B86]
03 96,5 [4A66A5E8] [219C1E28]
04 96,5 [EF5E5F87] [817FEED9]
05 96,5 [2390E9B6] [9B477843]
06 96,5 [BAE59DC7] [7EB56E5E]
07 96,5 [0C333094] [0990CF04]
08 87,4 [B72BF8BE] [E8656575]
09 96,5 [F48297AD] [BFD052EE]
10 96,5 [AE01F2C6] [B0F4604F]
11 96,5 [3B02F0F9] [56E1507C]
12 86,2 [F0CC6CDF] [AA15296F]
13 96,5 [851F463E] [808AA198]
14 96,5 [D59C257B] [0AF8B9B3]
15 96,5 [B9EDCCF5] [13848206]
16 96,5 [ADDEBA7E] [29B36E23]
17 96,5 [4A7634B6] [DE2CF3E3]
18 96,5 [410B7886] [09D77583]


The Small Faces - Ogden's Nut Gone Flake (1968) [2018, 3CD + DVD Box Set] Re-up

Tracklist DVD - :

BBC Late Line-Up Presents Colour Me Pop:
Small Faces (original transmission date 21 June 1968)
Presented by Michael Dean: Small Faces with Stanley Unwin

01 Song Of A Baker
02 Lazy Sunday (Immediate Records original promo, filmed by Peter Whitehead)
03 Happiness Stan
04 Rollin’ Over
05 The Fly
06 The Journey
07 Mad John
08 Happydaystoytown

Title: The Small Faces - Ogden's Nut Gone Flake - DVD
Size: 1.50 Gb ( 1 572 268,00 KBytes ) - DVD-5
Enabled regions: 1, 2, 3, 4, 5, 6, 7, 8

VTS_01 :
Play Length: 00:00:00+00:00:00+00:00:00
Video: NTSC 16:9 (720x480) VBR, Auto Letterboxed

VTS_02 :
Play Length: 00:26:39
Video: NTSC 4:3 (720x480) VBR
Audio:
English (LinearPCM, 2 ch)


The Small Faces - Ogden's Nut Gone Flake (1968) [2018, 3CD + DVD Box Set] Re-up

The Small Faces - Ogden's Nut Gone Flake (1968) [2018, 3CD + DVD Box Set] Re-up

The Small Faces - Ogden's Nut Gone Flake (1968) [2018, 3CD + DVD Box Set] Re-up

The Small Faces - Ogden's Nut Gone Flake (1968) [2018, 3CD + DVD Box Set] Re-up

All thanks go to ALLexxess

The Small Faces in my Blog

Download The Small Faces - Ogden's Nut Gone Flake (1968):