Subcategories
Tags
Language
Tags

The Smithereens - From Jersey It Came! The Smithereens Anthology (2004)

Posted By: v3122
The Smithereens - From Jersey It Came! The Smithereens Anthology (2004)

The Smithereens - From Jersey It Came! The Smithereens Anthology (2004)
EAC | Flac(Image) + Cue + Log & MP3 CBR 320Kbps
2CD | Capitol, 72435-77400-2-9 | ~ 1019 or 323 Mb | Scans(jpg) -> 35 Mb
Alternative Rock / Power Pop

The Smithereens already have a single-disc compilation, 1995's excellent Blown to Smithereens: The Best of the Smithereens. Released in 2004, From Jersey It Came! The Smithereens Anthology expands on that collection, taking 15 of its 16 songs (a cover of the Outsiders' "Time Won't Let Me" is left behind) and adding 24 other tunes, including their version of "Downbound Train" from a Bruce Springsteen tribute and a selection from 1999's God Save the Smithereens, for a grand total of 39 tracks over two discs. It's a significant expansion, and by and large it's terrific. The Smithereens were a consistently satisfying band, partially due to Pat DiNizio's songwriting and partially because the bandmembers were tough, hard-hitting rock & rollers, and that consistency keeps From Jersey It Came! enjoyable throughout its lengthy running time. While there are a handful of rarities – a 1980 demo of "Elaine" and a live version of "White Castle Blues," a demo of "Love Is Gone," and different mixes of "Cut Flowers" and "Everything" – most of the genuine rarities came out on 1995's Attack of the Smithereens, which leaves this for that curious group of big fans who don't want all the full-length albums. For those fans, this is an excellent choice, but those looking for an introduction, or who just want the band at its absolute prime, Blown to Smithereens remains the first pick.

by Stephen Thomas Erlewine, AMG
The Smithereens - From Jersey It Came! The Smithereens Anthology (2004)


The Smithereens - From Jersey It Came! The Smithereens Anthology (2004):

The Smithereens - From Jersey It Came! The Smithereens Anthology (2004)

Tracklist CD1:

01. Girls About Town (02:53)
02. Back To Balboa (01:58)
03. Much Too Much (02:24)
04. Beauty And Sadness (03:24)
05. Blood And Roses (03:35)
06. Strangers When We Meet (03:45)
07. In A Lonely Place (04:04)
08. Behind The Wall Of Sleep (03:24)
09. White Castle Blues (Live @ The Stone Pony) (07:42)
10. Cigarette (02:27)
11. Crazy Mixed-Up Kid (02:07)
12. Time And Time Again (03:06)
13. Something New (01:56)
14. Only A Memory (03:43)
15. If The Sun Doesn't Shine (03:32)
16. Drown In My Own Tears (03:12)
17. Especially For You (03:07)
18. House We Used To Live In (04:03)
19. Elaine (1980 Demo) (03:00)
20. Elaine (02:33)
21. One After 909 (03:36)

Exact Audio Copy V0.99 prebeta 4 from 23. January 2008

EAC extraction logfile from 6. December 2008, 7:43

Smithereens / From Jersey It Came The Smithereens Anthology (Disc 1)

Used drive : HL-DT-STDVDRRW GSA-H30L Adapter: 0 ID: 1

Read mode : Secure
Utilize accurate stream : Yes
Defeat audio cache : Yes
Make use of C2 pointers : No

Read offset correction : 102
Overread into Lead-In and Lead-Out : No
Fill up missing offset samples with silence : Yes
Delete leading and trailing silent blocks : No
Null samples used in CRC calculations : Yes
Used interface : Native Win32 interface for Win NT & 2000
Gap handling : Appended to previous track

Used output format : User Defined Encoder
Selected bitrate : 192 kBit/s
Quality : High
Add ID3 tag : No
Command line compressor : C:\Program Files\FLAC\flac.exe
Additional command line options : -V -8 -T "artist=%a" -T "title=%t" -T "album=%g" -T "date=%y" -T "tracknumber=%n" -T "genre=%m" %s


TOC of the extracted CD

Track | Start | Length | Start sector | End sector
––––––––––––––––––––––––––––-
1 | 0:00.00 | 2:47.50 | 0 | 12574
2 | 2:47.50 | 1:56.64 | 12575 | 21338
3 | 4:44.39 | 2:24.06 | 21339 | 32144
4 | 7:08.45 | 3:27.58 | 32145 | 47727
5 | 10:36.28 | 3:35.11 | 47728 | 63863
6 | 14:11.39 | 3:49.25 | 63864 | 81063
7 | 18:00.64 | 4:09.37 | 81064 | 99775
8 | 22:10.26 | 3:25.14 | 99776 | 115164
9 | 25:35.40 | 7:40.42 | 115165 | 149706
10 | 33:16.07 | 2:32.62 | 149707 | 161168
11 | 35:48.69 | 2:06.50 | 161169 | 170668
12 | 37:55.44 | 3:11.29 | 170669 | 185022
13 | 41:06.73 | 1:54.67 | 185023 | 193639
14 | 43:01.65 | 3:45.50 | 193640 | 210564
15 | 46:47.40 | 3:35.24 | 210565 | 226713
16 | 50:22.64 | 3:12.61 | 226714 | 241174
17 | 53:35.50 | 3:10.70 | 241175 | 255494
18 | 56:46.45 | 4:03.60 | 255495 | 273779
19 | 60:50.30 | 2:30.13 | 273780 | 285042
20 | 63:20.43 | 2:32.48 | 285043 | 296490
21 | 65:53.16 | 3:35.48 | 296491 | 312663


Track 1

Filename F:\Torrents\Downloads\The Smithereens - Anthology (2004) [FLAC]\CD 1 Of 2\01 - Girl About Town.wav

Pre-gap length 0:00:02.00

Peak level 70.9 %
Track quality 100.0 %
Test CRC 1AC5591C
Copy CRC 1AC5591C
Accurately ripped (confidence 7) [C8AA96FB]
Copy OK

Track 2

Filename F:\Torrents\Downloads\The Smithereens - Anthology (2004) [FLAC]\CD 1 Of 2\02 - Back To Balboa.wav

Pre-gap length 0:00:01.40

Peak level 98.9 %
Track quality 100.0 %
Test CRC 22B6A2AE
Copy CRC 22B6A2AE
Accurately ripped (confidence 8) [9C678CEC]
Copy OK

Track 3

Filename F:\Torrents\Downloads\The Smithereens - Anthology (2004) [FLAC]\CD 1 Of 2\03 - Much Too Much.wav

Pre-gap length 0:00:01.80

Peak level 98.9 %
Track quality 100.0 %
Test CRC F6738C41
Copy CRC F6738C41
Accurately ripped (confidence 8) [1B74D2A4]
Copy OK

Track 4

Filename F:\Torrents\Downloads\The Smithereens - Anthology (2004) [FLAC]\CD 1 Of 2\04 - Beauty And Sadness.wav

Pre-gap length 0:00:01.88

Peak level 98.9 %
Track quality 100.0 %
Test CRC E6733A09
Copy CRC E6733A09
Accurately ripped (confidence 8) [2B423584]
Copy OK

Track 5

Filename F:\Torrents\Downloads\The Smithereens - Anthology (2004) [FLAC]\CD 1 Of 2\05 - Blood And Roses.wav

Pre-gap length 0:00:02.81

Peak level 98.9 %
Track quality 100.0 %
Test CRC 0B0C58D1
Copy CRC 0B0C58D1
Accurately ripped (confidence 8) [191EBC19]
Copy OK

Track 6

Filename F:\Torrents\Downloads\The Smithereens - Anthology (2004) [FLAC]\CD 1 Of 2\06 - Strangers When We Meet.wav

Pre-gap length 0:00:02.08

Peak level 98.9 %
Track quality 100.0 %
Test CRC 31447217
Copy CRC 31447217
Accurately ripped (confidence 8) [70F178B9]
Copy OK

Track 7

Filename F:\Torrents\Downloads\The Smithereens - Anthology (2004) [FLAC]\CD 1 Of 2\07 - In A Lonely Place.wav

Pre-gap length 0:00:02.38

Peak level 83.2 %
Track quality 100.0 %
Test CRC D3487D83
Copy CRC D3487D83
Accurately ripped (confidence 8) [BB3587B8]
Copy OK

Track 8

Filename F:\Torrents\Downloads\The Smithereens - Anthology (2004) [FLAC]\CD 1 Of 2\08 - Behind The Wall Of Sleep.wav

Pre-gap length 0:00:02.12

Peak level 98.9 %
Track quality 99.9 %
Test CRC 8F6C4CBF
Copy CRC 8F6C4CBF
Accurately ripped (confidence 8) [0535F64D]
Copy OK

Track 9

Filename F:\Torrents\Downloads\The Smithereens - Anthology (2004) [FLAC]\CD 1 Of 2\09 - White Castle Blues (Live).wav

Pre-gap length 0:00:01.24

Peak level 98.9 %
Track quality 99.9 %
Test CRC 222B5D51
Copy CRC 222B5D51
Accurately ripped (confidence 8) [30B67038]
Copy OK

Track 10

Filename F:\Torrents\Downloads\The Smithereens - Anthology (2004) [FLAC]\CD 1 Of 2\10 - Cigarette.wav

Pre-gap length 0:00:01.96

Peak level 83.2 %
Track quality 100.0 %
Test CRC 5BA859EF
Copy CRC 5BA859EF
Accurately ripped (confidence 8) [78027FBF]
Copy OK

Track 11

Filename F:\Torrents\Downloads\The Smithereens - Anthology (2004) [FLAC]\CD 1 Of 2\11 - Crazy Mixed-Up Kid.wav

Pre-gap length 0:00:01.34

Peak level 98.9 %
Track quality 100.0 %
Test CRC 311F3174
Copy CRC 311F3174
Accurately ripped (confidence 7) [9A5FC204]
Copy OK

Track 12

Filename F:\Torrents\Downloads\The Smithereens - Anthology (2004) [FLAC]\CD 1 Of 2\12 - Time And Time Again.wav

Pre-gap length 0:00:02.49

Peak level 100.0 %
Track quality 100.0 %
Test CRC 221D57D3
Copy CRC 221D57D3
Accurately ripped (confidence 7) [3B1AC85A]
Copy OK

Track 13

Filename F:\Torrents\Downloads\The Smithereens - Anthology (2004) [FLAC]\CD 1 Of 2\13 - Something New.wav

Pre-gap length 0:00:01.98

Peak level 83.2 %
Track quality 99.9 %
Test CRC 1CE20554
Copy CRC 1CE20554
Accurately ripped (confidence 7) [63F6AD55]
Copy OK

Track 14

Filename F:\Torrents\Downloads\The Smithereens - Anthology (2004) [FLAC]\CD 1 Of 2\14 - Only A Memory.wav

Peak level 98.9 %
Track quality 100.0 %
Test CRC 3FF024DC
Copy CRC 3FF024DC
Accurately ripped (confidence 7) [0B24058E]
Copy OK

Track 15

Filename F:\Torrents\Downloads\The Smithereens - Anthology (2004) [FLAC]\CD 1 Of 2\15 - If The Sun Doesn't Shine.wav

Pre-gap length 0:00:01.94

Peak level 98.9 %
Track quality 100.0 %
Test CRC 256A2940
Copy CRC 256A2940
Accurately ripped (confidence 7) [8B36FF33]
Copy OK

Track 16

Filename F:\Torrents\Downloads\The Smithereens - Anthology (2004) [FLAC]\CD 1 Of 2\16 - Drown In My Own Tears.wav

Pre-gap length 0:00:02.06

Peak level 98.9 %
Track quality 100.0 %
Test CRC B80421FF
Copy CRC B80421FF
Accurately ripped (confidence 7) [64747D7E]
Copy OK

Track 17

Filename F:\Torrents\Downloads\The Smithereens - Anthology (2004) [FLAC]\CD 1 Of 2\17 - Especially For You.wav

Pre-gap length 0:00:02.21

Peak level 98.9 %
Track quality 99.9 %
Test CRC C2C39F77
Copy CRC C2C39F77
Accurately ripped (confidence 7) [699CD51D]
Copy OK

Track 18

Filename F:\Torrents\Downloads\The Smithereens - Anthology (2004) [FLAC]\CD 1 Of 2\18 - House We Used To Live In.wav

Pre-gap length 0:00:02.22

Peak level 98.9 %
Track quality 100.0 %
Test CRC D47D7866
Copy CRC D47D7866
Accurately ripped (confidence 7) [5040E9E3]
Copy OK

Track 19

Filename F:\Torrents\Downloads\The Smithereens - Anthology (2004) [FLAC]\CD 1 Of 2\19 - Elaine (1980 Demo).wav

Pre-gap length 0:00:01.68

Peak level 98.9 %
Track quality 100.0 %
Test CRC 5212D4E6
Copy CRC 5212D4E6
Accurately ripped (confidence 6) [4948DF06]
Copy OK

Track 20

Filename F:\Torrents\Downloads\The Smithereens - Anthology (2004) [FLAC]\CD 1 Of 2\20 - Elaine.wav

Pre-gap length 0:00:01.12

Peak level 88.1 %
Track quality 100.0 %
Test CRC EF151730
Copy CRC EF151730
Accurately ripped (confidence 6) [E14F06F3]
Copy OK

Track 21

Filename F:\Torrents\Downloads\The Smithereens - Anthology (2004) [FLAC]\CD 1 Of 2\21 - One After 909.wav

Peak level 98.9 %
Track quality 100.0 %
Test CRC 2B328169
Copy CRC 2B328169
Accurately ripped (confidence 7) [07CB77A6]
Copy OK


All tracks accurately ripped

No errors occurred

End of status report

foobar2000 1.2.9 / Dynamic Range Meter 1.1.1
log date: 2015-11-24 22:25:55

––––––––––––––––––––––––––––––––––––––––
Analyzed: Smithereens / From Jersey It Came The Smithereens Anthology (Disc 1)
––––––––––––––––––––––––––––––––––––––––

DR Peak RMS Duration Track
––––––––––––––––––––––––––––––––––––––––
DR5 -2.99 dB -9.36 dB 2:48 01-Girl About Town
DR8 -0.09 dB -8.93 dB 1:57 02-Back To Balboa
DR7 -0.09 dB -8.35 dB 2:24 03-Much Too Much
DR8 -0.09 dB -9.19 dB 3:28 04-Beauty And Sadness
DR8 -0.09 dB -9.55 dB 3:35 05-Blood And Roses
DR7 -0.09 dB -8.50 dB 3:49 06-Strangers When We Meet
DR9 -1.59 dB -11.97 dB 4:09 07-In A Lonely Place
DR8 -0.09 dB -8.27 dB 3:25 08-Behind The Wall Of Sleep
DR8 -0.09 dB -9.61 dB 7:41 09-White Castle Blues (Live)
DR9 -1.59 dB -11.85 dB 2:33 10-Cigarette
DR8 -0.09 dB -9.74 dB 2:07 11-Crazy Mixed-Up Kid
DR9 0.00 dB -9.63 dB 3:11 12-Time And Time Again
DR9 -1.59 dB -11.49 dB 1:55 13-Something New
DR7 -0.09 dB -8.51 dB 3:46 14-Only A Memory
DR8 -0.09 dB -9.10 dB 3:35 15-If The Sun Doesn't Shine
DR7 -0.09 dB -8.70 dB 3:13 16-Drown In My Own Tears
DR11 -0.10 dB -12.44 dB 3:11 17-Especially For You
DR7 -0.09 dB -8.24 dB 4:04 18-House We Used To Live In
DR8 -0.09 dB -9.48 dB 2:30 19-Elaine (1980 Demo)
DR8 -1.09 dB -9.65 dB 2:33 20-Elaine
DR8 -0.09 dB -8.99 dB 3:36 21-One After 909
––––––––––––––––––––––––––––––––––––––––

Number of tracks: 21
Official DR value: DR8

Samplerate: 44100 Hz
Channels: 2
Bits per sample: 16
Bitrate: 956 kbps
Codec: FLAC
================================================================================



[CUETools log; Date: 24.11.2015 22:25:56; Version: 2.1.4]
[CTDB TOCID: OF5UiZtShtn1wu5x_2S2d_cGM_I-] found.
Track | CTDB Status
1 | (4/4) Accurately ripped
2 | (4/4) Accurately ripped
3 | (4/4) Accurately ripped
4 | (4/4) Accurately ripped
5 | (4/4) Accurately ripped
6 | (4/4) Accurately ripped
7 | (4/4) Accurately ripped
8 | (4/4) Accurately ripped
9 | (4/4) Accurately ripped
10 | (4/4) Accurately ripped
11 | (4/4) Accurately ripped
12 | (4/4) Accurately ripped
13 | (4/4) Accurately ripped
14 | (4/4) Accurately ripped
15 | (4/4) Accurately ripped
16 | (4/4) Accurately ripped
17 | (4/4) Accurately ripped
18 | (4/4) Accurately ripped
19 | (4/4) Accurately ripped
20 | (4/4) Accurately ripped
21 | (4/4) Accurately ripped
[AccurateRip ID: 00346d0f-032b48b8-35104815] found.
Track [ CRC | V2 ] Status
01 [c8aa96fb|67c801cc] (14+03/21) Accurately ripped
02 [9c678cec|299396ae] (15+03/22) Accurately ripped
03 [1b74d2a4|270e3964] (15+03/22) Accurately ripped
04 [2b423584|898c0444] (15+03/22) Accurately ripped
05 [191ebc19|d2328e8f] (16+03/25) Accurately ripped
06 [70f178b9|b30c461e] (15+03/24) Accurately ripped
07 [bb3587b8|f934e676] (15+03/22) Accurately ripped
08 [0535f64d|80ef8f6a] (15+03/24) Accurately ripped
09 [30b67038|43ee9c88] (14+03/21) Accurately ripped
10 [78027fbf|b3c07d67] (14+03/21) Accurately ripped
11 [9a5fc204|6874240a] (14+03/21) Accurately ripped
12 [3b1ac85a|83b0d98d] (14+03/23) Accurately ripped
13 [63f6ad55|82cd4ba0] (14+03/21) Accurately ripped
14 [0b24058e|3d459a40] (14+03/23) Accurately ripped
15 [8b36ff33|451bf9d8] (14+03/21) Accurately ripped
16 [64747d7e|a6af1d4b] (14+03/21) Accurately ripped
17 [699cd51d|a38af107] (14+03/21) Accurately ripped
18 [5040e9e3|3f7c8c72] (13+03/22) Accurately ripped
19 [4948df06|5b35ceb6] (13+03/20) Accurately ripped
20 [e14f06f3|777800b7] (13+03/20) Accurately ripped
21 [07cb77a6|9f3eca5e] (14+03/21) Accurately ripped
Offsetted by -750:
01 [d910dcb6] (00/21) No match
02 [ef846f7e] (00/22) No match
03 [4a9ae697] (00/22) No match
04 [34ab7936] (00/22) No match
05 [47084303] (02/25) Accurately ripped
06 [9fe85804] (02/24) Accurately ripped
07 [ecc301cf] (00/22) No match
08 [93d7d8ba] (02/24) Accurately ripped
09 [6e0220cf] (00/21) No match
10 [85043fd0] (00/21) No match
11 [23b16876] (00/21) No match
12 [44b03d98] (02/23) Accurately ripped
13 [9e17b989] (00/21) No match
14 [f2cf881f] (02/23) Accurately ripped
15 [36c02006] (00/21) No match
16 [8aa30795] (00/21) No match
17 [db706da2] (00/21) No match
18 [422e617f] (02/22) Accurately ripped
19 [f7736e65] (00/20) No match
20 [b212de8a] (00/20) No match
21 [f895557a] (00/21) No match
Offsetted by -664:
01 [6b8fe32f] (00/21) No match (V2 was not tested)
02 [5845670e] (00/22) No match (V2 was not tested)
03 [554d7b56] (00/22) No match (V2 was not tested)
04 [37cd4c5a] (00/22) No match (V2 was not tested)
05 [76ef4027] (00/25) No match (V2 was not tested)
06 [4a9a30b7] (00/24) No match (V2 was not tested)
07 [0b2a40e9] (00/22) No match (V2 was not tested)
08 [ad6d5233] (00/24) No match (V2 was not tested)
09 [5aa45e84] (00/21) No match (V2 was not tested)
10 [d811ad7b] (00/21) No match (V2 was not tested)
11 [79725a72] (00/21) No match (V2 was not tested)
12 [c822bde1] (00/23) No match (V2 was not tested)
13 [b860cc52] (00/21) No match (V2 was not tested)
14 [a7c7f0c1] (00/23) No match (V2 was not tested)
15 [5c780af5] (00/21) No match (V2 was not tested)
16 [a66dab7b] (00/21) No match (V2 was not tested)
17 [756b5761] (00/21) No match (V2 was not tested)
18 [8741767d] (00/22) No match (V2 was not tested)
19 [fd288193] (00/20) No match (V2 was not tested)
20 [baebb351] (00/20) No match (V2 was not tested)
21 [5c98d9e5] (00/21) No match (V2 was not tested)

Track Peak [ CRC32 ] [W/O NULL] [ LOG ]
– 100,0 [8E380885] [9F20BB5B]
01 70,9 [1AC5591C] [6A2B5C7E] CRC32
02 98,9 [22B6A2AE] [97739C9E] CRC32
03 98,9 [F6738C41] [3CB11E00] CRC32
04 98,9 [E6733A09] [0C0F1CE4] CRC32
05 98,9 [0B0C58D1] [9E8E44C1] CRC32
06 98,9 [31447217] [060F9770] CRC32
07 83,2 [D3487D83] [9B02DD56] CRC32
08 98,9 [8F6C4CBF] [54D03038] CRC32
09 98,9 [222B5D51] [58FE206B] CRC32
10 83,2 [5BA859EF] [B350B76F] CRC32
11 98,9 [311F3174] [4ECF3CB2] CRC32
12 100,0 [221D57D3] [7513E903] CRC32
13 83,2 [1CE20554] [AAF2FF59] CRC32
14 98,9 [3FF024DC] [9422BFB2] CRC32
15 98,9 [256A2940] [CD17D411] CRC32
16 98,9 [B80421FF] [A16F9A08] CRC32
17 98,9 [C2C39F77] [3F388B4D] CRC32
18 98,9 [D47D7866] [DBCF8AFA] CRC32
19 98,9 [5212D4E6] [89AEFA0F] CRC32
20 88,1 [EF151730] [43455A0A] CRC32
21 98,9 [2B328169] [9073BCC5] CRC32


The Smithereens - From Jersey It Came! The Smithereens Anthology (2004)

Tracklist CD2:

01. A Girl Like You (04:42)
02. Blues Before And After (03:15)
03. Blue Period (02:57)
04. Yesterday Girl (03:27)
05. Cut Flowers (Honeys Mix) (03:00)
06. Baby Be Good (03:20)
07. Now And Then (03:50)
08. Too Much Passion (04:35)
09. Tell Me When Did Things Go So Wrong (02:22)
10. If You Want The Sun To Shine (Instrumental) (05:50)
11. Tops Of The Pops (04:32)
12. Evening Dress (03:12)
13. Miles From Nowhere (04:18)
14. Love Is Gone (Babjak Studio Demo) (03:38)
15. Eveything I Have Is Blue (Guitar Mix) (04:21)
16. She's Got A Way (03:24)
17. Downbound Train (03:48)
18. I Believe 3:12

Exact Audio Copy V0.99 prebeta 4 from 23. January 2008

EAC extraction logfile from 6. December 2008, 9:22

Smithereens / From Jersey It Came The Smithereens Anthology (Disc 2)

Used drive : HL-DT-STDVDRRW GSA-H30L Adapter: 0 ID: 1

Read mode : Secure
Utilize accurate stream : Yes
Defeat audio cache : Yes
Make use of C2 pointers : No

Read offset correction : 102
Overread into Lead-In and Lead-Out : No
Fill up missing offset samples with silence : Yes
Delete leading and trailing silent blocks : No
Null samples used in CRC calculations : Yes
Used interface : Native Win32 interface for Win NT & 2000
Gap handling : Appended to previous track

Used output format : User Defined Encoder
Selected bitrate : 192 kBit/s
Quality : High
Add ID3 tag : No
Command line compressor : C:\Program Files\FLAC\flac.exe
Additional command line options : -V -8 -T "artist=%a" -T "title=%t" -T "album=%g" -T "date=%y" -T "tracknumber=%n" -T "genre=%m" %s


TOC of the extracted CD

Track | Start | Length | Start sector | End sector
––––––––––––––––––––––––––––-
1 | 0:00.00 | 4:40.35 | 0 | 21034
2 | 4:40.35 | 3:13.30 | 21035 | 35539
3 | 7:53.65 | 2:56.53 | 35540 | 48792
4 | 10:50.43 | 3:27.11 | 48793 | 64328
5 | 14:17.54 | 2:59.60 | 64329 | 77813
6 | 17:17.39 | 3:20.05 | 77814 | 92818
7 | 20:37.44 | 3:45.48 | 92819 | 109741
8 | 24:23.17 | 4:28.53 | 109742 | 129894
9 | 28:51.70 | 2:21.48 | 129895 | 140517
10 | 31:13.43 | 5:57.27 | 140518 | 167319
11 | 37:10.70 | 4:33.61 | 167320 | 187855
12 | 41:44.56 | 3:12.73 | 187856 | 202328
13 | 44:57.54 | 4:19.66 | 202329 | 221819
14 | 49:17.45 | 3:33.68 | 221820 | 237862
15 | 52:51.38 | 4:19.72 | 237863 | 257359
16 | 57:11.35 | 3:27.11 | 257360 | 272895
17 | 60:38.46 | 3:42.73 | 272896 | 289618
18 | 64:21.44 | 3:12.09 | 289619 | 304027


Track 1

Filename F:\Torrents\Downloads\The Smithereens - Anthology (2004) [FLAC]\CD 2 Of 2\01 - A Girl Like You.wav

Pre-gap length 0:00:02.00

Peak level 97.8 %
Track quality 100.0 %
Test CRC AA5DE15D
Copy CRC AA5DE15D
Accurately ripped (confidence 7) [9AAF882E]
Copy OK

Track 2

Filename F:\Torrents\Downloads\The Smithereens - Anthology (2004) [FLAC]\CD 2 Of 2\02 - Blues Before And After.wav

Pre-gap length 0:00:01.50

Peak level 97.7 %
Track quality 100.0 %
Test CRC 21AB20F3
Copy CRC 21AB20F3
Accurately ripped (confidence 8) [220D83C9]
Copy OK

Track 3

Filename F:\Torrents\Downloads\The Smithereens - Anthology (2004) [FLAC]\CD 2 Of 2\03 - Blue Period.wav

Pre-gap length 0:00:02.08

Peak level 97.7 %
Track quality 100.0 %
Test CRC 21109E69
Copy CRC 21109E69
Accurately ripped (confidence 8) [9730A533]
Copy OK

Track 4

Filename F:\Torrents\Downloads\The Smithereens - Anthology (2004) [FLAC]\CD 2 Of 2\04 - Yesterday Girl.wav

Pre-gap length 0:00:02.05

Peak level 97.8 %
Track quality 100.0 %
Test CRC 64FBC5BA
Copy CRC 64FBC5BA
Accurately ripped (confidence 8) [96DD3264]
Copy OK

Track 5

Filename F:\Torrents\Downloads\The Smithereens - Anthology (2004) [FLAC]\CD 2 Of 2\05 - Cut Flowers (Honeys Mix).wav

Pre-gap length 0:00:02.00

Peak level 97.7 %
Track quality 100.0 %
Test CRC 8DEE1278
Copy CRC 8DEE1278
Accurately ripped (confidence 8) [020EA4B5]
Copy OK

Track 6

Filename F:\Torrents\Downloads\The Smithereens - Anthology (2004) [FLAC]\CD 2 Of 2\06 - Baby Be Good.wav

Pre-gap length 0:00:02.32

Peak level 87.1 %
Track quality 100.0 %
Test CRC B338F9C2
Copy CRC B338F9C2
Accurately ripped (confidence 8) [8C11E9D1]
Copy OK

Track 7

Filename F:\Torrents\Downloads\The Smithereens - Anthology (2004) [FLAC]\CD 2 Of 2\07 - Now And Then.wav

Pre-gap length 0:00:02.01

Peak level 97.8 %
Track quality 100.0 %
Test CRC 6EB7E0DA
Copy CRC 6EB7E0DA
Accurately ripped (confidence 8) [7F346CCF]
Copy OK

Track 8

Filename F:\Torrents\Downloads\The Smithereens - Anthology (2004) [FLAC]\CD 2 Of 2\08 - Too Much Passion.wav

Pre-gap length 0:00:02.29

Peak level 97.7 %
Track quality 100.0 %
Test CRC 5D9BBCAB
Copy CRC 5D9BBCAB
Accurately ripped (confidence 7) [4194871D]
Copy OK

Track 9

Filename F:\Torrents\Downloads\The Smithereens - Anthology (2004) [FLAC]\CD 2 Of 2\09 - Tell Me When Did Things Go So Wrong.wav

Pre-gap length 0:00:01.65

Peak level 97.7 %
Track quality 100.0 %
Test CRC E9056D7A
Copy CRC E9056D7A
Accurately ripped (confidence 7) [D6E107C4]
Copy OK

Track 10

Filename F:\Torrents\Downloads\The Smithereens - Anthology (2004) [FLAC]\CD 2 Of 2\10 - If You Want The Sun To Shine.wav

Pre-gap length 0:00:01.66

Peak level 97.8 %
Track quality 100.0 %
Test CRC 58965286
Copy CRC 58965286
Accurately ripped (confidence 6) [A8CA7912]
Copy OK

Track 11

Filename F:\Torrents\Downloads\The Smithereens - Anthology (2004) [FLAC]\CD 2 Of 2\11 - Top Of The Pops.wav

Peak level 97.8 %
Track quality 100.0 %
Test CRC 8B5828E8
Copy CRC 8B5828E8
Accurately ripped (confidence 7) [4ECB0A6E]
Copy OK

Track 12

Filename F:\Torrents\Downloads\The Smithereens - Anthology (2004) [FLAC]\CD 2 Of 2\12 - Evening Dress.wav

Pre-gap length 0:00:02.33

Peak level 82.2 %
Track quality 100.0 %
Test CRC 80510F56
Copy CRC 80510F56
Accurately ripped (confidence 7) [BA6AF729]
Copy OK

Track 13

Filename F:\Torrents\Downloads\The Smithereens - Anthology (2004) [FLAC]\CD 2 Of 2\13 - Miles From Nowhere.wav

Pre-gap length 0:00:01.66

Peak level 98.9 %
Track quality 100.0 %
Test CRC D3A60D7A
Copy CRC D3A60D7A
Accurately ripped (confidence 7) [C6CC3319]
Copy OK

Track 14

Filename F:\Torrents\Downloads\The Smithereens - Anthology (2004) [FLAC]\CD 2 Of 2\14 - Love Is Gone (Demo).wav

Pre-gap length 0:00:02.38

Peak level 98.9 %
Track quality 100.0 %
Test CRC 45281A8B
Copy CRC 45281A8B
Accurately ripped (confidence 7) [DEAEED5B]
Copy OK

Track 15

Filename F:\Torrents\Downloads\The Smithereens - Anthology (2004) [FLAC]\CD 2 Of 2\15 - Everything I Have Is Blue (Guitar Mix).wav

Pre-gap length 0:00:01.64

Peak level 98.9 %
Track quality 100.0 %
Test CRC EE9698F5
Copy CRC EE9698F5
Accurately ripped (confidence 7) [B9640336]
Copy OK

Track 16

Filename F:\Torrents\Downloads\The Smithereens - Anthology (2004) [FLAC]\CD 2 Of 2\16 - She's Got A Way.wav

Pre-gap length 0:00:01.14

Peak level 98.8 %
Track quality 100.0 %
Test CRC B1B5100A
Copy CRC B1B5100A
Accurately ripped (confidence 7) [44156802]
Copy OK

Track 17

Filename F:\Torrents\Downloads\The Smithereens - Anthology (2004) [FLAC]\CD 2 Of 2\17 - Downbound Train.wav

Pre-gap length 0:00:01.53

Peak level 97.7 %
Track quality 100.0 %
Test CRC 9298E3D4
Copy CRC 9298E3D4
Accurately ripped (confidence 7) [74651F0F]
Copy OK

Track 18

Filename F:\Torrents\Downloads\The Smithereens - Anthology (2004) [FLAC]\CD 2 Of 2\18 - I Believe.wav

Pre-gap length 0:00:01.33

Peak level 98.8 %
Track quality 100.0 %
Test CRC 550E94BC
Copy CRC 550E94BC
Accurately ripped (confidence 7) [C9482C29]
Copy OK


All tracks accurately ripped

No errors occurred

End of status report


foobar2000 1.2.9 / Dynamic Range Meter 1.1.1
log date: 2015-11-24 22:25:35

––––––––––––––––––––––––––––––––––––––––
Analyzed: Smithereens / From Jersey It Came The Smithereens Anthology (Disc 2)
––––––––––––––––––––––––––––––––––––––––

DR Peak RMS Duration Track
––––––––––––––––––––––––––––––––––––––––
DR8 -0.19 dB -9.09 dB 4:40 01-A Girl Like You
DR9 -0.19 dB -10.00 dB 3:13 02-Blues Before And After
DR9 -0.20 dB -9.94 dB 2:57 03-Blue Period
DR8 -0.19 dB -9.15 dB 3:27 04-Yesterday Girl
DR10 -0.20 dB -11.72 dB 3:00 05-Cut Flowers (Honeys Mix)
DR8 -1.19 dB -9.60 dB 3:20 06-Baby Be Good
DR7 -0.19 dB -9.12 dB 3:46 07-Now And Then
DR9 -0.19 dB -10.20 dB 4:29 08-Too Much Passion
DR8 -0.19 dB -8.93 dB 2:22 09-Tell Me When Did Things Go So Wrong
DR8 -0.19 dB -10.53 dB 5:57 10-If You Want The Sun To Shine
DR8 -0.19 dB -9.06 dB 4:34 11-Top Of The Pops
DR8 -1.69 dB -11.54 dB 3:13 12-Evening Dress
DR8 -0.09 dB -9.63 dB 4:20 13-Miles From Nowhere
DR8 -0.09 dB -8.84 dB 3:34 14-Love Is Gone (Demo)
DR8 -0.09 dB -9.44 dB 4:20 15-Everything I Have Is Blue (Guitar Mix)
DR8 -0.10 dB -8.66 dB 3:27 16-She's Got A Way
DR8 -0.19 dB -9.90 dB 3:43 17-Downbound Train
DR7 -0.10 dB -8.23 dB 3:12 18-I Believe
––––––––––––––––––––––––––––––––––––––––

Number of tracks: 18
Official DR value: DR8

Samplerate: 44100 Hz
Channels: 2
Bits per sample: 16
Bitrate: 1002 kbps
Codec: FLAC
================================================================================



[CUETools log; Date: 24.11.2015 22:25:32; Version: 2.1.4]
[CTDB TOCID: n6jyQeudHG8a6BGGiPt4cQNmnJg-] found.
Track | CTDB Status
1 | (5/5) Accurately ripped
2 | (5/5) Accurately ripped
3 | (5/5) Accurately ripped
4 | (5/5) Accurately ripped
5 | (5/5) Accurately ripped
6 | (5/5) Accurately ripped
7 | (5/5) Accurately ripped
8 | (5/5) Accurately ripped
9 | (5/5) Accurately ripped
10 | (5/5) Accurately ripped
11 | (5/5) Accurately ripped
12 | (5/5) Accurately ripped
13 | (5/5) Accurately ripped
14 | (5/5) Accurately ripped
15 | (5/5) Accurately ripped
16 | (5/5) Accurately ripped
17 | (5/5) Accurately ripped
18 | (5/5) Accurately ripped
[AccurateRip ID: 002baa08-02499fc0-160fd512] found.
Track [ CRC | V2 ] Status
01 [9aaf882e|d8d845a0] (14+03/23) Accurately ripped
02 [220d83c9|01586c86] (14+03/21) Accurately ripped
03 [9730a533|3c54b179] (15+03/22) Accurately ripped
04 [96dd3264|c5f1970a] (14+03/23) Accurately ripped
05 [020ea4b5|b221778c] (14+03/21) Accurately ripped
06 [8c11e9d1|bdbb303c] (14+03/21) Accurately ripped
07 [7f346ccf|fcf1a91d] (13+03/20) Accurately ripped
08 [4194871d|7d3e957b] (12+03/21) Accurately ripped
09 [d6e107c4|413ccea5] (13+03/20) Accurately ripped
10 [a8ca7912|b0e8f767] (12+03/19) Accurately ripped
11 [4ecb0a6e|7e8a27a2] (13+03/20) Accurately ripped
12 [ba6af729|70ff108a] (13+03/20) Accurately ripped
13 [c6cc3319|6b78ec99] (12+03/19) Accurately ripped
14 [deaeed5b|93737dda] (13+03/20) Accurately ripped
15 [b9640336|a246e13a] (12+03/19) Accurately ripped
16 [44156802|8e8b169a] (13+03/20) Accurately ripped
17 [74651f0f|ada8e596] (12+03/19) Accurately ripped
18 [c9482c29|c7da5511] (12+03/19) Accurately ripped
Offsetted by -750:
01 [ad4ff030] (02/23) Accurately ripped
02 [768e6e11] (00/21) No match
03 [284d811e] (00/22) No match
04 [ff3253e1] (02/23) Accurately ripped
05 [3f05352d] (00/21) No match
06 [3817d2c6] (00/21) No match
07 [332a6b4b] (00/20) No match
08 [eb126c52] (02/21) Accurately ripped
09 [daad1ddb] (00/20) No match
10 [779fad2c] (00/19) No match
11 [628afac3] (00/20) No match
12 [f674a480] (00/20) No match
13 [d79beb68] (00/19) No match
14 [4f38bc65] (00/20) No match
15 [06ed18af] (00/19) No match
16 [227ec768] (00/20) No match
17 [16a8da3d] (00/19) No match
18 [ea8a74ce] (00/19) No match
Offsetted by -664:
01 [ce64bf32] (00/23) No match (V2 was not tested)
02 [75a84d90] (00/21) No match (V2 was not tested)
03 [a8251b38] (00/22) No match (V2 was not tested)
04 [93e6bcfc] (00/23) No match (V2 was not tested)
05 [d4ab5b2f] (00/21) No match (V2 was not tested)
06 [fb4ee67d] (00/21) No match (V2 was not tested)
07 [d193b7e1] (00/20) No match (V2 was not tested)
08 [a2df4eda] (00/21) No match (V2 was not tested)
09 [4853b0dc] (00/20) No match (V2 was not tested)
10 [a3a7a0d7] (00/19) No match (V2 was not tested)
11 [8393f0c5] (00/20) No match (V2 was not tested)
12 [bdf508e3] (00/20) No match (V2 was not tested)
13 [e2bfe999] (00/19) No match (V2 was not tested)
14 [17f4fc20] (00/20) No match (V2 was not tested)
15 [70bb14bf] (00/19) No match (V2 was not tested)
16 [f708a830] (00/20) No match (V2 was not tested)
17 [782b3100] (00/19) No match (V2 was not tested)
18 [3e56d993] (00/19) No match (V2 was not tested)

Track Peak [ CRC32 ] [W/O NULL] [ LOG ]
– 98,9 [0276BCD6] [8D535E12]
01 97,8 [AA5DE15D] [DC3A5B12] CRC32
02 97,7 [21AB20F3] [0A2CDF0B] CRC32
03 97,7 [21109E69] [D10550DB] CRC32
04 97,8 [64FBC5BA] [A6A1586A] CRC32
05 97,7 [8DEE1278] [0D697E13] CRC32
06 87,1 [B338F9C2] [A5C62877] CRC32
07 97,8 [6EB7E0DA] [99DC1576] CRC32
08 97,7 [5D9BBCAB] [37FD33FA] CRC32
09 97,7 [E9056D7A] [BE1BA89B] CRC32
10 97,8 [58965286] [8AC17AA1] CRC32
11 97,8 [8B5828E8] [999109A5] CRC32
12 82,2 [80510F56] [B7C3345B] CRC32
13 98,9 [D3A60D7A] [F543AE1A] CRC32
14 98,9 [45281A8B] [6D8C6536] CRC32
15 98,9 [EE9698F5] [2E97EB4E] CRC32
16 98,8 [B1B5100A] [9DF97BD6] CRC32
17 97,7 [9298E3D4] [28AA6CB3] CRC32
18 98,8 [550E94BC] [30DCCD3E] CRC32


The Smithereens - From Jersey It Came! The Smithereens Anthology (2004)

All thanks go to the original releaser

The Smithereens in my Blog

Download The Smithereens - From Jersey It Came! The Smithereens Anthology (2004):