Tags
Language
Tags

The Stone Poneys (Linda Ronstadt) - Albums Collection 1967-1968 (3CD) Japanese Remastered Reissue SHM-CD, 2016

Posted By: Designol
The Stone Poneys (Linda Ronstadt) - Albums Collection 1967-1968 (3CD) Japanese Remastered Reissue SHM-CD, 2016

The Stone Poneys (Linda Ronstadt) - Albums Collection 1967-1968 (3CD)
Japanese Mini LP, Cardboard Sleeve, Remastered Reissue SHM-CD, 2016

EAC | FLAC | Image (Cue&Log) ~ 570 Mb | Mp3 (CBR320) ~ 268 Mb | Scans included
AM Pop, Folk-Rock, Folk Pop, Psychedelic | Time: 01:28:13

Before becoming a solo act, Linda Ronstadt was the lead singer of the Stone Poneys, an L.A.-based trio with an acoustic folkish sound and strong original material. The band's focal point and greatest asset was Ronstadt's clear, powerful singing. Originally recording in a coffeehouse folk style not far removed from Peter, Paul and Mary, the group rocked up its sound slightly and scored a Top 20 hit with "Different Drum," written by Mike Nesmith of the Monkees, in 1967.

Review by Richie Unterberger, Allmusic.com

The Stone Poneys (Linda Ronstadt) - Albums Collection 1967-1968 (3CD) Japanese Remastered Reissue SHM-CD, 2016





The Stone Poneys (Linda Ronstadt) - Albums Collection 1967-1968 (3CD) Japanese Remastered Reissue SHM-CD, 2016

The Stone Poneys - The Stone Poneys (1967) Japanese SHM-CD 2016
EAC | FLAC | Image (Cue&Log) ~ 181 Mb | Mp3 (CBR320) ~ 87 Mb | Scans included
Label: Capitol Records/USM | # UICY-77828 | Time: 00:27:49

It doesn't have "Different Drum," but the first Stone Poneys album is their folkiest and best, dominated by close harmonies and strong original material by the group's guitarists, Bob Kimmel and Ken Edwards.

Review by Richie Unterberger, Allmusic.com

Tracklist:

01. Sweet Summer Blue And Gold (2:21)
02. If I Were You (1:59)
03. Just A Little Bit Of Rain (2:22)
04. Bicycle Song (1:55)
05. Orion (3:21)
06. Wild About My Lovin' (3:53)
07. Back Home (2:03)
08. Meredith (On My Mind) (2:13)
09. Train And The River (2:22)
10. All The Beautiful Things (1:59)
11. 2:10 Train (3:21)


Exact Audio Copy V1.3 from 2. September 2016

EAC extraction logfile from 16. December 2019, 15:25

The Stone Poneys / The Stone Poneys

Used drive : ATAPI iHAS124 F Adapter: 1 ID: 1

Read mode : Secure
Utilize accurate stream : Yes
Defeat audio cache : Yes
Make use of C2 pointers : No

Read offset correction : 6
Overread into Lead-In and Lead-Out : No
Fill up missing offset samples with silence : Yes
Delete leading and trailing silent blocks : No
Null samples used in CRC calculations : Yes
Used interface : Native Win32 interface for Win NT & 2000

Used output format : User Defined Encoder
Selected bitrate : 1024 kBit/s
Quality : High
Add ID3 tag : No
Command line compressor : C:\Program Files (x86)\Exact Audio Copy\Flac\flac.exe
Additional command line options : -V -6 %source% -o %dest%


TOC of the extracted CD

Track | Start | Length | Start sector | End sector
––––––––––––––––––––––––––––-
1 | 0:00.00 | 2:20.53 | 0 | 10552
2 | 2:20.53 | 1:58.74 | 10553 | 19476
3 | 4:19.52 | 2:21.74 | 19477 | 30125
4 | 6:41.51 | 1:55.02 | 30126 | 38752
5 | 8:36.53 | 3:21.37 | 38753 | 53864
6 | 11:58.15 | 3:52.39 | 53865 | 71303
7 | 15:50.54 | 2:03.23 | 71304 | 80551
8 | 17:54.02 | 2:13.06 | 80552 | 90532
9 | 20:07.08 | 2:21.69 | 90533 | 101176
10 | 22:29.02 | 1:58.50 | 101177 | 110076
11 | 24:27.52 | 3:21.12 | 110077 | 125163


Range status and errors

Selected range

Filename D:\WORKING\The Stone Poneys - The Stone Poneys.wav

Peak level 100.0 %
Extraction speed 7.0 X
Range quality 100.0 %
Test CRC 844B4130
Copy CRC 844B4130
Copy OK

No errors occurred


AccurateRip summary

Track 1 accurately ripped (confidence 10) [6BE0172A] (AR v2)
Track 2 accurately ripped (confidence 10) [6BDB0BC0] (AR v2)
Track 3 accurately ripped (confidence 10) [97BF3C9D] (AR v2)
Track 4 accurately ripped (confidence 10) [8714E43D] (AR v2)
Track 5 accurately ripped (confidence 10) [9148B73F] (AR v2)
Track 6 accurately ripped (confidence 10) [ACAB9345] (AR v2)
Track 7 accurately ripped (confidence 10) [6C529F63] (AR v2)
Track 8 accurately ripped (confidence 10) [F09EA8D0] (AR v2)
Track 9 accurately ripped (confidence 10) [B94912B8] (AR v2)
Track 10 accurately ripped (confidence 10) [A2FD402C] (AR v2)
Track 11 accurately ripped (confidence 10) [EA157230] (AR v2)

All tracks accurately ripped

End of status report

–– CUETools DB Plugin V2.1.6

[CTDB TOCID: pjfwcvlhn1a.TYxLbdF2M0rfpX8-] found
Submit result: pjfwcvlhn1a.TYxLbdF2M0rfpX8- has been confirmed
Track | CTDB Status
1 | (19/19) Accurately ripped
2 | (19/19) Accurately ripped
3 | (19/19) Accurately ripped
4 | (19/19) Accurately ripped
5 | (19/19) Accurately ripped
6 | (19/19) Accurately ripped
7 | (19/19) Accurately ripped
8 | (19/19) Accurately ripped
9 | (19/19) Accurately ripped
10 | (19/19) Accurately ripped
11 | (19/19) Accurately ripped


==== Log checksum 7DA5733CC7B9A63E58B270091744041EF5962BFC6118B5E1F64D7FF34A3F0F56 ====

[CUETools log; Date: 06.11.2020 17:13:06; Version: 2.1.7]
[CTDB TOCID: pjfwcvlhn1a.TYxLbdF2M0rfpX8-] found.
Track | CTDB Status
1 | (21/21) Accurately ripped
2 | (21/21) Accurately ripped
3 | (21/21) Accurately ripped
4 | (21/21) Accurately ripped
5 | (21/21) Accurately ripped
6 | (21/21) Accurately ripped
7 | (21/21) Accurately ripped
8 | (21/21) Accurately ripped
9 | (21/21) Accurately ripped
10 | (21/21) Accurately ripped
11 | (21/21) Accurately ripped
[AccurateRip ID: 000b29bd-0061a7b3-7806840b] found.
Track [ CRC | V2 ] Status
01 [4bd408e1|6be0172a] (00+10/10) Accurately ripped
02 [1d336a56|6bdb0bc0] (00+10/10) Accurately ripped
03 [bbe05466|97bf3c9d] (00+10/10) Accurately ripped
04 [54a1286a|8714e43d] (00+10/10) Accurately ripped
05 [0e835c64|9148b73f] (00+10/10) Accurately ripped
06 [8cb9836d|acab9345] (00+10/10) Accurately ripped
07 [937193af|6c529f63] (00+10/10) Accurately ripped
08 [aa0ea46e|f09ea8d0] (00+10/10) Accurately ripped
09 [4373ae08|b94912b8] (00+10/10) Accurately ripped
10 [3becc7bf|a2fd402c] (00+10/10) Accurately ripped
11 [eef7914c|ea157230] (00+10/10) Accurately ripped

Track Peak [ CRC32 ] [W/O NULL] [ LOG ]
– 100,0 [844B4130] [E6D22B14] CRC32
01 100,0 [F681D7DC] [3E7FFFCB]
02 100,0 [E6AD9F67] [E382D587]
03 100,0 [DCF0FE3F] [770330D7]
04 100,0 [E202E0B0] [69EEFF91]
05 100,0 [69E77311] [6667402A]
06 100,0 [D21ED089] [0623C143]
07 100,0 [F5739369] [12645043]
08 90,5 [1094245E] [1B46FC5C]
09 100,0 [AEB2E871] [2EEA66BC]
10 98,5 [6A970D9F] [89A19C59]
11 100,0 [6BF8662F] [7B7EE9EE]

foobar2000 1.5 / Dynamic Range Meter 1.1.1
log date: 2020-11-06 17:11:30

––––––––––––––––––––––––––––––––––––––––
Analyzed: The Stone Poneys / The Stone Poneys
––––––––––––––––––––––––––––––––––––––––

DR Peak RMS Duration Track
––––––––––––––––––––––––––––––––––––––––
DR11 0.00 dB -14.32 dB 2:21 01-Sweet Summer Blue And Gold
DR10 0.00 dB -13.39 dB 1:59 02-If I Were You
DR10 0.00 dB -12.09 dB 2:22 03-Just A Little Bit Of Rain
DR11 0.00 dB -14.16 dB 1:55 04-Bicycle Song
DR10 0.00 dB -12.88 dB 3:21 05-Orion
DR10 0.00 dB -12.01 dB 3:53 06-Wild About My Lovin'
DR11 0.00 dB -12.93 dB 2:03 07-Back Home
DR11 -0.86 dB -13.98 dB 2:13 08-Meredith (On My Mind)
DR10 0.00 dB -13.76 dB 2:22 09-Train And The River
DR11 -0.12 dB -14.77 dB 1:59 10-All The Beautiful Things
DR11 0.00 dB -13.71 dB 3:21 11-2:10 Train
––––––––––––––––––––––––––––––––––––––––

Number of tracks: 11
Official DR value: DR11

Samplerate: 44100 Hz
Channels: 2
Bits per sample: 16
Bitrate: 789 kbps
Codec: FLAC
================================================================================




The Stone Poneys (Linda Ronstadt) - Albums Collection 1967-1968 (3CD) Japanese Remastered Reissue SHM-CD, 2016

The Stone Poneys - Evergreen, Volume 2 (1967) Japanese SHM-CD 2016
EAC | FLAC | Image (Cue&Log) ~ 208 Mb | Mp3 (CBR320) ~ 100 Mb | Scans included
Label: Capitol Records/USM | # UICY-77829 | Time: 00:33:20

Evergreen, Vol. 2 wasn't as strong as their debut album, but it did contain their only hit, "Different Drum," as well as several other pleasant songs in a similar vein.

Review by Stephen Thomas Erlewine, Allmusic.com

Tracklist:

01. December Dream (3:36)
02. Song About The Rain (2:40)
03. Autumn Afternoon (2:39)
04. I've Got To Know (2:43)
05. Evergreen Part One (3:10)
06. Evergreen Part Two (3:37)
07. Different Drum (2:38)
08. Driftin' (2:32)
09. One For One (2:55)
10. Back On The Street Again (1:53)
11. Toys Of Time (1:53)
12. New Hard Times (3:04)


Exact Audio Copy V1.3 from 2. September 2016

EAC extraction logfile from 11. December 2019, 13:22

The Stone Poneys / Evergreen Vol. 2

Used drive : ATAPI iHAS124 F Adapter: 1 ID: 1

Read mode : Secure
Utilize accurate stream : Yes
Defeat audio cache : Yes
Make use of C2 pointers : No

Read offset correction : 6
Overread into Lead-In and Lead-Out : No
Fill up missing offset samples with silence : Yes
Delete leading and trailing silent blocks : No
Null samples used in CRC calculations : Yes
Used interface : Native Win32 interface for Win NT & 2000

Used output format : User Defined Encoder
Selected bitrate : 1024 kBit/s
Quality : High
Add ID3 tag : No
Command line compressor : C:\Program Files (x86)\Exact Audio Copy\Flac\flac.exe
Additional command line options : -V -6 %source% -o %dest%


TOC of the extracted CD

Track | Start | Length | Start sector | End sector
––––––––––––––––––––––––––––-
1 | 0:00.00 | 3:35.51 | 0 | 16175
2 | 3:35.51 | 2:40.36 | 16176 | 28211
3 | 6:16.12 | 2:38.65 | 28212 | 40126
4 | 8:55.02 | 2:42.39 | 40127 | 52315
5 | 11:37.41 | 3:09.71 | 52316 | 66561
6 | 14:47.37 | 3:37.01 | 66562 | 82837
7 | 18:24.38 | 2:38.25 | 82838 | 94712
8 | 21:02.63 | 2:32.03 | 94713 | 106115
9 | 23:34.66 | 2:55.19 | 106116 | 119259
10 | 26:30.10 | 1:52.60 | 119260 | 127719
11 | 28:22.70 | 1:53.16 | 127720 | 136210
12 | 30:16.11 | 3:03.68 | 136211 | 150003


Range status and errors

Selected range

Filename D:\WORKING\The Stone Poneys - Evergreen Vol. 2.wav

Peak level 100.0 %
Extraction speed 7.3 X
Range quality 100.0 %
Test CRC DC39A4DC
Copy CRC DC39A4DC
Copy OK

No errors occurred


AccurateRip summary

Track 1 accurately ripped (confidence 9) [4D39A696] (AR v2)
Track 2 accurately ripped (confidence 9) [8E866E55] (AR v2)
Track 3 accurately ripped (confidence 9) [241F8485] (AR v2)
Track 4 accurately ripped (confidence 9) [8D10BC42] (AR v2)
Track 5 accurately ripped (confidence 9) [97D1BD7C] (AR v2)
Track 6 accurately ripped (confidence 9) [82668DAE] (AR v2)
Track 7 accurately ripped (confidence 9) [F298E341] (AR v2)
Track 8 accurately ripped (confidence 9) [428C235B] (AR v2)
Track 9 accurately ripped (confidence 9) [D396E166] (AR v2)
Track 10 accurately ripped (confidence 9) [D5320CCD] (AR v2)
Track 11 accurately ripped (confidence 9) [EDA81C9A] (AR v2)
Track 12 accurately ripped (confidence 9) [8B9AF582] (AR v2)

All tracks accurately ripped

End of status report

–– CUETools DB Plugin V2.1.6

[CTDB TOCID: wUZc5BAae3xLTAqFLYCWMZRLnoc-] found
Submit result: wUZc5BAae3xLTAqFLYCWMZRLnoc- has been confirmed
Track | CTDB Status
1 | (22/22) Accurately ripped
2 | (22/22) Accurately ripped
3 | (22/22) Accurately ripped
4 | (22/22) Accurately ripped
5 | (22/22) Accurately ripped
6 | (22/22) Accurately ripped
7 | (22/22) Accurately ripped
8 | (22/22) Accurately ripped
9 | (22/22) Accurately ripped
10 | (22/22) Accurately ripped
11 | (22/22) Accurately ripped
12 | (22/22) Accurately ripped


==== Log checksum E5C328C69529CF37A42B9972B498BD85E86DC3BA178A010B9242CEF29B16BAC9 ====

[CUETools log; Date: 06.11.2020 17:13:25; Version: 2.1.7]
[CTDB TOCID: wUZc5BAae3xLTAqFLYCWMZRLnoc-] found.
Track | CTDB Status
1 | (24/24) Accurately ripped
2 | (24/24) Accurately ripped
3 | (24/24) Accurately ripped
4 | (24/24) Accurately ripped
5 | (24/24) Accurately ripped
6 | (24/24) Accurately ripped
7 | (24/24) Accurately ripped
8 | (24/24) Accurately ripped
9 | (24/24) Accurately ripped
10 | (24/24) Accurately ripped
11 | (24/24) Accurately ripped
12 | (24/24) Accurately ripped
[AccurateRip ID: 000f915f-008fa22f-ae07d00c] found.
Track [ CRC | V2 ] Status
01 [d0ce5cda|4d39a696] (0+9/9) Accurately ripped
02 [f298142b|8e866e55] (0+9/9) Accurately ripped
03 [020a3b49|241f8485] (0+9/9) Accurately ripped
04 [bada9863|8d10bc42] (0+9/9) Accurately ripped
05 [4695dcbb|97d1bd7c] (0+9/9) Accurately ripped
06 [7ed79379|82668dae] (0+9/9) Accurately ripped
07 [c84ab1d8|f298e341] (0+9/9) Accurately ripped
08 [70cedb47|428c235b] (0+9/9) Accurately ripped
09 [d58130d2|d396e166] (0+9/9) Accurately ripped
10 [07925747|d5320ccd] (0+9/9) Accurately ripped
11 [711895d9|eda81c9a] (0+9/9) Accurately ripped
12 [0525dcec|8b9af582] (0+9/9) Accurately ripped

Track Peak [ CRC32 ] [W/O NULL] [ LOG ]
– 100,0 [DC39A4DC] [A77EF57B] CRC32
01 100,0 [BADA62FF] [EBE475C9]
02 100,0 [3D9D4908] [B4874C76]
03 100,0 [C1A51A4E] [A8EE00CC]
04 100,0 [ADD4BE24] [F8A55C0B]
05 100,0 [BD545948] [6293ED1E]
06 100,0 [8492ACE2] [4716D7C3]
07 100,0 [86FD4451] [6371A321]
08 97,2 [A09F0745] [E69325F3]
09 100,0 [17DEBF69] [F70D028B]
10 97,1 [503A342C] [D302BDD6]
11 100,0 [3E213843] [4FFB9C5B]
12 100,0 [1126FD78] [670F9883]

foobar2000 1.5 / Dynamic Range Meter 1.1.1
log date: 2020-11-06 17:11:24

––––––––––––––––––––––––––––––––––––––––
Analyzed: The Stone Poneys / Evergreen Vol. 2
––––––––––––––––––––––––––––––––––––––––

DR Peak RMS Duration Track
––––––––––––––––––––––––––––––––––––––––
DR11 0.00 dB -12.89 dB 3:36 01-December Dream
DR9 0.00 dB -12.28 dB 2:40 02-Song About The Rain
DR11 0.00 dB -14.50 dB 2:39 03-Autumn Afternoon
DR10 0.00 dB -12.66 dB 2:43 04-I've Got To Know
DR11 0.00 dB -13.46 dB 3:10 05-Evergreen Part One
DR12 0.00 dB -15.55 dB 3:37 06-Evergreen Part Two
DR8 0.00 dB -10.56 dB 2:38 07-Different Drum
DR10 -0.25 dB -14.70 dB 2:32 08-Driftin'
DR12 0.00 dB -15.53 dB 2:55 09-One For One
DR10 -0.25 dB -13.43 dB 1:53 10-Back On The Street Again
DR12 0.00 dB -13.77 dB 1:53 11-Toys Of Time
DR10 0.00 dB -12.76 dB 3:04 12-New Hard Times
––––––––––––––––––––––––––––––––––––––––

Number of tracks: 12
Official DR value: DR10

Samplerate: 44100 Hz
Channels: 2
Bits per sample: 16
Bitrate: 773 kbps
Codec: FLAC
================================================================================




The Stone Poneys (Linda Ronstadt) - Albums Collection 1967-1968 (3CD) Japanese Remastered Reissue SHM-CD, 2016

The Stone Poneys - Linda Ronstadt, Stone Poneys and Friends, Vol. III (1968) Japanese SHM-CD 2016
EAC | FLAC | Image (Cue&Log) ~ 181 Mb | Mp3 (CBR320) ~ 81 Mb | Scans included
Label: Capitol Records/USM | # UICY-77830 | Time: 00:27:04

The Stone Poneys broke up during the recording of their final album, leaving Ronstadt to finish the work with various sessionmen (hence the billing "Stone Poneys & Friends"). It's a solid effort, though, of decent if muted Californian folk-rock, with a laid-back (but not offensively so), carefully produced feel. Certainly the material is varied, with selections from the Stone Poneys, Mike Nesmith, and Laura Nyro, and occasional intimations of the country-rock direction that Ronstadt would frequently pursue during the '70s. The inclusion of three Tim Buckley songs serves as evidence that Ronstadt was hipper than some of her detractors have made her out to be.

Review by Richie Unterberger, Allmusic.com

Tracklist:

01. Fragments: Golden Song / Merry-Go-Round / Love Is A Child (1:43)
02. By The Fruits Of Their Labors (2:07)
03. Hobo (3:06)
04. Star And A Stone (3:33)
05. Let's Get Together (3:11)
06. Up To My Neck In High Muddy Water (2:40)
07. Aren't You The One (2:51)
08. Wings (3:00)
09. Some Of Shelly's Blues (2:13)
10. Stoney End (2:40)


Exact Audio Copy V1.3 from 2. September 2016

EAC extraction logfile from 29. December 2019, 2:17

The Stone Poneys / Linda Ronstadt, Stone Poneys and Friends Vol. III

Used drive : ATAPI iHAS124 F Adapter: 1 ID: 1

Read mode : Secure
Utilize accurate stream : Yes
Defeat audio cache : Yes
Make use of C2 pointers : No

Read offset correction : 6
Overread into Lead-In and Lead-Out : No
Fill up missing offset samples with silence : Yes
Delete leading and trailing silent blocks : No
Null samples used in CRC calculations : Yes
Used interface : Native Win32 interface for Win NT & 2000

Used output format : User Defined Encoder
Selected bitrate : 1024 kBit/s
Quality : High
Add ID3 tag : No
Command line compressor : C:\Program Files (x86)\Exact Audio Copy\Flac\flac.exe
Additional command line options : -V -6 %source% -o %dest%


TOC of the extracted CD

Track | Start | Length | Start sector | End sector
––––––––––––––––––––––––––––-
1 | 0:00.00 | 1:42.53 | 0 | 7702
2 | 1:42.53 | 2:06.58 | 7703 | 17210
3 | 3:49.36 | 3:06.17 | 17211 | 31177
4 | 6:55.53 | 3:33.18 | 31178 | 47170
5 | 10:28.71 | 3:11.07 | 47171 | 61502
6 | 13:40.03 | 2:40.08 | 61503 | 73510
7 | 16:20.11 | 2:50.72 | 73511 | 86332
8 | 19:11.08 | 3:00.30 | 86333 | 99862
9 | 22:11.38 | 2:12.55 | 99863 | 109817
10 | 24:24.18 | 2:40.00 | 109818 | 121817


Range status and errors

Selected range

Filename D:\WORKING\The Stone Poneys - Linda Ronstadt, Stone Poneys and Friends Vol. III.wav

Peak level 100.0 %
Extraction speed 7.1 X
Range quality 100.0 %
Test CRC 53E90023
Copy CRC 53E90023
Copy OK

No errors occurred


AccurateRip summary

Track 1 accurately ripped (confidence 11) [4314C868] (AR v2)
Track 2 accurately ripped (confidence 11) [9AB8B199] (AR v2)
Track 3 accurately ripped (confidence 11) [AAE9232C] (AR v2)
Track 4 accurately ripped (confidence 11) [3FCE06D0] (AR v2)
Track 5 accurately ripped (confidence 11) [321E2489] (AR v2)
Track 6 accurately ripped (confidence 11) [D5D00F41] (AR v2)
Track 7 accurately ripped (confidence 11) [646F3E5F] (AR v2)
Track 8 accurately ripped (confidence 11) [DCAFA364] (AR v2)
Track 9 accurately ripped (confidence 11) [02F6CC88] (AR v2)
Track 10 accurately ripped (confidence 11) [40692F07] (AR v2)

All tracks accurately ripped

End of status report

–– CUETools DB Plugin V2.1.6

[CTDB TOCID: jr4DikxMwTN_1l.OoNssvzKZq0A-] found
Submit result: already submitted
Track | CTDB Status
1 | (23/23) Accurately ripped
2 | (23/23) Accurately ripped
3 | (23/23) Accurately ripped
4 | (23/23) Accurately ripped
5 | (23/23) Accurately ripped
6 | (23/23) Accurately ripped
7 | (23/23) Accurately ripped
8 | (23/23) Accurately ripped
9 | (23/23) Accurately ripped
10 | (23/23) Accurately ripped


==== Log checksum 00AC574DFA5E4AB438318B8F01A8FB577F80B22570D41FA73A43F2DB30BCAAC0 ====

[CUETools log; Date: 06.11.2020 17:13:34; Version: 2.1.7]
[CTDB TOCID: jr4DikxMwTN_1l.OoNssvzKZq0A-] found.
Track | CTDB Status
1 | (25/25) Accurately ripped
2 | (25/25) Accurately ripped
3 | (25/25) Accurately ripped
4 | (25/25) Accurately ripped
5 | (25/25) Accurately ripped
6 | (25/25) Accurately ripped
7 | (25/25) Accurately ripped
8 | (25/25) Accurately ripped
9 | (25/25) Accurately ripped
10 | (25/25) Accurately ripped
[AccurateRip ID: 000a02ed-005176bb-6606580a] found.
Track [ CRC | V2 ] Status
01 [eaebe8a3|4314c868] (00+12/12) Accurately ripped
02 [9030646d|9ab8b199] (00+12/12) Accurately ripped
03 [c6214242|aae9232c] (00+12/12) Accurately ripped
04 [56fac2c8|3fce06d0] (00+12/12) Accurately ripped
05 [1b750667|321e2489] (00+12/12) Accurately ripped
06 [4c075157|d5d00f41] (00+12/12) Accurately ripped
07 [3be64717|646f3e5f] (00+12/12) Accurately ripped
08 [24eeef1e|dcafa364] (00+12/12) Accurately ripped
09 [f795d307|02f6cc88] (00+12/12) Accurately ripped
10 [3ec605b6|40692f07] (00+12/12) Accurately ripped

Track Peak [ CRC32 ] [W/O NULL] [ LOG ]
– 100,0 [53E90023] [16EBDCB2] CRC32
01 47,9 [6DD7B42F] [D37A872E]
02 99,9 [E8D5AD45] [9A17E3D1]
03 100,0 [2AF8010C] [C10D9DD9]
04 99,9 [7025DEB3] [48279A2A]
05 100,0 [8DFEAE6C] [C1C11BFD]
06 100,0 [0C81D733] [7E709E5E]
07 100,0 [48EBA130] [1E932A73]
08 100,0 [2894F798] [5D9A85F3]
09 100,0 [31C59BE2] [306E9C4E]
10 99,9 [49FB8612] [16193A23]

foobar2000 1.5 / Dynamic Range Meter 1.1.1
log date: 2020-11-06 17:11:36

––––––––––––––––––––––––––––––––––––––––
Analyzed: The Stone Poneys / Linda Ronstadt, Stone Poneys and Friends Vol. III
––––––––––––––––––––––––––––––––––––––––

DR Peak RMS Duration Track
––––––––––––––––––––––––––––––––––––––––
DR11 -6.38 dB -22.04 dB 1:43 01-Fragments: Golden Song / Merry-Go-Round / Love Is A Child
DR10 -0.01 dB -12.56 dB 2:07 02-By The Fruits Of Their Labors
DR10 0.00 dB -12.15 dB 3:06 03-Hobo
DR11 0.00 dB -15.26 dB 3:33 04-Star And A Stone
DR10 0.00 dB -13.31 dB 3:11 05-Let's Get Together
DR9 0.00 dB -10.35 dB 2:40 06-Up To My Neck In High Muddy Water
DR10 0.00 dB -12.15 dB 2:51 07-Aren't You The One
DR10 0.00 dB -12.92 dB 3:00 08-Wings
DR12 0.00 dB -14.94 dB 2:13 09-Some Of Shelly's Blues
DR12 0.00 dB -15.51 dB 2:40 10-Stoney End
––––––––––––––––––––––––––––––––––––––––

Number of tracks: 10
Official DR value: DR10

Samplerate: 44100 Hz
Channels: 2
Bits per sample: 16
Bitrate: 837 kbps
Codec: FLAC
================================================================================




All thanks to original releaser - doolykim

More interesting music in My Blog