Tags
Language
Tags

The String Quartet Tribute to Tori Amos Volume 1: Precious Things (2001) & Volume 2: Pieces (2007) 2CDs

Posted By: Designol
The String Quartet Tribute to Tori Amos Volume 1: Precious Things (2001) & Volume 2: Pieces (2007) 2CDs

The String Quartet Tribute to Tori Amos Vol. 1: Precious Things (2001) & Vol. 2: Pieces (2007) 2CDs
EAC | WV | Image (Cue&Log) ~ 323/229 Mb | Mp3 (CBR320) ~ 144/116 Mb | Scans included
Label: Vitamin Records | # CD-8541/CD-9462 | Time: 00:49:43/00:37:00
Classical Crossover, Tribute, Instrumental

Celebrating the music of Tori Amos, the string quartet tribute Precious Things was an elegant and haunting reflection of an incendiary artist. Pieces follows that original release with more incredible interpretations of Tori's best-loved classics. Spurred by incredible feedback from her dedicated fans, talented musicians recorded another set of sparse, lyrical arrangements. Pieces is a meticulously-crafted album and classically-charged suite of music that every Tori Amos fan will want in their collection.

Tracklist:

Volume 1: Precious Things (2001):

01. Precious Things (4:07)
02. Caught a Lite Sneeze (4:37)
03. Cruel (2:23)
04. Silent All These Years (3:40)
05. Cornflake Girl (4:15)
06. God (3:47)
07. Pretty Good Year (3:34)
08. Flying Dutchman (5:14)
09. Girl (3:11)
10. Crucify (4:40)
11. Muhammed My Friend (2:41)
12. Past the Mission (3:33)
13. Precious Things (Remix) (4:07)

Volume 2: Pieces (2007):

01. Jackie's Strength (3:40)
02. Sweet the Sting (3:34)
03. China (3:33)
04. Cars and Guitars (3:41)
05. Spark (3:32)
06. Snow Cherries from France (3:10)
07. Me and a Gun (3:17)
08. 1000 Oceans (3:13)
09. Professional Widow (3:00)
10. A Sorta Fairytale (3:21)
11. Taxi Ride (3:04)


Exact Audio Copy V0.99 prebeta 4 from 23. January 2008

EAC extraction logfile from 26. April 2008, 15:54

The String Quartet / Tribute to Tori Amos - Precious Things

Used drive : _NEC DVD_RW ND-3550A Adapter: 1 ID: 0

Read mode : Secure
Utilize accurate stream : Yes
Defeat audio cache : Yes
Make use of C2 pointers : No

Read offset correction : 48
Overread into Lead-In and Lead-Out : No
Fill up missing offset samples with silence : Yes
Delete leading and trailing silent blocks : No
Null samples used in CRC calculations : Yes
Used interface : Installed external ASPI interface

Used output format : Monkey's Audio Lossless Encoder v3.99 DLL
Sample format : Normal Lossless Compression


TOC of the extracted CD

Track | Start | Length | Start sector | End sector
––––––––––––––––––––––––––––-
1 | 0:00.00 | 4:06.48 | 0 | 18497
2 | 4:06.48 | 4:36.25 | 18498 | 39222
3 | 8:42.73 | 2:22.20 | 39223 | 49892
4 | 11:05.18 | 3:39.43 | 49893 | 66360
5 | 14:44.61 | 4:14.03 | 66361 | 85413
6 | 18:58.64 | 3:46.51 | 85414 | 102414
7 | 22:45.40 | 3:33.55 | 102415 | 118444
8 | 26:19.20 | 5:13.16 | 118445 | 141935
9 | 31:32.36 | 3:10.11 | 141936 | 156196
10 | 34:42.47 | 4:39.73 | 156197 | 177194
11 | 39:22.45 | 2:40.26 | 177195 | 189220
12 | 42:02.71 | 3:32.40 | 189221 | 205160
13 | 45:35.36 | 4:06.66 | 205161 | 223676


Range status and errors

Selected range

Filename E:\!tracker\TORIGRAPHY\2001(09) - (Tribute) - Tribute to Tori Amos - Precious Things\The String Quartet - Tribute to Tori Amos - Precious Things.ape

Peak level 97.9 %
Range quality 100.0 %
Test CRC 6E550A71
Copy CRC 6E550A71
Copy OK

No errors occurred


AccurateRip summary

Track 1 accurately ripped (confidence 2) [4A01ED6B]
Track 2 not present in database
Track 3 accurately ripped (confidence 2) [EACD2697]
Track 4 accurately ripped (confidence 2) [08B823DE]
Track 5 accurately ripped (confidence 2) [067D4752]
Track 6 accurately ripped (confidence 2) [24158E81]
Track 7 not present in database
Track 8 not present in database
Track 9 not present in database
Track 10 not present in database
Track 11 accurately ripped (confidence 2) [6F86BDB0]
Track 12 accurately ripped (confidence 2) [7369942E]
Track 13 accurately ripped (confidence 2) [82E0138C]

8 track(s) accurately ripped
5 track(s) not present in the AccurateRip database

Some tracks could not be verified as accurate

End of status report

[CUETools log; Date: 07.02.2021 15:48:38; Version: 2.1.7]
[CTDB TOCID: peedEiVXKPZ2T1EUBUzdDFL6il8-] found.
Track | CTDB Status
1 | (14/14) Accurately ripped
2 | (14/14) Accurately ripped
3 | (14/14) Accurately ripped
4 | (14/14) Accurately ripped
5 | (14/14) Accurately ripped
6 | (14/14) Accurately ripped
7 | (14/14) Accurately ripped
8 | (14/14) Accurately ripped
9 | (14/14) Accurately ripped
10 | (14/14) Accurately ripped
11 | (14/14) Accurately ripped
12 | (14/14) Accurately ripped
13 | (14/14) Accurately ripped
[AccurateRip ID: 00180304-00efe132-bd0ba60d] found.
Track [ CRC | V2 ] Status
01 [4a01ed6b|e6a1a88f] (07+03/10) Accurately ripped
02 [bb92619c|aa3baf20] (06+03/09) Accurately ripped
03 [eacd2697|fc014f59] (07+03/10) Accurately ripped
04 [08b823de|db292ab0] (07+03/10) Accurately ripped
05 [067d4752|bbd71eda] (07+03/10) Accurately ripped
06 [24158e81|b58c6e01] (07+03/10) Accurately ripped
07 [87a85cb8|76e1480c] (06+03/09) Accurately ripped
08 [708828b0|39b3e781] (06+03/09) Accurately ripped
09 [c1a81e8b|1c06cb6e] (06+03/09) Accurately ripped
10 [ad94ba67|ebef491c] (06+03/09) Accurately ripped
11 [6f86bdb0|7d40328e] (07+03/10) Accurately ripped
12 [7369942e|77e6780a] (07+03/10) Accurately ripped
13 [82e0138c|ff88678f] (06+03/09) Accurately ripped

Track Peak [ CRC32 ] [W/O NULL] [ LOG ]
– 97,9 [6E550A71] [FEE1BCA4] CRC32
01 97,5 [6C541882] [D2255908]
02 97,9 [08D1FBEB] [E9DDEE7F]
03 94,3 [709D4D22] [8F10A0AC]
04 87,2 [D65FED85] [36A526D2]
05 97,9 [BCD3BFEB] [1D78F463]
06 97,9 [67A14D88] [67597FDF]
07 97,3 [F13AF75D] [77C60DDB]
08 97,9 [D797B118] [C6CEBE55]
09 97,9 [C6CB9FE3] [B759FA35]
10 97,9 [D1C57B5B] [D65B653C]
11 97,9 [EC885F27] [CB6DE7FC]
12 97,9 [9EF00DE3] [2C71350E]
13 94,3 [D2811F1B] [A4AD1501]

foobar2000 1.6.3 / Dynamic Range Meter 1.1.1
log date: 2021-02-07 15:45:22

––––––––––––––––––––––––––––––––––––––––
Analyzed: The String Quartet / Tribute to Tori Amos: Precious Things
––––––––––––––––––––––––––––––––––––––––

DR Peak RMS Duration Track
––––––––––––––––––––––––––––––––––––––––
DR10 -0.21 dB -12.74 dB 4:07 01-Precious Things
DR11 -0.18 dB -13.17 dB 4:36 02-Caught a Lite Sneeze
DR9 -0.51 dB -10.76 dB 2:22 03-Cruel
DR10 -1.18 dB -12.78 dB 3:40 04-Silent All These Years
DR10 -0.18 dB -11.15 dB 4:14 05-Cornflake Girl
DR10 -0.18 dB -11.31 dB 3:47 06-God
DR10 -0.23 dB -13.08 dB 3:34 07-Pretty Good Year
DR8 -0.18 dB -10.35 dB 5:13 08-Flying Dutchman
DR9 -0.18 dB -11.31 dB 3:10 09-Girl
DR9 -0.18 dB -9.76 dB 4:40 10-Crucify
DR9 -0.18 dB -10.13 dB 2:40 11-Muhammed My Friend
DR10 -0.18 dB -11.70 dB 3:33 12-Past the Mission
DR11 -0.50 dB -12.91 dB 4:07 13-Precious Things (Remix)
––––––––––––––––––––––––––––––––––––––––

Number of tracks: 13
Official DR value: DR10

Samplerate: 44100 Hz
Channels: 2
Bits per sample: 16
Bitrate: 826 kbps
Codec: WavPack
================================================================================


Exact Audio Copy V0.99 prebeta 4 from 23. January 2008

EAC extraction logfile from 17. April 2008, 22:59

The String Quartet / Pieces: Tribute to Tori Amos Volume 2

Used drive : _NEC DVD_RW ND-3550A Adapter: 1 ID: 0

Read mode : Secure
Utilize accurate stream : Yes
Defeat audio cache : Yes
Make use of C2 pointers : No

Read offset correction : 48
Overread into Lead-In and Lead-Out : No
Fill up missing offset samples with silence : Yes
Delete leading and trailing silent blocks : No
Null samples used in CRC calculations : Yes
Used interface : Installed external ASPI interface

Used output format : Monkey's Audio Lossless Encoder v3.99 DLL
Sample format : Normal Lossless Compression


TOC of the extracted CD

Track | Start | Length | Start sector | End sector
––––––––––––––––––––––––––––-
1 | 0:00.00 | 3:39.73 | 0 | 16497
2 | 3:39.73 | 3:33.61 | 16498 | 32533
3 | 7:13.59 | 3:32.43 | 32534 | 48476
4 | 10:46.27 | 3:40.28 | 48477 | 65004
5 | 14:26.55 | 3:31.53 | 65005 | 80882
6 | 17:58.33 | 3:09.28 | 80883 | 95085
7 | 21:07.61 | 3:16.02 | 95086 | 109787
8 | 24:23.63 | 3:12.19 | 109788 | 124206
9 | 27:36.07 | 2:59.45 | 124207 | 137676
10 | 30:35.52 | 3:20.09 | 137677 | 152685
11 | 33:55.61 | 3:03.63 | 152686 | 166473


Range status and errors

Selected range

Filename E:\!tracker\TORIGRAPHY\2007 - (Tribute) - Pieces - Tribute to Tori Amos Volume 2\The String Quartet - Pieces - Tribute to Tori Amos Volume 2.ape

Peak level 100.0 %
Range quality 100.0 %
Test CRC 0C8CF1DB
Copy CRC 0C8CF1DB
Copy OK

No errors occurred


AccurateRip summary

Track 1 not present in database
Track 2 not present in database
Track 3 not present in database
Track 4 not present in database
Track 5 not present in database
Track 6 not present in database
Track 7 not present in database
Track 8 not present in database
Track 9 not present in database
Track 10 not present in database
Track 11 not present in database

None of the tracks are present in the AccurateRip database

End of status report

[CUETools log; Date: 07.02.2021 17:56:26; Version: 2.1.7]
[CTDB TOCID: 4BqUW3tsuH6pRRco7x2PJWu4cSk-] disk not present in database.
[AccurateRip ID: 000fb4c3-00870cab-9908ab0b] found.
Track [ CRC | V2 ] Status
01 [5b2caaf5|26237b3b] (1+0/1) Accurately ripped
02 [bad2b8f5|abd4ac19] (1+0/1) Accurately ripped
03 [0e834f9f|26d94ecc] (1+0/1) Accurately ripped
04 [c458c0d0|e6ba1551] (1+0/1) Accurately ripped
05 [9b311480|fc5db871] (1+0/1) Accurately ripped
06 [062bef53|61ac66cd] (1+0/1) Accurately ripped
07 [bc96afc0|ef163c6b] (1+0/1) Accurately ripped
08 [b946f286|087b54e3] (1+0/1) Accurately ripped
09 [972246a7|331e4cfa] (1+0/1) Accurately ripped
10 [89b6cfdc|aa8d96d0] (1+0/1) Accurately ripped
11 [86649204|d087aba5] (1+0/1) Accurately ripped

Track Peak [ CRC32 ] [W/O NULL] [ LOG ]
– 100,0 [0C8CF1DB] [F3D95B3B] CRC32
01 100,0 [258E9875] [AE0F3C2E]
02 100,0 [857AF0A5] [5C1C2846]
03 100,0 [8F50DCA7] [085BCE89]
04 100,0 [9A75CD85] [C529630A]
05 100,0 [68D41D4B] [D734A2C2]
06 100,0 [79B75881] [3E54F75C]
07 100,0 [E5D2B725] [1AFA8888]
08 100,0 [B5CC4448] [AB9DC2D3]
09 100,0 [2B6DA2D5] [1B445A14]
10 100,0 [6BA4AD7F] [8C95D85A]
11 100,0 [7AC1A908] [E0A2D8F0]

foobar2000 1.6.3 / Dynamic Range Meter 1.1.1
log date: 2021-02-07 15:45:43

––––––––––––––––––––––––––––––––––––––––
Analyzed: The String Quartet / Tribute to Tori Amos Volume 2: Pieces
––––––––––––––––––––––––––––––––––––––––

DR Peak RMS Duration Track
––––––––––––––––––––––––––––––––––––––––
DR10 0.00 dB -11.81 dB 3:40 01-Jackie's Strength
DR11 0.00 dB -12.78 dB 3:34 02-Sweet the Sting
DR11 0.00 dB -15.10 dB 3:33 03-China
DR11 0.00 dB -13.04 dB 3:40 04-Cars and Guitars
DR10 0.00 dB -12.94 dB 3:32 05-Spark
DR11 0.00 dB -14.18 dB 3:09 06-Snow Cherries from France
DR11 0.00 dB -14.76 dB 3:16 07-Me and a Gun
DR11 0.00 dB -14.98 dB 3:12 08-1000 Oceans
DR11 0.00 dB -12.48 dB 3:00 09-Professional Widow
DR11 0.00 dB -13.46 dB 3:20 10-A Sorta Fairytale
DR11 0.00 dB -13.01 dB 3:04 11-Taxi Ride
––––––––––––––––––––––––––––––––––––––––

Number of tracks: 11
Official DR value: DR11

Samplerate: 44100 Hz
Channels: 2
Bits per sample: 16
Bitrate: 748 kbps
Codec: WavPack
================================================================================

The String Quartet Tribute to Tori Amos Volume 1: Precious Things (2001) & Volume 2: Pieces (2007) 2CDs

The String Quartet Tribute to Tori Amos Volume 1: Precious Things (2001) & Volume 2: Pieces (2007) 2CDs

The String Quartet Tribute to Tori Amos Volume 1: Precious Things (2001) & Volume 2: Pieces (2007) 2CDs

The String Quartet Tribute to Tori Amos Volume 1: Precious Things (2001) & Volume 2: Pieces (2007) 2CDs

All thanks to original releaser - caker

More interesting music in My Blog