Tags
Language
Tags

The The - The Comeback Special: Live At The Royal Albert Hall (2021)

Posted By: v3122
The The - The Comeback Special: Live At The Royal Albert Hall (2021)

The The - The Comeback Special: Live At The Royal Albert Hall (2021)
Flac(Image) + Cue & MP3 CBR 320Kbps
Absolute | ~ 793 or 263 Mb
Blu-ray: MPEG-4 AVC 1080i, 29,970 fps, 16:9, High Profile 4.1
LPCM 2.0, 48 kHz, 24-bit / DTS-HD MA 5.1, 48 kHz, 24-bit
Indie Rock

After 20 years of absence The The celebrated their comeback with a glorious UK and US Tour in 2018, topped by a sold-out performance at the Royal Albert Hall in London, the so called 'Comeback Special'. What started as an unforgettable live experience now turns into something even bigger as The The announce their new live album and make the whole comeback experience available to fans worldwide.

, allmusic
The The - The Comeback Special: Live At The Royal Albert Hall (2021):

Tracklist CD:

01 - Global Eyes (00:05:46)
02 - Sweet Bird of Truth (00:04:19)
03 - Flesh & Bones (00:03:48)
04 - Heartland (00:05:29)
05 - Beat(En) Generation (00:04:18)
06 - Armageddon Days (Are Here Again) (00:05:30)
07 - A Long Hard Lazy Apprenticeship (00:00:41)
08 - We Can't Stop What's Coming (00:04:05)
09 - Phantom Walls (00:04:33)
10 - Love Is Stronger Than Death (00:05:00)
11 - Dogs of Lust (00:03:42)
12 - Helpline Operator (00:04:26)
13 - This Is the Night (00:03:50)
14 - This Is the Day (00:04:17)
15 - Soul Catcher (00:05:24)
16 - Bugle Boy (00:03:53)
17 - Beyond Love (00:04:40)
18 - Slow Emotion Replay (00:04:09)
19 - Like a Sun Rising Thru My Garden (00:04:07)
20 - Infected (00:04:49)
21 - I've Been Waiting for Tomorrow (All of My Life) (00:06:26)
22 - True Happiness (00:04:08)
23 - Uncertain Smile (00:09:52)
24 - Lonely Planet (00:05:56)

[CUETools log; Date: 27.11.2021 6:45:08; Version: 2.1.4]
[AccurateRip ID: 005b441b-062ffcf0-6d1a8f18] disk not present in database.

Track Peak [ CRC32 ] [W/O NULL]
– 96,5 [0920CEBB] [1ED41E5B]
01 96,5 [D19FB99F] [5244FC37]
02 96,5 [B202DFF6] [47847207]
03 96,5 [0428D999] [4AEBC685]
04 96,5 [71D07AA0] [68E10EE5]
05 96,5 [6C488EA6] [32A1CF12]
06 96,5 [BED7EF92] [EC9BA0A7]
07 95,4 [4F619B33] [51D55BB2]
08 96,5 [92E48B7F] [8377A043]
09 96,5 [17F98F61] [080350BB]
10 96,5 [8C183233] [959D17D4]
11 96,5 [9FB4AE9F] [52F8040E]
12 96,5 [5F20D44F] [A13672A8]
13 96,5 [778C5C28] [9CD6AC8F]
14 96,5 [9D019144] [F8ECE02C]
15 96,5 [F266E367] [8A6E4158]
16 96,5 [FADC20E7] [23D9C18A]
17 96,5 [989FA501] [7E7E4498]
18 96,5 [32EF3C59] [8B2DA819]
19 96,5 [AFB44CD4] [97693A58]
20 96,5 [BEC33A07] [F8503B38]
21 96,5 [2C6AB488] [E24D54E9]
22 96,5 [D1396970] [0565A6D3]
23 96,5 [EB7E557A] [7E356842]
24 96,5 [08846DF8] [EA11BF2A]


Tracklist BD:

1 Global Eyes
2 Sweet Bird Of Truth
3 Flesh & Bones
4 Heartland
5 Beat(en) Generation
6 Armageddon Days (Are Here Again)
7 A Long Hard Lazy Apprenticeship
8 We Can't Stop What's Coming
9 Phantom Walls
10 Love Is Stronger Than Death
11 Dogs Of Lust
12 Helpline Operator
13 This Is The Night
14 This Is The Day
15 Soul Catcher
16 Bugle Boy
17 Beyond Love
18 Slow Emotion Replay
19 (Like A) Sun Rising Thru My Garden
20 Global Eyes
21 Infected
22 I've Been Waiting For Tomorrow (All Of My Life)
23 True Happiness
24 Uncertain Smile
25 Lonely Planet
26 End Credits

Disc Title: The The - The Comeback Special
Disc Label: The The 2021 - The Comeback Special - BD
Disc Size: 24,186,575,545 bytes
Protection: AACS
Extras: BD-Java
BDInfo: 0.7.5.5

Notes:

BDINFO HOME:
Cinema Squid (old)
http://www.cinemasquid.com/blu-ray/tools/bdinfo
UniqProject GitHub (new)
https://github.com/UniqProject/BDInfo

INCLUDES FORUMS REPORT FOR:
AVS Forum Blu-ray Audio and Video Specifications Thread
http://www.avsforum.com/avs-vb/showthread.php?t=1155731

WARNING: Report is incomplete because: Scan has not been run.

********************
PLAYLIST: 01101.MPLS
********************

<–- BEGIN FORUMS PASTE –->
                                                                                                                Total   Video                                             
Title                                                           Codec   Length  Movie Size      Disc Size       Bitrate Bitrate Main Audio Track                          Secondary Audio Track
-----                                                           ------  ------- --------------  --------------  ------- ------- ------------------                        ---------------------
01101.MPLS                                                      AVC     1:59:35 0               24,186,575,545  0.00    0.00    LPCM 2.0 2304Kbps (48kHz/24-bit)          DTS-HD Master 5.1 (48kHz/24-bit)


DISC INFO:

Disc Title:     The The - The Comeback Special
Disc Label:     The The 2021 - The Comeback Special - BD
Disc Size:      24,186,575,545 bytes
Protection:     AACS
Extras:         BD-Java
BDInfo:         0.7.5.5

PLAYLIST REPORT:

Name:                   01101.MPLS
Length:                 1:59:35.568 (h:m:s.ms)
Size:                   0 bytes
Total Bitrate:          0.00 Mbps

VIDEO:

Codec                   Bitrate             Description     
-----                   -------             -----------     
MPEG-4 AVC Video        0 kbps              1080i / 29.970 fps / 16:9 / High Profile 4.1

AUDIO:

Codec                           Language        Bitrate         Description     
-----                           --------        -------         -----------     
LPCM Audio                      English         2304 kbps       2.0 / 48 kHz /  2304 kbps / 24-bit
DTS-HD Master Audio             English         0 kbps          5.1 / 48 kHz / 24-bit (DTS Core: 5.1 / 48 kHz /  1509 kbps / 24-bit)

FILES:

Name            Time In         Length          Size            Total Bitrate   
----            -------         ------          ----            -------------   
00002.M2TS      0:00:00.000     1:59:35.067     0               0               
00003.M2TS      1:59:35.067     0:00:00.500     0               0               

CHAPTERS:

Number          Time In         Length          Avg Video Rate  Max 1-Sec Rate  Max 1-Sec Time  Max 5-Sec Rate  Max 5-Sec Time  Max 10Sec Rate  Max 10Sec Time  Avg Frame Size  Max Frame Size  Max Frame Time  
------          -------         ------          --------------  --------------  --------------  --------------  --------------  --------------  --------------  --------------  --------------  --------------  
1               0:00:00.000     0:06:40.032     0 kbps          0 kbps          00:00:00.000    0 kbps          00:00:00.000    0 kbps          00:00:00.000    0 bytes         0 bytes         00:00:00.000    
2               0:06:40.032     0:04:18.224     0 kbps          0 kbps          00:00:00.000    0 kbps          00:00:00.000    0 kbps          00:00:00.000    0 bytes         0 bytes         00:00:00.000    
3               0:10:58.257     0:03:46.526     0 kbps          0 kbps          00:00:00.000    0 kbps          00:00:00.000    0 kbps          00:00:00.000    0 bytes         0 bytes         00:00:00.000    
4               0:14:44.783     0:05:26.125     0 kbps          0 kbps          00:00:00.000    0 kbps          00:00:00.000    0 kbps          00:00:00.000    0 bytes         0 bytes         00:00:00.000    
5               0:20:10.909     0:04:04.143     0 kbps          0 kbps          00:00:00.000    0 kbps          00:00:00.000    0 kbps          00:00:00.000    0 bytes         0 bytes         00:00:00.000    
6               0:24:15.053     0:05:10.977     0 kbps          0 kbps          00:00:00.000    0 kbps          00:00:00.000    0 kbps          00:00:00.000    0 bytes         0 bytes         00:00:00.000    
7               0:29:26.030     0:00:44.911     0 kbps          0 kbps          00:00:00.000    0 kbps          00:00:00.000    0 kbps          00:00:00.000    0 bytes         0 bytes         00:00:00.000    
8               0:30:10.942     0:04:57.063     0 kbps          0 kbps          00:00:00.000    0 kbps          00:00:00.000    0 kbps          00:00:00.000    0 bytes         0 bytes         00:00:00.000    
9               0:35:08.005     0:04:30.403     0 kbps          0 kbps          00:00:00.000    0 kbps          00:00:00.000    0 kbps          00:00:00.000    0 bytes         0 bytes         00:00:00.000    
10              0:39:38.409     0:04:45.618     0 kbps          0 kbps          00:00:00.000    0 kbps          00:00:00.000    0 kbps          00:00:00.000    0 bytes         0 bytes         00:00:00.000    
11              0:44:24.028     0:03:54.000     0 kbps          0 kbps          00:00:00.000    0 kbps          00:00:00.000    0 kbps          00:00:00.000    0 bytes         0 bytes         00:00:00.000    
12              0:48:18.028     0:04:29.002     0 kbps          0 kbps          00:00:00.000    0 kbps          00:00:00.000    0 kbps          00:00:00.000    0 bytes         0 bytes         00:00:00.000    
13              0:52:47.030     0:03:37.984     0 kbps          0 kbps          00:00:00.000    0 kbps          00:00:00.000    0 kbps          00:00:00.000    0 bytes         0 bytes         00:00:00.000    
14              0:56:25.014     0:04:09.215     0 kbps          0 kbps          00:00:00.000    0 kbps          00:00:00.000    0 kbps          00:00:00.000    0 bytes         0 bytes         00:00:00.000    
15              1:00:34.230     0:05:13.780     0 kbps          0 kbps          00:00:00.000    0 kbps          00:00:00.000    0 kbps          00:00:00.000    0 bytes         0 bytes         00:00:00.000    
16              1:05:48.010     0:04:40.013     0 kbps          0 kbps          00:00:00.000    0 kbps          00:00:00.000    0 kbps          00:00:00.000    0 bytes         0 bytes         00:00:00.000    
17              1:10:28.023     0:04:36.342     0 kbps          0 kbps          00:00:00.000    0 kbps          00:00:00.000    0 kbps          00:00:00.000    0 bytes         0 bytes         00:00:00.000    
18              1:15:04.366     0:04:01.641     0 kbps          0 kbps          00:00:00.000    0 kbps          00:00:00.000    0 kbps          00:00:00.000    0 bytes         0 bytes         00:00:00.000    
19              1:19:06.007     0:04:08.014     0 kbps          0 kbps          00:00:00.000    0 kbps          00:00:00.000    0 kbps          00:00:00.000    0 bytes         0 bytes         00:00:00.000    
20              1:23:14.022     0:04:27.000     0 kbps          0 kbps          00:00:00.000    0 kbps          00:00:00.000    0 kbps          00:00:00.000    0 bytes         0 bytes         00:00:00.000    
21              1:27:41.022     0:06:59.986     0 kbps          0 kbps          00:00:00.000    0 kbps          00:00:00.000    0 kbps          00:00:00.000    0 bytes         0 bytes         00:00:00.000    
22              1:34:41.008     0:04:12.018     0 kbps          0 kbps          00:00:00.000    0 kbps          00:00:00.000    0 kbps          00:00:00.000    0 bytes         0 bytes         00:00:00.000    
23              1:38:53.027     0:08:52.999     0 kbps          0 kbps          00:00:00.000    0 kbps          00:00:00.000    0 kbps          00:00:00.000    0 bytes         0 bytes         00:00:00.000    
24              1:47:46.026     0:08:04.984     0 kbps          0 kbps          00:00:00.000    0 kbps          00:00:00.000    0 kbps          00:00:00.000    0 bytes         0 bytes         00:00:00.000    
25              1:55:51.010     0:03:44.557     0 kbps          0 kbps          00:00:00.000    0 kbps          00:00:00.000    0 kbps          00:00:00.000    0 bytes         0 bytes         00:00:00.000    

STREAM DIAGNOSTICS:

File            PID             Type            Codec           Language                Seconds                 Bitrate                 Bytes           Packets         
----            ---             ----            -----           --------                --------------          --------------          -------------   -----           
00002.M2TS      4113 (0x1011)   0x1B            AVC                                     0.701                   0                       0               0               
00002.M2TS      4352 (0x1100)   0x80            LPCM            eng (English)           0.701                   0                       0               0               
00002.M2TS      4353 (0x1101)   0x86            DTS-HD MA       eng (English)           0.701                   0                       0               0               
00003.M2TS      4113 (0x1011)   0x1B            AVC                                     0                       0                       0               0               

<–– END FORUMS PASTE ––>

QUICK SUMMARY:

Disc Title: The The - The Comeback Special
Disc Label: The The 2021 - The Comeback Special - BD
Disc Size: 24,186,575,545 bytes
Protection: AACS
Playlist: 01101.MPLS
Size: 0 bytes
Length: 1:59:35.568
Total Bitrate: 0.00 Mbps
Video: MPEG-4 AVC Video / 0 kbps / 1080i / 29.970 fps / 16:9 / High Profile 4.1
Audio: English / LPCM Audio / 2.0 / 48 kHz / 2304 kbps / 24-bit
Audio: English / DTS-HD Master Audio / 5.1 / 48 kHz / 24-bit (DTS Core: 5.1 / 48 kHz / 1509 kbps / 24-bit)


********************
PLAYLIST: 00002.MPLS
********************

<–- BEGIN FORUMS PASTE –->
                                                                                                                Total   Video                                             
Title                                                           Codec   Length  Movie Size      Disc Size       Bitrate Bitrate Main Audio Track                          Secondary Audio Track
-----                                                           ------  ------- --------------  --------------  ------- ------- ------------------                        ---------------------
00002.MPLS                                                      AVC     1:59:35 0               24,186,575,545  0.00    0.00    LPCM 2.0 2304Kbps (48kHz/24-bit)          DTS-HD Master 5.1 (48kHz/24-bit)


DISC INFO:

Disc Title:     The The - The Comeback Special
Disc Label:     The The 2021 - The Comeback Special - BD
Disc Size:      24,186,575,545 bytes
Protection:     AACS
Extras:         BD-Java
BDInfo:         0.7.5.5

PLAYLIST REPORT:

Name:                   00002.MPLS
Length:                 1:59:35.067 (h:m:s.ms)
Size:                   0 bytes
Total Bitrate:          0.00 Mbps

VIDEO:

Codec                   Bitrate             Description     
-----                   -------             -----------     
MPEG-4 AVC Video        0 kbps              1080i / 29.970 fps / 16:9 / High Profile 4.1

AUDIO:

Codec                           Language        Bitrate         Description     
-----                           --------        -------         -----------     
LPCM Audio                      English         2304 kbps       2.0 / 48 kHz /  2304 kbps / 24-bit
DTS-HD Master Audio             English         0 kbps          5.1 / 48 kHz / 24-bit (DTS Core: 5.1 / 48 kHz /  1509 kbps / 24-bit)

FILES:

Name            Time In         Length          Size            Total Bitrate   
----            -------         ------          ----            -------------   
00002.M2TS      0:00:00.000     1:59:35.067     0               0               

CHAPTERS:

Number          Time In         Length          Avg Video Rate  Max 1-Sec Rate  Max 1-Sec Time  Max 5-Sec Rate  Max 5-Sec Time  Max 10Sec Rate  Max 10Sec Time  Avg Frame Size  Max Frame Size  Max Frame Time  
------          -------         ------          --------------  --------------  --------------  --------------  --------------  --------------  --------------  --------------  --------------  --------------  
1               0:00:00.000     1:59:35.067     0 kbps          0 kbps          00:00:00.000    0 kbps          00:00:00.000    0 kbps          00:00:00.000    0 bytes         0 bytes         00:00:00.000    

STREAM DIAGNOSTICS:

File            PID             Type            Codec           Language                Seconds                 Bitrate                 Bytes           Packets         
----            ---             ----            -----           --------                --------------          --------------          -------------   -----           
00002.M2TS      4113 (0x1011)   0x1B            AVC                                     0.701                   0                       0               0               
00002.M2TS      4352 (0x1100)   0x80            LPCM            eng (English)           0.701                   0                       0               0               
00002.M2TS      4353 (0x1101)   0x86            DTS-HD MA       eng (English)           0.701                   0                       0               0               

<–– END FORUMS PASTE ––>

QUICK SUMMARY:

Disc Title: The The - The Comeback Special
Disc Label: The The 2021 - The Comeback Special - BD
Disc Size: 24,186,575,545 bytes
Protection: AACS
Playlist: 00002.MPLS
Size: 0 bytes
Length: 1:59:35.067
Total Bitrate: 0.00 Mbps
Video: MPEG-4 AVC Video / 0 kbps / 1080i / 29.970 fps / 16:9 / High Profile 4.1
Audio: English / LPCM Audio / 2.0 / 48 kHz / 2304 kbps / 24-bit
Audio: English / DTS-HD Master Audio / 5.1 / 48 kHz / 24-bit (DTS Core: 5.1 / 48 kHz / 1509 kbps / 24-bit)


********************
PLAYLIST: 00001.MPLS
********************

<–- BEGIN FORUMS PASTE –->
                                                                                                                Total   Video                                             
Title                                        			  		  		  	 			   			     		 			  	 			   		  	   		 	 	  		      	 			   		   	  		 	 	  			   			                    Codec   Length  Movie Size      Disc Size       Bitrate Bitrate Main Audio Track                          Secondary Audio Track
-----                                                           ------  ------- --------------  --------------  ------- ------- ------------------                        ---------------------
00001.MPLS                                                      AVC     0:00:45 0               24,186,575,545  0.00    0.00    LPCM 2.0 1536Kbps (48kHz/16-bit)          


DISC INFO:

Disc Title:     The The - The Comeback Special
Disc Label:     The The 2021 - The Comeback Special - BD
Disc Size:      24,186,575,545 bytes
Protection:     AACS
Extras:         BD-Java
BDInfo:         0.7.5.5

PLAYLIST REPORT:

Name:                   00001.MPLS
Length:                 0:00:45.445 (h:m:s.ms)
Size:                   0 bytes
Total Bitrate:          0.00 Mbps

VIDEO:

Codec                   Bitrate             Description     
-----                   -------             -----------     
MPEG-4 AVC Video        0 kbps              1080i / 29.970 fps / 16:9 / High Profile 4.1

AUDIO:

Codec                           Language        Bitrate         Description     
-----                           --------        -------         -----------     
LPCM Audio                      Undetermined    1536 kbps       2.0 / 48 kHz /  1536 kbps / 16-bit

FILES:

Name            Time In         Length          Size            Total Bitrate   
----            -------         ------          ----            -------------   
00001.M2TS      0:00:00.000     0:00:45.445     0               0               

CHAPTERS:

Number          Time In         Length          Avg Video Rate  Max 1-Sec Rate  Max 1-Sec Time  Max 5-Sec Rate  Max 5-Sec Time  Max 10Sec Rate  Max 10Sec Time  Avg Frame Size  Max Frame Size  Max Frame Time  
------          -------         ------          --------------  --------------  --------------  --------------  --------------  --------------  --------------  --------------  --------------  --------------  
1               0:00:00.000     0:00:45.445     0 kbps          0 kbps          00:00:00.000    0 kbps          00:00:00.000    0 kbps          00:00:00.000    0 bytes         0 bytes         00:00:00.000    

STREAM DIAGNOSTICS:

File            PID             Type            Codec           Language                Seconds                 Bitrate                 Bytes           Packets         
----            ---             ----            -----           --------                --------------          --------------          -------------   -----           
00001.M2TS      4113 (0x1011)   0x1B            AVC                                     0.567                   0                       0               0               
00001.M2TS      4352 (0x1100)   0x80            LPCM            und (Undetermined)      0.567                   0                       0               0               

<–– END FORUMS PASTE ––>

QUICK SUMMARY:

Disc Title: The The - The Comeback Special
Disc Label: The The 2021 - The Comeback Special - BD
Disc Size: 24,186,575,545 bytes
Protection: AACS
Playlist: 00001.MPLS
Size: 0 bytes
Length: 0:00:45.445
Total Bitrate: 0.00 Mbps
Video: MPEG-4 AVC Video / 0 kbps / 1080i / 29.970 fps / 16:9 / High Profile 4.1
Audio: Undetermined / LPCM Audio / 2.0 / 48 kHz / 1536 kbps / 16-bit



The The - The Comeback Special: Live At The Royal Albert Hall (2021)

The The - The Comeback Special: Live At The Royal Albert Hall (2021)

The The - The Comeback Special: Live At The Royal Albert Hall (2021)

The The - The Comeback Special: Live At The Royal Albert Hall (2021)

The The - The Comeback Special: Live At The Royal Albert Hall (2021)

All thanks go to the original releaser

The The in my Blog

Download The The - The Comeback Special: Live At The Royal Albert Hall (2021):