Subcategories
Tags
Language
Tags

The Comsat Angels- Waiting for a Miracle; Sleep No More; Fiction; Chasing Shadows [4 Deluxe Edition Albums] (2015)

Posted By: JET 1
The Comsat Angels- Waiting for a Miracle; Sleep No More; Fiction; Chasing Shadows [4 Deluxe Edition Albums] (2015)

The Comsat Angels- Waiting for a Miracle; Sleep No More; Fiction; Chasing Shadows [4 Deluxe Edition Albums] (2015)
EAC Rip | FLAC (Tracks) +CUE, LOG | 2.58 GB | Scans
Genre: Alternative, Pop Rock, New Wave, Post-Punk | Label: Edsel Records | Catalog Number: EDSK 7086-7091

The Comsat Angels were an English post-punk band from Sheffield, England, initially active from 1978 to 1995. Their music has been described as "abstract pop songs with sparse instrumentation, many of which were bleak and filled with some form of heartache". They have been credited as being an influence on later post-punk revival bands such as Blacklist, Bell Hollow, Editors and Interpol. The Comsat Angels toured heavily in the UK and western Europe, especially in the Netherlands; the band's two concerts in August 1982 in Iceland had a strong influence on the music scene in Reykjavík. They also toured the United States twice. Their music has been extensively reissued and recompiled since 1995 by various record labels.

=============================================================================================



The Comsat Angels- Waiting for a Miracle; Sleep No More; Fiction; Chasing Shadows [4 Deluxe Edition Albums] (2015)

The Comsat Angels- Waiting for a Miracle (1980) [2015 Bonus Tracks]
EAC Rip | FLAC (Tracks) +CUE, LOG | 732 MB | Scans
Genre: Alternative, Pop Rock, New Wave, Post-Punk | Label: Edsel Records | Catalog Number: EDSK 7086

Waiting for a Miracle is a sorcerous first album, at least once it sinks in, after short-to-long phases of puzzlement, bemusement, and fascination. Its songs of romantic ruin, paranoia, and doubt are spare, inelastic, and ceaselessly on edge. Even when the songs are at their bounciest and most alluring, they have an insular and alien quality. The instruments are played with intrepid simplicity, but when they're heard as one, they sound peculiar and complex – the results aren't unlike slow, stern spins on Pere Ubu's "The Modern Dance" and "Street Waves" – albeit with insidious lyrical hooks that are innocuous to the eye and startling to the ear, like "This is total war, girl," "Sometimes I feel out of control," and "I can't relax 'cause I haven't done a thing and I can't do a thing 'cause I can't relax." Acting as something like a minimalist garage band with one foot in the past and the other in the future, with Andy Peake's memory-triggering organ bleats offset by structural abnormalities and twists, the band does come across as a little timid from time to time, unsure of how far to take its uniqueness, but it's only another factor that fosters the album's insistent nerviness. "Total War," a razor-sharp examination of a relationship snapping under the pressure of buried mutual contempt, threatens to stop as often as it appears to be on the verge of taking off, carries a circular arrangement, and provides no release. It was the album's "other" single, nearly as conventions-stripped as PiL's more venomous "Flowers of Romance" (released the following year). "Independence Day," on the other hand, gave the band its greatest commercial success, wrapping all the band's strengths in one concise package, from the brilliantly paced shifts between the sparse and the dense to the balance between the direct and the indirect. Apart from the barren, ominous kiss-off that is "Postcard," each of the remaining songs sound like singles, even if they never had a chance at putting the band on Top of the Pops. (This is a band that called itself "doomsteady" with a hint of seriousness, after all.) While there are crucial differences that reveal themselves after deep listening, this album can be appreciated by anyone touched by other maverick post-punk albums released the same year, such as Joy Division's Closer, Associates' The Affectionate Punch, Magazine's The Correct Use of Soap, the Sound's Jeopardy, and Simple Minds' Empires and Dance.

Exact Audio Copy V1.0 beta 6 from 9. April 2015

EAC extraction logfile from 2. March 2016, 12:34

The Comsat Angels / Waiting For A Miracle (Disc 1)

Used drive : LITE-ON DVD+RW SOHW-802S Adapter: 1 ID: 1

Read mode : Secure
Utilize accurate stream : Yes
Defeat audio cache : Yes
Make use of C2 pointers : No

Read offset correction : 12
Overread into Lead-In and Lead-Out : No
Fill up missing offset samples with silence : Yes
Delete leading and trailing silent blocks : No
Null samples used in CRC calculations : Yes
Used interface : Native Win32 interface for Win NT & 2000
Gap handling : Appended to previous track

Used output format : User Defined Encoder
Selected bitrate : 1024 kBit/s
Quality : High
Add ID3 tag : No
Command line compressor : C:\Program Files\FLAC\flac.exe
Additional command line options : -8 -V -T "ARTIST=%artist%" -T "TITLE=%title%" -T "ALBUM=%albumtitle%" -T "DATE=%year%" -T "TRACKNUMBER=%tracknr%" -T "GENRE=%genre%" -T "PERFORMER=%albuminterpret%" -T "COMPOSER=%composer%" %haslyrics%–tag-from-file=LYRICS="%lyricsfile%"%haslyrics% -T "ALBUMARTIST=%albumartist%" -T "DISCNUMBER=%cdnumber%" -T "TOTALDISCS=%totalcds%" -T "TOTALTRACKS=%numtracks%" -T "COMMENT=%comment%" %source% -o %dest%


TOC of the extracted CD

Track | Start | Length | Start sector | End sector
––––––––––––––––––––––––––––-
1 | 0:00.00 | 4:00.56 | 0 | 18055
2 | 4:00.56 | 2:57.68 | 18056 | 31398
3 | 6:58.49 | 3:46.01 | 31399 | 48349
4 | 10:44.50 | 2:56.66 | 48350 | 61615
5 | 13:41.41 | 3:47.30 | 61616 | 78670
6 | 17:28.71 | 3:40.52 | 78671 | 95222
7 | 21:09.48 | 4:23.34 | 95223 | 114981
8 | 25:33.07 | 3:44.59 | 114982 | 131840
9 | 29:17.66 | 3:49.37 | 131841 | 149052
10 | 33:07.28 | 4:08.42 | 149053 | 167694
11 | 37:15.70 | 3:33.50 | 167695 | 183719
12 | 40:49.45 | 4:11.41 | 183720 | 202585
13 | 45:01.11 | 4:14.70 | 202586 | 221705
14 | 49:16.06 | 4:07.47 | 221706 | 240277


Track 1

Filename C:\Users\kqwiet\Desktop\Music Conversions\01 - Missing In Action.wav

Pre-gap length 0:00:02.00

Peak level 94.4 %
Extraction speed 2.4 X
Track quality 100.0 %
Test CRC 1ED778E5
Copy CRC 1ED778E5
Accurately ripped (confidence 6) [3ADC3F57] (AR v2)
Copy OK

Track 2

Filename C:\Users\kqwiet\Desktop\Music Conversions\02 - Baby.wav

Pre-gap length 0:00:00.54

Peak level 94.4 %
Extraction speed 2.3 X
Track quality 100.0 %
Test CRC 2A8B1047
Copy CRC 2A8B1047
Accurately ripped (confidence 6) [18B88012] (AR v2)
Copy OK

Track 3

Filename C:\Users\kqwiet\Desktop\Music Conversions\03 - Independence Day.wav

Pre-gap length 0:00:00.62

Peak level 94.4 %
Extraction speed 2.4 X
Track quality 100.0 %
Test CRC 699A530B
Copy CRC 699A530B
Accurately ripped (confidence 6) [874AB01B] (AR v2)
Copy OK

Track 4

Filename C:\Users\kqwiet\Desktop\Music Conversions\04 - Waiting For A Miracle.wav

Pre-gap length 0:00:00.89

Peak level 94.4 %
Extraction speed 2.6 X
Track quality 100.0 %
Test CRC 66F802FA
Copy CRC 66F802FA
Accurately ripped (confidence 6) [23317563] (AR v2)
Copy OK

Track 5

Filename C:\Users\kqwiet\Desktop\Music Conversions\05 - Total War.wav

Pre-gap length 0:00:00.92

Peak level 94.4 %
Extraction speed 2.8 X
Track quality 99.9 %
Test CRC 8BB985A6
Copy CRC 8BB985A6
Accurately ripped (confidence 6) [21BE46FC] (AR v2)
Copy OK

Track 6

Filename C:\Users\kqwiet\Desktop\Music Conversions\06 - On The Beach.wav

Pre-gap length 0:00:00.73

Peak level 94.4 %
Extraction speed 3.0 X
Track quality 100.0 %
Test CRC A5F0E233
Copy CRC A5F0E233
Accurately ripped (confidence 6) [20744303] (AR v2)
Copy OK

Track 7

Filename C:\Users\kqwiet\Desktop\Music Conversions\07 - Monkey Pilot.wav

Pre-gap length 0:00:00.92

Peak level 94.4 %
Extraction speed 3.1 X
Track quality 100.0 %
Test CRC A855841D
Copy CRC A855841D
Accurately ripped (confidence 6) [3AB61C2D] (AR v2)
Copy OK

Track 8

Filename C:\Users\kqwiet\Desktop\Music Conversions\08 - Real Story.wav

Pre-gap length 0:00:00.44

Peak level 94.4 %
Extraction speed 3.2 X
Track quality 99.9 %
Test CRC 3B30E186
Copy CRC 3B30E186
Accurately ripped (confidence 6) [C963F715] (AR v2)
Copy OK

Track 9

Filename C:\Users\kqwiet\Desktop\Music Conversions\09 - Map Of The World.wav

Pre-gap length 0:00:00.10

Peak level 94.4 %
Extraction speed 3.3 X
Track quality 100.0 %
Test CRC BB2D2010
Copy CRC BB2D2010
Accurately ripped (confidence 6) [6FFFBE78] (AR v2)
Copy OK

Track 10

Filename C:\Users\kqwiet\Desktop\Music Conversions\10 - Postcard.wav

Pre-gap length 0:00:00.57

Peak level 91.2 %
Extraction speed 3.5 X
Track quality 100.0 %
Test CRC EEF5068E
Copy CRC EEF5068E
Accurately ripped (confidence 6) [2398DC73] (AR v2)
Copy OK

Track 11

Filename C:\Users\kqwiet\Desktop\Music Conversions\11 - Home Is The Range (Bonus).wav

Pre-gap length 0:00:00.64

Peak level 94.4 %
Extraction speed 3.7 X
Track quality 100.0 %
Test CRC 4E65E693
Copy CRC 4E65E693
Accurately ripped (confidence 6) [48754533] (AR v2)
Copy OK

Track 12

Filename C:\Users\kqwiet\Desktop\Music Conversions\12 - We Were (Bonus).wav

Pre-gap length 0:00:00.68

Peak level 94.4 %
Extraction speed 3.8 X
Track quality 100.0 %
Test CRC 8BA4A44C
Copy CRC 8BA4A44C
Accurately ripped (confidence 6) [7DD3051B] (AR v2)
Copy OK

Track 13

Filename C:\Users\kqwiet\Desktop\Music Conversions\13 - Ju Ju Money (Bonus).wav

Pre-gap length 0:00:00.36

Peak level 94.4 %
Extraction speed 3.9 X
Track quality 99.9 %
Test CRC 6F1A9E4F
Copy CRC 6F1A9E4F
Accurately ripped (confidence 6) [20AA37D7] (AR v2)
Copy OK

Track 14

Filename C:\Users\kqwiet\Desktop\Music Conversions\14 - Work (Bonus).wav

Pre-gap length 0:00:00.09

Peak level 94.4 %
Extraction speed 3.4 X
Track quality 100.0 %
Test CRC 324A209B
Copy CRC 324A209B
Accurately ripped (confidence 6) [069F917B] (AR v2)
Copy OK


All tracks accurately ripped

No errors occurred

End of status report

–– CUETools DB Plugin V2.1.6

[CTDB TOCID: oxPHqWpWSeJCFgZKcLf1sehs_7o-] database access error: The remote name could not be resolved: 'db.cuetools.net'


==== Log checksum 566349FF9DAE1FE8E35AA4166E5596C95D5F07C494E6BC54C794005CF1F1ED3E ====

Exact Audio Copy V1.0 beta 6 from 9. April 2015

EAC extraction logfile from 3. March 2016, 9:31

The Comsat Angels / Waiting For A Miracle (Disc 2)

Used drive : LITE-ON DVD+RW SOHW-802S Adapter: 1 ID: 1

Read mode : Secure
Utilize accurate stream : Yes
Defeat audio cache : Yes
Make use of C2 pointers : No

Read offset correction : 12
Overread into Lead-In and Lead-Out : No
Fill up missing offset samples with silence : Yes
Delete leading and trailing silent blocks : No
Null samples used in CRC calculations : Yes
Used interface : Native Win32 interface for Win NT & 2000
Gap handling : Appended to previous track

Used output format : User Defined Encoder
Selected bitrate : 1024 kBit/s
Quality : High
Add ID3 tag : No
Command line compressor : C:\Program Files\FLAC\flac.exe
Additional command line options : -8 -V -T "ARTIST=%artist%" -T "TITLE=%title%" -T "ALBUM=%albumtitle%" -T "DATE=%year%" -T "TRACKNUMBER=%tracknr%" -T "GENRE=%genre%" -T "PERFORMER=%albuminterpret%" -T "COMPOSER=%composer%" %haslyrics%–tag-from-file=LYRICS="%lyricsfile%"%haslyrics% -T "ALBUMARTIST=%albumartist%" -T "DISCNUMBER=%cdnumber%" -T "TOTALDISCS=%totalcds%" -T "TOTALTRACKS=%numtracks%" -T "COMMENT=%comment%" %source% -o %dest%


TOC of the extracted CD

Track | Start | Length | Start sector | End sector
––––––––––––––––––––––––––––-
1 | 0:00.00 | 2:42.01 | 0 | 12150
2 | 2:42.01 | 2:56.39 | 12151 | 25389
3 | 5:38.40 | 2:29.62 | 25390 | 36626
4 | 8:08.27 | 3:05.46 | 36627 | 50547
5 | 11:13.73 | 3:44.30 | 50548 | 67377
6 | 14:58.28 | 3:40.65 | 67378 | 83942
7 | 18:39.18 | 3:56.15 | 83943 | 101657
8 | 22:35.33 | 3:59.14 | 101658 | 119596
9 | 26:34.47 | 3:24.31 | 119597 | 134927
10 | 29:59.03 | 2:57.07 | 134928 | 148209
11 | 32:56.10 | 4:19.00 | 148210 | 167634
12 | 37:15.10 | 3:44.66 | 167635 | 184500
13 | 41:00.01 | 4:23.57 | 184501 | 204282
14 | 45:23.58 | 2:55.24 | 204283 | 217431
15 | 48:19.07 | 3:42.16 | 217432 | 234097


Track 1

Filename C:\Users\kqwiet\Desktop\Music Conversions\01 - Red Planet (Bonus).wav

Pre-gap length 0:00:02.00

Peak level 79.4 %
Extraction speed 2.1 X
Track quality 99.9 %
Test CRC 8EE69942
Copy CRC 8EE69942
Accurately ripped (confidence 6) [15C29762] (AR v2)
Copy OK

Track 2

Filename C:\Users\kqwiet\Desktop\Music Conversions\02 - I Get Excited (Bonus).wav

Pre-gap length 0:00:01.54

Peak level 88.9 %
Extraction speed 2.3 X
Track quality 100.0 %
Test CRC 50EDAB4B
Copy CRC 50EDAB4B
Accurately ripped (confidence 6) [640593F8] (AR v2)
Copy OK

Track 3

Filename C:\Users\kqwiet\Desktop\Music Conversions\03 - Specimen No. 2 (Bonus).wav

Pre-gap length 0:00:00.86

Peak level 91.2 %
Extraction speed 2.3 X
Track quality 100.0 %
Test CRC 091F0884
Copy CRC 091F0884
Accurately ripped (confidence 6) [8B3AB3EE] (AR v2)
Copy OK

Track 4

Filename C:\Users\kqwiet\Desktop\Music Conversions\04 - Independence Day (Demo).wav

Pre-gap length 0:00:01.81

Peak level 94.4 %
Extraction speed 2.6 X
Track quality 99.9 %
Test CRC CCF932A7
Copy CRC CCF932A7
Accurately ripped (confidence 6) [7C055A73] (AR v2)
Copy OK

Track 5

Filename C:\Users\kqwiet\Desktop\Music Conversions\05 - Real Story (Demo).wav

Pre-gap length 0:00:02.02

Peak level 94.4 %
Extraction speed 2.7 X
Track quality 99.9 %
Test CRC 521B6FE5
Copy CRC 521B6FE5
Accurately ripped (confidence 6) [19AB3ED4] (AR v2)
Copy OK

Track 6

Filename C:\Users\kqwiet\Desktop\Music Conversions\06 - Target Talk (Demo).wav

Pre-gap length 0:00:01.57

Peak level 85.5 %
Extraction speed 2.8 X
Track quality 100.0 %
Test CRC C60B6F03
Copy CRC C60B6F03
Accurately ripped (confidence 6) [088BB39C] (AR v2)
Copy OK

Track 7

Filename C:\Users\kqwiet\Desktop\Music Conversions\07 - Living In (Demo).wav

Pre-gap length 0:00:01.78

Peak level 85.1 %
Extraction speed 2.9 X
Track quality 100.0 %
Test CRC 355A92E0
Copy CRC 355A92E0
Accurately ripped (confidence 6) [66BCB328] (AR v2)
Copy OK

Track 8

Filename C:\Users\kqwiet\Desktop\Music Conversions\08 - Total War (John Peel Session).wav

Pre-gap length 0:00:01.96

Peak level 94.4 %
Extraction speed 3.1 X
Track quality 100.0 %
Test CRC 82C8D997
Copy CRC 82C8D997
Accurately ripped (confidence 6) [E4BFA091] (AR v2)
Copy OK

Track 9

Filename C:\Users\kqwiet\Desktop\Music Conversions\09 - Independence Day (John Peel Session).wav

Pre-gap length 0:00:02.08

Peak level 94.4 %
Extraction speed 3.2 X
Track quality 100.0 %
Test CRC B996CCD3
Copy CRC B996CCD3
Accurately ripped (confidence 6) [FDC8056F] (AR v2)
Copy OK

Track 10

Filename C:\Users\kqwiet\Desktop\Music Conversions\10 - Baby (John Peel Session).wav

Pre-gap length 0:00:01.68

Peak level 94.4 %
Extraction speed 3.3 X
Track quality 100.0 %
Test CRC 51CF84C2
Copy CRC 51CF84C2
Accurately ripped (confidence 6) [77049567] (AR v2)
Copy OK

Track 11

Filename C:\Users\kqwiet\Desktop\Music Conversions\11 - Ju Ju Money (John Peel Session).wav

Pre-gap length 0:00:02.25

Peak level 94.4 %
Extraction speed 3.5 X
Track quality 100.0 %
Test CRC 85396844
Copy CRC 85396844
Accurately ripped (confidence 6) [CA588BBA] (AR v2)
Copy OK

Track 12

Filename C:\Users\kqwiet\Desktop\Music Conversions\12 - Real Story (John Peel Session).wav

Pre-gap length 0:00:01.94

Peak level 94.4 %
Extraction speed 3.6 X
Track quality 100.0 %
Test CRC B5C366AA
Copy CRC B5C366AA
Accurately ripped (confidence 6) [0FBBE656] (AR v2)
Copy OK

Track 13

Filename C:\Users\kqwiet\Desktop\Music Conversions\13 - Monkey Pilot (John Peel Session).wav

Pre-gap length 0:00:01.62

Peak level 94.4 %
Extraction speed 3.8 X
Track quality 100.0 %
Test CRC 3D7845BA
Copy CRC 3D7845BA
Accurately ripped (confidence 6) [7644A859] (AR v2)
Copy OK

Track 14

Filename C:\Users\kqwiet\Desktop\Music Conversions\14 - Waiting For A Miracle (John Peel Session).wav

Pre-gap length 0:00:02.00

Peak level 94.4 %
Extraction speed 3.8 X
Track quality 100.0 %
Test CRC B974BADB
Copy CRC B974BADB
Accurately ripped (confidence 6) [53C23E50] (AR v2)
Copy OK

Track 15

Filename C:\Users\kqwiet\Desktop\Music Conversions\15 - Home Is The Range (John Peel Session).wav

Pre-gap length 0:00:01.45

Peak level 94.4 %
Extraction speed 3.3 X
Track quality 100.0 %
Test CRC 365361D2
Copy CRC 365361D2
Accurately ripped (confidence 6) [22F98895] (AR v2)
Copy OK


All tracks accurately ripped

No errors occurred

End of status report

–– CUETools DB Plugin V2.1.6

[CTDB TOCID: M5hCcZuWrYnjVyHNksnMciYa2.U-] database access error: The remote name could not be resolved: 'db.cuetools.net'


==== Log checksum C8AC0A58950CE99CCE4A4C9A10BD78DC7DBE6C6E5E7DA72938106B9ABFA4814C ====

Tracks ::::
1980 - Waiting for a Miracle
CD1
1-1 Missing In Action 4:01
1-2 Baby 2:58
1-3 Independence Day 3:46
1-4 Waiting For A Miracle 2:57
1-5 Total War 3:47
1-6 On The Beach 3:41
1-7 Monkey Pilot 4:24
1-8 Real Story 3:44
1-9 Map Of The World 3:50
1-10 Postcard 4:08
Bonus Tracks
1-11 Home Is The Range 3:34
1-12 We Were 4:12
1-13 Ju Ju Money 4:15
1-14 Work 4:07
CD2
2-1 Red Planet 2:49
2-2 I Get Excited 3:03
2-3 Specimen No.2 2:29
2-4 Independence Day (Demo) 3:04
2-5 Real Story (Demo) 3:42
2-6 Target Talk (Demo) 3:40
2-7 Living In (Demo) 3:57
John Peel Sessions
2-8 Total War 4:00
2-9 Independence Day 3:25
2-10 Baby 2:58
2-11 JuJu Money 4:20
2-12 Real Story 3:47
2-13 Monkey Pilot 4:24
2-14 Waiting For A Miracle 2:55
2-15 Home Is The Range 3:44

=============================================================================================

The Comsat Angels- Waiting for a Miracle; Sleep No More; Fiction; Chasing Shadows [4 Deluxe Edition Albums] (2015)

The Comsat Angels- Sleep No More (1981) [2015 Deluxe]
EAC Rip | FLAC (Tracks) +CUE, LOG | 712 MB | Scans
Genre: Alternative, Pop Rock, New Wave, Post-Punk | Label: Edsel Records | Catalog Number: EDSK 7087

Sleep No More, the second Comsat Angels album, is a confident follow-up that contains a tighter and more cutting version of Waiting for a Miracle's alluring insularity. Going by "Eye Dance," the torrid opener, one might expect a more aggressive affair, but that's not necessarily the case. The album turns out to be neither as pop nor as fast, with a majority of the material playing out at a dirge-like pace. There were no singles. Like Magazine's Secondhand Daylight, or the Sound's All Fall Down, Sleep No More can be a trudge and quite bleak, perhaps even impenetrable at times. However, as with Waiting for a Miracle, the dynamics of the album become increasingly perceptible with each play, and the slowest, austerest passages begin to seem as intense as the few that slam and punch. With the exception of "Restless," a mood piece of harmonic flickers, light whispers, and low throb, the album is driven by Mik Glaisher's booming drums, which were recorded in a manner – near a lift shaft, to be precise, with microphones placed on six surrounding floors – that makes the album wholly enveloping and, occasionally, imposing. (Imagine Joy Division's "I Remember Nothing" and Talking Heads' "The Overload" on top of one another, doubled in heaviness.) The subject matter: not a big surprise, given the title of the album, with further adventures in malfunctioning-relationship purgatory, along with topical matter like "Dark Parade" (about the volatile hostage situation at the U.S. Embassy in Tehran), a song that hardly repeals the level of turmoil expressed elsewhere. Regardless of the continued strength in the songwriting, it's impossible not to get caught up in the album's sounds. The title track overwhelms with its swirling layers of guitar and keyboards over an unchanging drum pattern. The storming "Goat of the West" wastes no time in whipping itself into a controlled frenzy of churning guitars, punishing drums, and bewildered vocals ("Did you see what happened?/It's so funny that I'm not laughing"). On "At Sea," the rhythm section does the riffing, with Glaisher's thumping drums suctioned to Kevin Bacon's cavernous bass. While it's not as easy to enjoy as Waiting for a Miracle – for a lot of listeners, it's that kind of album that requires some mental preparation – Sleep No More is certainly more powerful, and it's also a greater achievement. Here, the Comsat Angels became one of the era's most exceptional bands.

Exact Audio Copy V1.0 beta 6 from 9. April 2015

EAC extraction logfile from 3. March 2016, 11:42

The Comsat Angels / Sleep No More (Disc 1)

Used drive : LITE-ON DVD+RW SOHW-802S Adapter: 1 ID: 1

Read mode : Secure
Utilize accurate stream : Yes
Defeat audio cache : Yes
Make use of C2 pointers : No

Read offset correction : 12
Overread into Lead-In and Lead-Out : No
Fill up missing offset samples with silence : Yes
Delete leading and trailing silent blocks : No
Null samples used in CRC calculations : Yes
Used interface : Native Win32 interface for Win NT & 2000
Gap handling : Appended to previous track

Used output format : User Defined Encoder
Selected bitrate : 1024 kBit/s
Quality : High
Add ID3 tag : No
Command line compressor : C:\Program Files\FLAC\flac.exe
Additional command line options : -8 -V -T "ARTIST=%artist%" -T "TITLE=%title%" -T "ALBUM=%albumtitle%" -T "DATE=%year%" -T "TRACKNUMBER=%tracknr%" -T "GENRE=%genre%" -T "PERFORMER=%albuminterpret%" -T "COMPOSER=%composer%" %haslyrics%–tag-from-file=LYRICS="%lyricsfile%"%haslyrics% -T "ALBUMARTIST=%albumartist%" -T "DISCNUMBER=%cdnumber%" -T "TOTALDISCS=%totalcds%" -T "TOTALTRACKS=%numtracks%" -T "COMMENT=%comment%" %source% -o %dest%


TOC of the extracted CD

Track | Start | Length | Start sector | End sector
––––––––––––––––––––––––––––-
1 | 0:00.00 | 3:41.26 | 0 | 16600
2 | 3:41.26 | 2:51.28 | 16601 | 29453
3 | 6:32.54 | 3:49.02 | 29454 | 46630
4 | 10:21.56 | 3:27.15 | 46631 | 62170
5 | 13:48.71 | 5:07.70 | 62171 | 85265
6 | 18:56.66 | 3:52.27 | 85266 | 102692
7 | 22:49.18 | 3:14.04 | 102693 | 117246
8 | 26:03.22 | 3:22.62 | 117247 | 132458
9 | 29:26.09 | 4:24.29 | 132459 | 152287
10 | 33:50.38 | 4:10.24 | 152288 | 171061
11 | 38:00.62 | 4:03.48 | 171062 | 189334
12 | 42:04.35 | 4:40.10 | 189335 | 210344
13 | 46:44.45 | 4:24.49 | 210345 | 230193


Track 1

Filename C:\Users\kqwiet\Desktop\Music Conversions\01 - The Eye Dance.wav

Pre-gap length 0:00:02.00

Peak level 100.0 %
Extraction speed 2.3 X
Track quality 100.0 %
Test CRC 9C45ABA9
Copy CRC 9C45ABA9
Accurately ripped (confidence 5) [5B55DFCC] (AR v2)
Copy OK

Track 2

Filename C:\Users\kqwiet\Desktop\Music Conversions\02 - Sleep No More.wav

Pre-gap length 0:00:00.93

Peak level 90.7 %
Extraction speed 2.3 X
Track quality 100.0 %
Test CRC 754A6450
Copy CRC 754A6450
Accurately ripped (confidence 5) [0466FE61] (AR v2)
Copy OK

Track 3

Filename C:\Users\kqwiet\Desktop\Music Conversions\03 - Be Brave.wav

Pre-gap length 0:00:00.44

Peak level 94.4 %
Extraction speed 2.4 X
Track quality 100.0 %
Test CRC D47D4C8B
Copy CRC D47D4C8B
Accurately ripped (confidence 5) [CED3F304] (AR v2)
Copy OK

Track 4

Filename C:\Users\kqwiet\Desktop\Music Conversions\04 - Gone.wav

Pre-gap length 0:00:01.50

Peak level 94.4 %
Extraction speed 2.6 X
Track quality 100.0 %
Test CRC 4AAC3247
Copy CRC 4AAC3247
Accurately ripped (confidence 5) [3B75B2E1] (AR v2)
Copy OK

Track 5

Filename C:\Users\kqwiet\Desktop\Music Conversions\05 - Dark Parade.wav

Pre-gap length 0:00:01.33

Peak level 100.0 %
Extraction speed 2.7 X
Track quality 100.0 %
Test CRC 1293CF22
Copy CRC 1293CF22
Accurately ripped (confidence 5) [2253977E] (AR v2)
Copy OK

Track 6

Filename C:\Users\kqwiet\Desktop\Music Conversions\06 - Diagram.wav

Pre-gap length 0:00:00.33

Peak level 99.9 %
Extraction speed 3.0 X
Track quality 100.0 %
Test CRC 1EFF15E9
Copy CRC 1EFF15E9
Accurately ripped (confidence 5) [D0D79CB0] (AR v2)
Copy OK

Track 7

Filename C:\Users\kqwiet\Desktop\Music Conversions\07 - Restless.wav

Pre-gap length 0:00:01.16

Peak level 91.8 %
Extraction speed 3.0 X
Track quality 100.0 %
Test CRC BB407720
Copy CRC BB407720
Accurately ripped (confidence 5) [935FDD63] (AR v2)
Copy OK

Track 8

Filename C:\Users\kqwiet\Desktop\Music Conversions\08 - Goat Of The West.wav

Pre-gap length 0:00:01.21

Peak level 100.0 %
Extraction speed 3.3 X
Track quality 99.9 %
Test CRC 30FC359E
Copy CRC 30FC359E
Accurately ripped (confidence 5) [7A05E2D4] (AR v2)
Copy OK

Track 9

Filename C:\Users\kqwiet\Desktop\Music Conversions\09 - Light Years.wav

Pre-gap length 0:00:01.04

Peak level 94.4 %
Extraction speed 3.4 X
Track quality 100.0 %
Test CRC C8E66D52
Copy CRC C8E66D52
Accurately ripped (confidence 5) [5E94C4AF] (AR v2)
Copy OK

Track 10

Filename C:\Users\kqwiet\Desktop\Music Conversions\10 - Our Secret.wav

Pre-gap length 0:00:01.06

Peak level 94.4 %
Extraction speed 3.6 X
Track quality 99.9 %
Test CRC 16A36AAD
Copy CRC 16A36AAD
Accurately ripped (confidence 5) [7FF5A67E] (AR v2)
Copy OK

Track 11

Filename C:\Users\kqwiet\Desktop\Music Conversions\11 - Eye Of The Lens (Bonus).wav

Pre-gap length 0:00:02.12

Peak level 91.2 %
Extraction speed 3.7 X
Track quality 100.0 %
Test CRC A2653F51
Copy CRC A2653F51
Accurately ripped (confidence 5) [26EDD140] (AR v2)
Copy OK

Track 12

Filename C:\Users\kqwiet\Desktop\Music Conversions\12 - Another World (Bonus).wav

Pre-gap length 0:00:01.22

Peak level 94.4 %
Extraction speed 3.9 X
Track quality 100.0 %
Test CRC 19A231D8
Copy CRC 19A231D8
Accurately ripped (confidence 5) [5F6CB6FA] (AR v2)
Copy OK

Track 13

Filename C:\Users\kqwiet\Desktop\Music Conversions\13 - At Sea (Bonus).wav

Pre-gap length 0:00:01.18

Peak level 94.4 %
Extraction speed 3.3 X
Track quality 100.0 %
Test CRC B1FB577F
Copy CRC B1FB577F
Accurately ripped (confidence 5) [44D0CCA3] (AR v2)
Copy OK


All tracks accurately ripped

No errors occurred

End of status report

–– CUETools DB Plugin V2.1.6

[CTDB TOCID: OCg9Bg9Yma_7puuRGY1Ai8FJ3Rs-] database access error: The remote name could not be resolved: 'db.cuetools.net'


==== Log checksum 2C853B287E614F782BB4A3EE75B5B9D50FD194D776244C548EE7B16AE4C9E523 ====

Exact Audio Copy V1.0 beta 6 from 9. April 2015

EAC extraction logfile from 3. March 2016, 13:26

The Comsat Angels / Sleep No More (Disc 2)

Used drive : LITE-ON DVD+RW SOHW-802S Adapter: 1 ID: 1

Read mode : Secure
Utilize accurate stream : Yes
Defeat audio cache : Yes
Make use of C2 pointers : No

Read offset correction : 12
Overread into Lead-In and Lead-Out : No
Fill up missing offset samples with silence : Yes
Delete leading and trailing silent blocks : No
Null samples used in CRC calculations : Yes
Used interface : Native Win32 interface for Win NT & 2000
Gap handling : Appended to previous track

Used output format : User Defined Encoder
Selected bitrate : 1024 kBit/s
Quality : High
Add ID3 tag : No
Command line compressor : C:\Program Files\FLAC\flac.exe
Additional command line options : -8 -V -T "ARTIST=%artist%" -T "TITLE=%title%" -T "ALBUM=%albumtitle%" -T "DATE=%year%" -T "TRACKNUMBER=%tracknr%" -T "GENRE=%genre%" -T "PERFORMER=%albuminterpret%" -T "COMPOSER=%composer%" %haslyrics%–tag-from-file=LYRICS="%lyricsfile%"%haslyrics% -T "ALBUMARTIST=%albumartist%" -T "DISCNUMBER=%cdnumber%" -T "TOTALDISCS=%totalcds%" -T "TOTALTRACKS=%numtracks%" -T "COMMENT=%comment%" %source% -o %dest%


TOC of the extracted CD

Track | Start | Length | Start sector | End sector
––––––––––––––––––––––––––––-
1 | 0:00.00 | 3:48.26 | 0 | 17125
2 | 3:48.26 | 5:01.52 | 17126 | 39752
3 | 8:50.03 | 4:10.30 | 39753 | 58532
4 | 13:00.33 | 3:51.59 | 58533 | 75916
5 | 16:52.17 | 3:13.41 | 75917 | 90432
6 | 20:05.58 | 3:54.18 | 90433 | 108000
7 | 24:00.01 | 4:09.30 | 108001 | 126705
8 | 28:09.31 | 3:57.73 | 126706 | 144553
9 | 32:07.29 | 5:10.27 | 144554 | 167830
10 | 37:17.56 | 3:24.01 | 167831 | 183131
11 | 40:41.57 | 4:53.52 | 183132 | 205158
12 | 45:35.34 | 3:31.60 | 205159 | 221043
13 | 49:07.19 | 3:59.49 | 221044 | 239017


Track 1

Filename C:\Users\kqwiet\Desktop\Music Conversions\01 - Mass (Bonus).wav

Pre-gap length 0:00:02.00

Peak level 94.4 %
Extraction speed 2.3 X
Track quality 100.0 %
Test CRC FEFD8627
Copy CRC FEFD8627
Track not present in AccurateRip database
Copy OK

Track 2

Filename C:\Users\kqwiet\Desktop\Music Conversions\02 - Dark Parade 1 (Demo).wav

Pre-gap length 0:00:02.24

Peak level 100.0 %
Extraction speed 2.4 X
Track quality 100.0 %
Test CRC 20E7351C
Copy CRC 20E7351C
Track not present in AccurateRip database
Copy OK

Track 3

Filename C:\Users\kqwiet\Desktop\Music Conversions\03 - Goat Of The West (Demo).wav

Pre-gap length 0:00:01.40

Peak level 90.1 %
Extraction speed 2.6 X
Track quality 100.0 %
Test CRC A4333015
Copy CRC A4333015
Track not present in AccurateRip database
Copy OK

Track 4

Filename C:\Users\kqwiet\Desktop\Music Conversions\04 - Be Brave (Demo).wav

Pre-gap length 0:00:01.64

Peak level 91.2 %
Extraction speed 2.8 X
Track quality 100.0 %
Test CRC DE782B39
Copy CRC DE782B39
Track not present in AccurateRip database
Copy OK

Track 5

Filename C:\Users\kqwiet\Desktop\Music Conversions\05 - Gone (Alt. EP Version).wav

Pre-gap length 0:00:02.33

Peak level 94.4 %
Extraction speed 3.0 X
Track quality 99.9 %
Test CRC A0F8D03C
Copy CRC A0F8D03C
Track not present in AccurateRip database
Copy OK

Track 6

Filename C:\Users\kqwiet\Desktop\Music Conversions\06 - Be Brave (John Peel Session).wav

Pre-gap length 0:00:01.65

Peak level 94.4 %
Extraction speed 3.0 X
Track quality 100.0 %
Test CRC 20CA7AA4
Copy CRC 20CA7AA4
Track not present in AccurateRip database
Copy OK

Track 7

Filename C:\Users\kqwiet\Desktop\Music Conversions\07 - At Sea (John Peel Session).wav

Pre-gap length 0:00:01.70

Peak level 94.4 %
Extraction speed 3.1 X
Track quality 100.0 %
Test CRC 64D2A240
Copy CRC 64D2A240
Track not present in AccurateRip database
Copy OK

Track 8

Filename C:\Users\kqwiet\Desktop\Music Conversions\08 - Eye Of The Lens (John Peel Session).wav

Pre-gap length 0:00:01.52

Peak level 94.4 %
Extraction speed 3.3 X
Track quality 100.0 %
Test CRC D3D51FAD
Copy CRC D3D51FAD
Track not present in AccurateRip database
Copy OK

Track 9

Filename C:\Users\kqwiet\Desktop\Music Conversions\09 - Dark Parade (John Peel Session).wav

Pre-gap length 0:00:01.30

Peak level 94.4 %
Extraction speed 3.5 X
Track quality 100.0 %
Test CRC 44DAE298
Copy CRC 44DAE298
Track not present in AccurateRip database
Copy OK

Track 10

Filename C:\Users\kqwiet\Desktop\Music Conversions\10 - Gone (Richard Skinner Show).wav

Pre-gap length 0:00:01.54

Peak level 94.4 %
Extraction speed 3.6 X
Track quality 100.0 %
Test CRC EC785B13
Copy CRC EC785B13
Track not present in AccurateRip database
Copy OK

Track 11

Filename C:\Users\kqwiet\Desktop\Music Conversions\11 - Total War (Richard Skinner Show).wav

Pre-gap length 0:00:01.72

Peak level 94.4 %
Extraction speed 3.7 X
Track quality 100.0 %
Test CRC A233B4BF
Copy CRC A233B4BF
Track not present in AccurateRip database
Copy OK

Track 12

Filename C:\Users\kqwiet\Desktop\Music Conversions\12 - Eye Dance (Richard Skinner Show).wav

Pre-gap length 0:00:02.06

Peak level 94.4 %
Extraction speed 4.1 X
Track quality 99.9 %
Test CRC ED56ADAE
Copy CRC ED56ADAE
Track not present in AccurateRip database
Copy OK

Track 13

Filename C:\Users\kqwiet\Desktop\Music Conversions\13 - Be Brave (Richard Skinner Show).wav

Pre-gap length 0:00:01.66

Peak level 94.4 %
Extraction speed 3.3 X
Track quality 100.0 %
Test CRC 31451CDC
Copy CRC 31451CDC
Track not present in AccurateRip database
Copy OK


None of the tracks are present in the AccurateRip database

No errors occurred

End of status report

–– CUETools DB Plugin V2.1.6

[CTDB TOCID: hQCsgL8a2NzC04lunfvzbwkJpnU-] database access error: The remote name could not be resolved: 'db.cuetools.net'


==== Log checksum 59019D28C0B9A799AA59EF522E1098957E3C2643A45184C1C1B90A485F5A03C8 ====

Tracks ::::
1981 - Sleep No More
CD1
1-1 The Eye Dance 3:42
1-2 Sleep No More 2:51
1-3 Be Brave 3:49
1-4 Gone 3:27
1-5 Dark Parade 5:08
1-6 Diagram 3:53
1-7 Restless 3:14
1-8 Goat Of The West 3:23
1-9 Light Years 4:24
1-10 Our Secret 4:10
Bonus Tracks
1-11 Eye Of The Lens 4:04
1-12 Another World 4:40
1-13 At Sea 4:26

CD2
2-1 Mass 3:47
2-2 Dark Parade 1 (Demo) 5:01
2-3 Goat Of The West (Demo) 4:08
2-4 Be Brave (Demo) 3:50
2-5 Gone (Alt. EP Version) 3:14
John Peel Session
2-6 Be Brave 3:54
2-7 At Sea 4:10
2-8 Eye Of The Lens 4:00
2-9 Dark Parade 5:10
Richard Skinner Show
2-10 Gone 3:25
2-11 Total War 4:57
2-12 Eye Dance 3:31
2-13 Be Brave 4:01
=============================================================================================

The Comsat Angels- Waiting for a Miracle; Sleep No More; Fiction; Chasing Shadows [4 Deluxe Edition Albums] (2015)

The Comsat Angels- Fiction (1982) [2015 Deluxe Edition]
EAC Rip | FLAC (Tracks) +CUE, LOG | 621 MB | Scans
Genre: Alternative, Pop Rock, New Wave, Post-Punk | Label: Edsel Records | Catalog Number: EDSK 7088

Fiction's lightness in relation to Sleep No More does not come as much of a surprise. Perhaps only a song-by-song cover of Nico's Marble Index would've topped Sleep No More in terms of bleakness, so it didn't really require a conscious effort on the part of the Comsat Angels to use some brighter tones and leave a little room to breathe on their third album. In fact, Fiction begins with a song that's as much an affirmation in "After the Rain," a fragile, resilient opener that applies the band's long-established sense of economy with the kind of sprightful mallet work that could've been learned from Japan's Tin Drum. (Another aspect that indicates the band might've been listening to Tin Drum is evident in the rubbery, slithering quality in some of Kevin Bacon's basslines.) The abstract propellant bounce in "Not a Word," "Zinger," "Birdman," and the especially stripped-down "More" – which is powered almost entirely by Mik Glaisher's short-step marching beat – recalls the poppier moments of Waiting for a Miracle without retracing them. "Now I Know," "Pictures," and "What Else?!" are bracing extensions of the irreparable-relationship songs on Waiting for a Miracle and Sleep No More, using slightly different shadings and containing line after line of Stephen Fellows' quote-worthy lyrics. On "Pictures," "I was tired of explaining why you were still around" is expressed with exhausted frustration instead of malicious hostility, while on "What Else!?," he's undoubtedly bewildered: "I know you have some ambitious plans/The big bad world did not agree/You feel caught in your circumstances/Don't take it out on me." So, although there are some reprieves from the suffocating possibilities of the band's prior releases, Fiction does not amount to a significant departure. It doesn't approach the greatness of the Comsats' first two albums, but it certainly deserves to be filed alongside them. This closes out a trilogy spread across three years that either matches or exceeds similar runs by any of the band's contemporaries.

Exact Audio Copy V1.0 beta 6 from 9. April 2015

EAC extraction logfile from 2. March 2016, 9:03

The Comsat Angels / Fiction (Disc 1)

Used drive : LITE-ON DVD+RW SOHW-802S Adapter: 1 ID: 1

Read mode : Secure
Utilize accurate stream : Yes
Defeat audio cache : Yes
Make use of C2 pointers : No

Read offset correction : 12
Overread into Lead-In and Lead-Out : No
Fill up missing offset samples with silence : Yes
Delete leading and trailing silent blocks : No
Null samples used in CRC calculations : Yes
Used interface : Native Win32 interface for Win NT & 2000
Gap handling : Appended to previous track

Used output format : User Defined Encoder
Selected bitrate : 1024 kBit/s
Quality : High
Add ID3 tag : No
Command line compressor : C:\Program Files\FLAC\flac.exe
Additional command line options : -8 -V -T "ARTIST=%artist%" -T "TITLE=%title%" -T "ALBUM=%albumtitle%" -T "DATE=%year%" -T "TRACKNUMBER=%tracknr%" -T "GENRE=%genre%" -T "PERFORMER=%albuminterpret%" -T "COMPOSER=%composer%" %haslyrics%–tag-from-file=LYRICS="%lyricsfile%"%haslyrics% -T "ALBUMARTIST=%albumartist%" -T "DISCNUMBER=%cdnumber%" -T "TOTALDISCS=%totalcds%" -T "TOTALTRACKS=%numtracks%" -T "COMMENT=%comment%" %source% -o %dest%


TOC of the extracted CD

Track | Start | Length | Start sector | End sector
––––––––––––––––––––––––––––-
1 | 0:00.00 | 3:57.53 | 0 | 17827
2 | 3:57.53 | 3:29.23 | 17828 | 33525
3 | 7:27.01 | 3:58.56 | 33526 | 51431
4 | 11:25.57 | 3:44.00 | 51432 | 68231
5 | 15:09.57 | 3:28.07 | 68232 | 83838
6 | 18:37.64 | 3:33.74 | 83839 | 99887
7 | 22:11.63 | 4:26.58 | 99888 | 119895
8 | 26:38.46 | 5:01.26 | 119896 | 142496
9 | 31:39.72 | 4:47.10 | 142497 | 164031
10 | 36:27.07 | 4:30.04 | 164032 | 184285


Track 1

Filename C:\Users\kqwiet\Desktop\Music Conversions\01 - After The Rain.wav

Pre-gap length 0:00:02.00

Peak level 94.4 %
Extraction speed 2.4 X
Track quality 99.9 %
Test CRC E195E766
Copy CRC E195E766
Accurately ripped (confidence 6) [5D9D4679] (AR v2)
Copy OK

Track 2

Filename C:\Users\kqwiet\Desktop\Music Conversions\02 - Zinger.wav

Pre-gap length 0:00:00.26

Peak level 94.4 %
Extraction speed 2.4 X
Track quality 100.0 %
Test CRC 58324CC8
Copy CRC 58324CC8
Accurately ripped (confidence 6) [43D6E413] (AR v2)
Copy OK

Track 3

Filename C:\Users\kqwiet\Desktop\Music Conversions\03 - Now I Know.wav

Pre-gap length 0:00:01.22

Peak level 94.4 %
Extraction speed 2.5 X
Track quality 100.0 %
Test CRC B4E4EAB7
Copy CRC B4E4EAB7
Accurately ripped (confidence 6) [621B63C5] (AR v2)
Copy OK

Track 4

Filename C:\Users\kqwiet\Desktop\Music Conversions\04 - Not A Word.wav

Pre-gap length 0:00:00.84

Peak level 94.4 %
Extraction speed 2.6 X
Track quality 100.0 %
Test CRC DCE625B0
Copy CRC DCE625B0
Accurately ripped (confidence 6) [F37A1740] (AR v2)
Copy OK

Track 5

Filename C:\Users\kqwiet\Desktop\Music Conversions\05 - Ju Ju Money.wav

Pre-gap length 0:00:01.24

Peak level 94.4 %
Extraction speed 2.8 X
Track quality 100.0 %
Test CRC 4E028ADE
Copy CRC 4E028ADE
Accurately ripped (confidence 6) [5ED8EE77] (AR v2)
Copy OK

Track 6

Filename C:\Users\kqwiet\Desktop\Music Conversions\06 - More.wav

Pre-gap length 0:00:01.24

Peak level 94.4 %
Extraction speed 2.9 X
Track quality 100.0 %
Test CRC DCEA928E
Copy CRC DCEA928E
Accurately ripped (confidence 6) [528578EA] (AR v2)
Copy OK

Track 7

Filename C:\Users\kqwiet\Desktop\Music Conversions\07 - Pictures.wav

Pre-gap length 0:00:01.36

Peak level 94.4 %
Extraction speed 3.1 X
Track quality 100.0 %
Test CRC BE1C7D1C
Copy CRC BE1C7D1C
Accurately ripped (confidence 6) [065602F4] (AR v2)
Copy OK

Track 8

Filename C:\Users\kqwiet\Desktop\Music Conversions\08 - Birdman.wav

Pre-gap length 0:00:01.26

Peak level 94.4 %
Extraction speed 3.3 X
Track quality 100.0 %
Test CRC 245D531F
Copy CRC 245D531F
Accurately ripped (confidence 6) [491AA014] (AR v2)
Copy OK

Track 9

Filename C:\Users\kqwiet\Desktop\Music Conversions\09 - Don't Look Now.wav

Pre-gap length 0:00:01.30

Peak level 94.4 %
Extraction speed 3.5 X
Track quality 99.9 %
Test CRC A15E2479
Copy CRC A15E2479
Accurately ripped (confidence 6) [62186303] (AR v2)
Copy OK

Track 10

Filename C:\Users\kqwiet\Desktop\Music Conversions\10 - What Else!.wav

Pre-gap length 0:00:01.21

Peak level 91.2 %
Extraction speed 3.1 X
Track quality 100.0 %
Test CRC 1808EB0C
Copy CRC 1808EB0C
Accurately ripped (confidence 6) [594FDFBA] (AR v2)
Copy OK


All tracks accurately ripped

No errors occurred

End of status report

–– CUETools DB Plugin V2.1.6

[CTDB TOCID: VndZWpIjxm94CMJUZRpvlZEbvIU-] database access error: The remote name could not be resolved: 'db.cuetools.net'


==== Log checksum 627510D9A2B38129B6972EECFBEE0BCEFF4077D6C423E5F05426607674B7D28E ====

Exact Audio Copy V1.0 beta 6 from 9. April 2015

EAC extraction logfile from 2. March 2016, 9:43

The Comsat Angels / Fiction (Disc 2)

Used drive : LITE-ON DVD+RW SOHW-802S Adapter: 1 ID: 1

Read mode : Secure
Utilize accurate stream : Yes
Defeat audio cache : Yes
Make use of C2 pointers : No

Read offset correction : 12
Overread into Lead-In and Lead-Out : No
Fill up missing offset samples with silence : Yes
Delete leading and trailing silent blocks : No
Null samples used in CRC calculations : Yes
Used interface : Native Win32 interface for Win NT & 2000
Gap handling : Appended to previous track

Used output format : User Defined Encoder
Selected bitrate : 1024 kBit/s
Quality : High
Add ID3 tag : No
Command line compressor : C:\Program Files\FLAC\flac.exe
Additional command line options : -8 -V -T "ARTIST=%artist%" -T "TITLE=%title%" -T "ALBUM=%albumtitle%" -T "DATE=%year%" -T "TRACKNUMBER=%tracknr%" -T "GENRE=%genre%" -T "PERFORMER=%albuminterpret%" -T "COMPOSER=%composer%" %haslyrics%–tag-from-file=LYRICS="%lyricsfile%"%haslyrics% -T "ALBUMARTIST=%albumartist%" -T "DISCNUMBER=%cdnumber%" -T "TOTALDISCS=%totalcds%" -T "TOTALTRACKS=%numtracks%" -T "COMMENT=%comment%" %source% -o %dest%


TOC of the extracted CD

Track | Start | Length | Start sector | End sector
––––––––––––––––––––––––––––-
1 | 0:00.00 | 3:29.74 | 0 | 15748
2 | 3:29.74 | 3:31.67 | 15749 | 31640
3 | 7:01.66 | 3:40.38 | 31641 | 48178
4 | 10:42.29 | 3:48.27 | 48179 | 65305
5 | 14:30.56 | 4:35.14 | 65306 | 85944
6 | 19:05.70 | 4:01.28 | 85945 | 104047
7 | 23:07.23 | 4:14.00 | 104048 | 123097
8 | 27:21.23 | 5:27.34 | 123098 | 147656
9 | 32:48.57 | 4:09.12 | 147657 | 166343
10 | 36:57.69 | 3:23.45 | 166344 | 181613


Track 1

Filename C:\Users\kqwiet\Desktop\Music Conversions\01 - (Do The) Empty House.wav

Pre-gap length 0:00:02.00

Peak level 94.4 %
Extraction speed 2.2 X
Track quality 100.0 %
Test CRC CE339870
Copy CRC CE339870
Track not present in AccurateRip database
Copy OK

Track 2

Filename C:\Users\kqwiet\Desktop\Music Conversions\02 - Red Planet Revisited.wav

Pre-gap length 0:00:00.72

Peak level 94.4 %
Extraction speed 2.3 X
Track quality 100.0 %
Test CRC 40C2D047
Copy CRC 40C2D047
Track not present in AccurateRip database
Copy OK

Track 3

Filename C:\Users\kqwiet\Desktop\Music Conversions\03 - It's History.wav

Pre-gap length 0:00:00.86

Peak level 94.4 %
Extraction speed 2.5 X
Track quality 100.0 %
Test CRC 2645D946
Copy CRC 2645D946
Track not present in AccurateRip database
Copy OK

Track 4

Filename C:\Users\kqwiet\Desktop\Music Conversions\04 - Private Party.wav

Pre-gap length 0:00:01.66

Peak level 94.4 %
Extraction speed 2.7 X
Track quality 100.0 %
Test CRC CFA0D717
Copy CRC CFA0D717
Track not present in AccurateRip database
Copy OK

Track 5

Filename C:\Users\kqwiet\Desktop\Music Conversions\05 - For Your Information.wav

Pre-gap length 0:00:01.82

Peak level 100.0 %
Extraction speed 3.0 X
Track quality 99.9 %
Test CRC 620A143A
Copy CRC 620A143A
Track not present in AccurateRip database
Copy OK

Track 6

Filename C:\Users\kqwiet\Desktop\Music Conversions\06 - After The Rain (Remix).wav

Pre-gap length 0:00:02.18

Peak level 91.2 %
Extraction speed 3.1 X
Track quality 99.9 %
Test CRC 34E42C5F
Copy CRC 34E42C5F
Track not present in AccurateRip database
Copy OK

Track 7

Filename C:\Users\kqwiet\Desktop\Music Conversions\07 - Now I Know (John Peel Session).wav

Pre-gap length 0:00:01.74

Peak level 94.4 %
Extraction speed 3.1 X
Track quality 100.0 %
Test CRC 2A7955A1
Copy CRC 2A7955A1
Track not present in AccurateRip database
Copy OK

Track 8

Filename C:\Users\kqwiet\Desktop\Music Conversions\08 - Ju Ju Money (John Peel Session).wav

Pre-gap length 0:00:01.76

Peak level 94.4 %
Extraction speed 3.3 X
Track quality 100.0 %
Test CRC 8476192C
Copy CRC 8476192C
Track not present in AccurateRip database
Copy OK

Track 9

Filename C:\Users\kqwiet\Desktop\Music Conversions\09 - Our Secret (John Peel Session).wav

Pre-gap length 0:00:01.94

Peak level 94.4 %
Extraction speed 3.5 X
Track quality 100.0 %
Test CRC 8866D738
Copy CRC 8866D738
Track not present in AccurateRip database
Copy OK

Track 10

Filename C:\Users\kqwiet\Desktop\Music Conversions\10 - Goat Of The West (John Peel Session).wav

Pre-gap length 0:00:02.05

Peak level 94.4 %
Extraction speed 2.9 X
Track quality 100.0 %
Test CRC 48C5F888
Copy CRC 48C5F888
Track not present in AccurateRip database
Copy OK


None of the tracks are present in the AccurateRip database

No errors occurred

End of status report

–– CUETools DB Plugin V2.1.6

[CTDB TOCID: JP05eJFHmAZkh9iv9vbhTNBgy8Q-] database access error: The remote name could not be resolved: 'db.cuetools.net'


==== Log checksum 68ECBEC529046F75C32E49F54A83D2CB9D11BA5F4EF7F52FCAC74F432A073482 ====

Tracks ::::
1982 - Fiction
CD1
1-1 After The Rain 3:58
1-2 Zinger 3:30
1-3 Now I Know 3:58
1-4 Not A Word 3:44
1-5 Ju Ju Money 3:28
1-6 More 3:34
1-7 Pictures 4:27
1-8 Birdman 5:01
1-9 Don't Look Now 4:48
1-10 What Else!? 4:32
CD2
Bonus Tracks
2-1 (Do The) Empty House 3:31
2-2 Red Planet Revisited 3:31
2-3 It's History 3:41
2-4 Private Party 3:48
2-5 For Your Information 4:38
2-6 After The Rain (Remix) 4:00
John Peel Session 7/10/81
2-7 Now I Know 4:18
2-8 Ju Ju Money 5:28
2-9 Our Secret 4:11
2-10 Goat Of The West 3:25
=============================================================================================

The Comsat Angels- Waiting for a Miracle; Sleep No More; Fiction; Chasing Shadows [4 Deluxe Edition Albums] (2015)

The Comsat Angels- Chasing Shadows (1986) [2015 Deluxe Edition]
EAC Rip | FLAC (Tracks) +CUE, LOG | 581 MB | Scans
Genre: Alternative, Pop Rock, New Wave, Post-Punk | Label: Edsel Records | Catalog Number: EDSK 7091

Less concerned with attaining hits, Chasing Shadows is a return to form and an attempt to just make a good record. It's also the result of an association with Robert Palmer, a fan who executive produced the record. Despite dated production and material that doesn't match the band's first three records, the members refer to it as their fourth record. (So they essentially disown both Land and 7 Day Weekend.) That's because there's focus on the music, not allowing any room for outside concerns. Since the late-'80s production values sounded dated within a few years of release, the songs that hold up best are the ones with the most basic arrangements. "The Cutting Edge," "Carried Away," and "Pray for Rain" offer the best moments, and they're also the most quiet and most simplistic. Andy Peake plays plaintive piano for most of the record, instead of his usual synth stylings and frosty atmospherics. Other songs like the driving opener "The Thing That Counts" and "Under the Influence" are almost heavy, probably their closest to flat-out rock to date. One thing that Chasing Shadows suffers from is an almost cold, clinical feel. Even with the band's most dejected early material, there was a sense of warmth that is missing on approximately half of the record. As a benefit, it does sound much more like the Comsat Angels than 7 Day Weekend. Definitely not amongst the band's best, but a point of curiosity nonetheless.

Exact Audio Copy V1.0 beta 6 from 9. April 2015

EAC extraction logfile from 12. March 2016, 13:38

The Comsat Angels / Chasing Shadows (Disc 1)

Used drive : LITE-ON DVD+RW SOHW-802S Adapter: 1 ID: 1

Read mode : Secure
Utilize accurate stream : Yes
Defeat audio cache : Yes
Make use of C2 pointers : No

Read offset correction : 12
Overread into Lead-In and Lead-Out : No
Fill up missing offset samples with silence : Yes
Delete leading and trailing silent blocks : No
Null samples used in CRC calculations : Yes
Used interface : Native Win32 interface for Win NT & 2000
Gap handling : Appended to previous track

Used output format : User Defined Encoder
Selected bitrate : 1024 kBit/s
Quality : High
Add ID3 tag : No
Command line compressor : C:\Program Files\FLAC\flac.exe
Additional command line options : -8 -V -T "ARTIST=%artist%" -T "TITLE=%title%" -T "ALBUM=%albumtitle%" -T "DATE=%year%" -T "TRACKNUMBER=%tracknr%" -T "GENRE=%genre%" -T "PERFORMER=%albuminterpret%" -T "COMPOSER=%composer%" %haslyrics%–tag-from-file=LYRICS="%lyricsfile%"%haslyrics% -T "ALBUMARTIST=%albumartist%" -T "DISCNUMBER=%cdnumber%" -T "TOTALDISCS=%totalcds%" -T "TOTALTRACKS=%numtracks%" -T "COMMENT=%comment%" %source% -o %dest%


TOC of the extracted CD

Track | Start | Length | Start sector | End sector
––––––––––––––––––––––––––––-
1 | 0:00.00 | 6:05.17 | 0 | 27391
2 | 6:05.17 | 5:09.37 | 27392 | 50603
3 | 11:14.54 | 4:23.52 | 50604 | 70380
4 | 15:38.31 | 5:05.44 | 70381 | 93299
5 | 20:44.00 | 4:57.59 | 93300 | 115633
6 | 25:41.59 | 5:05.34 | 115634 | 138542
7 | 30:47.18 | 5:46.36 | 138543 | 164528
8 | 36:33.54 | 5:01.03 | 164529 | 187106
9 | 41:34.57 | 4:33.72 | 187107 | 207653


Track 1

Filename C:\Users\kqwiet\Desktop\Music Conversions\01 - The Thought That Counts.wav

Pre-gap length 0:00:02.00

Peak level 94.4 %
Extraction speed 2.3 X
Track quality 100.0 %
Test CRC C308C261
Copy CRC C308C261
Track not present in AccurateRip database
Copy OK

Track 2

Filename C:\Users\kqwiet\Desktop\Music Conversions\02 - The Cutting Edge.wav

Pre-gap length 0:00:01.01

Peak level 94.4 %
Extraction speed 2.5 X
Track quality 100.0 %
Test CRC 755407BC
Copy CRC 755407BC
Track not present in AccurateRip database
Copy OK

Track 3

Filename C:\Users\kqwiet\Desktop\Music Conversions\03 - Under The Influence.wav

Pre-gap length 0:00:01.01

Peak level 94.4 %
Extraction speed 2.7 X
Track quality 100.0 %
Test CRC 125E82C3
Copy CRC 125E82C3
Track not present in AccurateRip database
Copy OK

Track 4

Filename C:\Users\kqwiet\Desktop\Music Conversions\04 - Carried Away.wav

Pre-gap length 0:00:01.85

Peak level 94.4 %
Extraction speed 2.9 X
Track quality 100.0 %
Test CRC 4629ED41
Copy CRC 4629ED41
Track not present in AccurateRip database
Copy OK

Track 5

Filename C:\Users\kqwiet\Desktop\Music Conversions\05 - You'll Never Know.wav

Pre-gap length 0:00:00.96

Peak level 94.4 %
Extraction speed 3.1 X
Track quality 99.9 %
Test CRC 3A469CD0
Copy CRC 3A469CD0
Track not present in AccurateRip database
Copy OK

Track 6

Filename C:\Users\kqwiet\Desktop\Music Conversions\06 - Lost Continent.wav

Peak level 94.4 %
Extraction speed 3.4 X
Track quality 99.9 %
Test CRC A7406121
Copy CRC A7406121
Track not present in AccurateRip database
Copy OK

Track 7

Filename C:\Users\kqwiet\Desktop\Music Conversions\07 - Flying Dreams.wav

Pre-gap length 0:00:01.69

Peak level 94.4 %
Extraction speed 3.4 X
Track quality 100.0 %
Test CRC 3718F2F8
Copy CRC 3718F2F8
Track not present in AccurateRip database
Copy OK

Track 8

Filename C:\Users\kqwiet\Desktop\Music Conversions\08 - Pray For Rain.wav

Pre-gap length 0:00:00.33

Peak level 94.4 %
Extraction speed 3.6 X
Track quality 100.0 %
Test CRC F196F2A9
Copy CRC F196F2A9
Track not present in AccurateRip database
Copy OK

Track 9

Filename C:\Users\kqwiet\Desktop\Music Conversions\09 - Something's Got To Give (Bonus).wav

Pre-gap length 0:00:00.65

Peak level 69.1 %
Extraction speed 3.2 X
Track quality 100.0 %
Test CRC AC70C016
Copy CRC AC70C016
Track not present in AccurateRip database
Copy OK


None of the tracks are present in the AccurateRip database

No errors occurred

End of status report

–– CUETools DB Plugin V2.1.6

[CTDB TOCID: YkjaTqiW1A72HzigjequEbinW7M-] database access error: The remote name could not be resolved: 'db.cuetools.net'


==== Log checksum 36BC3067B30C76033BDB444566602E607F6DAE5AF0F80EE895CB47D768B4EA02 ====

Exact Audio Copy V1.0 beta 6 from 9. April 2015

EAC extraction logfile from 12. March 2016, 14:18

The Comsat Angels / Chasing Shadows (Disc 2) (Dream Command - Fire On The Moon)

Used drive : LITE-ON DVD+RW SOHW-802S Adapter: 1 ID: 1

Read mode : Secure
Utilize accurate stream : Yes
Defeat audio cache : Yes
Make use of C2 pointers : No

Read offset correction : 12
Overread into Lead-In and Lead-Out : No
Fill up missing offset samples with silence : Yes
Delete leading and trailing silent blocks : No
Null samples used in CRC calculations : Yes
Used interface : Native Win32 interface for Win NT & 2000
Gap handling : Appended to previous track

Used output format : User Defined Encoder
Selected bitrate : 1024 kBit/s
Quality : High
Add ID3 tag : No
Command line compressor : C:\Program Files\FLAC\flac.exe
Additional command line options : -8 -V -T "ARTIST=%artist%" -T "TITLE=%title%" -T "ALBUM=%albumtitle%" -T "DATE=%year%" -T "TRACKNUMBER=%tracknr%" -T "GENRE=%genre%" -T "PERFORMER=%albuminterpret%" -T "COMPOSER=%composer%" %haslyrics%–tag-from-file=LYRICS="%lyricsfile%"%haslyrics% -T "ALBUMARTIST=%albumartist%" -T "DISCNUMBER=%cdnumber%" -T "TOTALDISCS=%totalcds%" -T "TOTALTRACKS=%numtracks%" -T "COMMENT=%comment%" %source% -o %dest%


TOC of the extracted CD

Track | Start | Length | Start sector | End sector
––––––––––––––––––––––––––––-
1 | 0:00.00 | 3:49.02 | 0 | 17176
2 | 3:49.02 | 3:33.64 | 17177 | 33215
3 | 7:22.66 | 5:14.02 | 33216 | 56767
4 | 12:36.68 | 5:02.03 | 56768 | 79420
5 | 17:38.71 | 4:44.57 | 79421 | 100777
6 | 22:23.53 | 4:38.16 | 100778 | 121643
7 | 27:01.69 | 3:45.69 | 121644 | 138587
8 | 30:47.63 | 3:26.33 | 138588 | 154070
9 | 34:14.21 | 4:01.25 | 154071 | 172170
10 | 38:15.46 | 2:24.63 | 172171 | 183033


Track 1

Filename C:\Users\kqwiet\Desktop\Music Conversions\01 - Celestine.wav

Pre-gap length 0:00:02.00

Peak level 100.0 %
Extraction speed 2.2 X
Track quality 100.0 %
Test CRC 88BF5E25
Copy CRC 88BF5E25
Track not present in AccurateRip database
Copy OK

Track 2

Filename C:\Users\kqwiet\Desktop\Music Conversions\02 - Whirlwind.wav

Pre-gap length 0:00:00.82

Peak level 94.4 %
Extraction speed 2.3 X
Track quality 100.0 %
Test CRC 9C27D59A
Copy CRC 9C27D59A
Track not present in AccurateRip database
Copy OK

Track 3

Filename C:\Users\kqwiet\Desktop\Music Conversions\03 - Sleepwalking.wav

Pre-gap length 0:00:01.36

Peak level 100.0 %
Extraction speed 2.6 X
Track quality 99.9 %
Test CRC D1A34840
Copy CRC D1A34840
Track not present in AccurateRip database
Copy OK

Track 4

Filename C:\Users\kqwiet\Desktop\Music Conversions\04 - Reach For Me.wav

Peak level 100.0 %
Extraction speed 2.7 X
Track quality 100.0 %
Test CRC A9DA7681
Copy CRC A9DA7681
Track not present in AccurateRip database
Copy OK

Track 5

Filename C:\Users\kqwiet\Desktop\Music Conversions\05 - Ice Sculpture.wav

Pre-gap length 0:00:01.53

Peak level 100.0 %
Extraction speed 3.0 X
Track quality 100.0 %
Test CRC 92EFFE68
Copy CRC 92EFFE68
Track not present in AccurateRip database
Copy OK

Track 6

Filename C:\Users\kqwiet\Desktop\Music Conversions\06 - Venus Hunter.wav

Pre-gap length 0:00:01.60

Peak level 100.0 %
Extraction speed 3.2 X
Track quality 99.9 %
Test CRC C3F253C5
Copy CRC C3F253C5
Track not present in AccurateRip database
Copy OK

Track 7

Filename C:\Users\kqwiet\Desktop\Music Conversions\07 - Phantom Power.wav

Pre-gap length 0:00:00.13

Peak level 100.0 %
Extraction speed 3.2 X
Track quality 100.0 %
Test CRC 35153FDB
Copy CRC 35153FDB
Track not present in AccurateRip database
Copy OK

Track 8

Filename C:\Users\kqwiet\Desktop\Music Conversions\08 - Transport Of Delight.wav

Peak level 100.0 %
Extraction speed 3.3 X
Track quality 100.0 %
Test CRC 27C53B6B
Copy CRC 27C53B6B
Track not present in AccurateRip database
Copy OK

Track 9

Filename C:\Users\kqwiet\Desktop\Music Conversions\09 - She's Invisible.wav

Pre-gap length 0:00:01.01

Peak level 100.0 %
Extraction speed 3.6 X
Track quality 99.9 %
Test CRC BA140639
Copy CRC BA140639
Track not present in AccurateRip database
Copy OK

Track 10

Filename C:\Users\kqwiet\Desktop\Music Conversions\10 - Mercury.wav

Pre-gap length 0:00:01.62

Peak level 100.0 %
Extraction speed 2.7 X
Track quality 100.0 %
Test CRC 39FA36BC
Copy CRC 39FA36BC
Track not present in AccurateRip database
Copy OK


None of the tracks are present in the AccurateRip database

No errors occurred

End of status report

–– CUETools DB Plugin V2.1.6

[CTDB TOCID: 78mNvSpT5.3T8J76Y.tNW76XyIg-] database access error: The remote name could not be resolved: 'db.cuetools.net'


==== Log checksum 5B6607E715111DBCD2950AF276190FD61FB8BB694823F1B0E17387684C3036DA ====

Tracks ::::
1986 - Chasing Shadows
CD1
1-1 –The Thought That Counts 6:06
1-2 –The Cutting Edge 5:11
1-3 –Under The Influence 4:22
1-4 –Carried Away 5:06
1-5 –You'll Never Know (Vocals [Guest] – Robert Palmer) 4:58
1-6 –Lost Continent 5:06
1-7 –Flying Dreams 5:46
1-8 –Pray For Rain 5:02
Bonus Track
1-9 –Something's Got To Give 4:38
CD2
Fire On The Moon
2-1 –Dream Command - Celestine 3:49
2-2 –Dream Command - Whirlwind 3:35
2-3 –Dream Command - Sleepwalking 5:13
2-4 –Dream Command - Reach For Me 5:01
2-5 –Dream Command - Ice Sculpture 4:44
2-6 –Dream Command - Venus Hunter 4:37
2-7 –Dream Command - Phantom Power 3:45
2-8 –Dream Command - Transport Of Delight 3:25
2-9 –Dream Command - She's Invisible 4:05
2-10 –Dream Command - Mercury 2:24