Subcategories

The Four Tops - Shake Me, Wake Me: 25 Greatest Hits 1964-1973 (1995)

Posted By: BlondStyle
The Four Tops - Shake Me, Wake Me: 25 Greatest Hits 1964-1973 (1995)

The Four Tops - Shake Me, Wake Me: 25 Greatest Hits 1964-1973 (1995)
R&B, Soul/Funk, Pop/Rock | EAC Rip | FLAC, Img+CUE+LOG+Full Scans-600dpi (PNG) | 74:21 Min. | 628,21 Mb
Label: Raven Records (Australia) | Cat.# RVCD-23 | Released: 1995-08-09
The Four Tops - Shake Me, Wake Me: 25 Greatest Hits 1964-1973 (1995)

Solid and steady hitmakers for Motown in the late 1960s, the Four Tops, led by the deep, soulful voice of Levi Stubbs and blessed with A-line songs from the Holland-Dozier-Holland writing team, were one of the finest singing groups the label ever produced. Singles like "Reach Out I'll Be There," "Standing in the Shadows of Love," "Bernadette," "I Can't Help Myself," and the wise-beyond-its-era "It's the Same Old Song" were radio staples in their time, and actually still continue to be staples on 21st century oldies stations. That's staying power, and it's no accident. The songs, at least the singles, were good and the Tops' sound was a hair rougher and edgier than a lot of Motown's issues at the time. It was a winning combination. This set has all of the above songs, each of which is essential.
~Review by Steve Leggett

The Four Tops - Shake Me, Wake Me: 25 Greatest Hits 1964-1973 (1995)

The Four Tops - Shake Me, Wake Me: 25 Greatest Hits 1964-1973 (1995)


Release of this CD: 1995, August, 9 [CD Raven Records (Australia), Cat.# RVCD-23 / UPC: 9398800002326]
Issued by arrangement with BMG Records, Australia. Original Motown and Dunhill Recordings 1964-1973.
℗© 1991 Raven Records P.O. Box 92 Camberwell 3124.

Credits:

Artwork by - Trina Hayes at ADCO Advertising
Conceived and compiled by - Glenn A. Baker, Kevin Mueller, Peter Shillito
Photographs from the Glenn A. Baker Archives


Tracklist:

01. Baby I Need Your Loving (02:51)
02. Without The One You Love (Life's Not Worth While) (02:56)
03. Ask The Lonely (03:01)
04. I Can't Help My Self (Sugar Pie, Honey Bunch) (02:46)
05. It's The Same Old Song (02:50)
06. Something About You (02:45)
07. Shake Me, Wake Me (When It's Over) (02:42)
08. I Got A Feeling (02:54)
09. Loving You Is Sweeter Than Ever (02:51)
10. Reach Out I'll Be There (03:02)
11. Standing In The Shadows Of Love (02:41)
12. Bernadette (03:05)
13. 7 Rooms Of Gloom (02:37)
14. I'll Turn To Stone (02:28)
15. You Keep Running Away (02:51)
16. Walk Away Renee (02:47)
17. If I Were A Carpenter (02:51)
18. I'm In A Different World (02:57)
19. Do What You Gotta Do (04:02)
20. It's All In The Game (02:46)
21. Still Water (Love) (03:07)
22. River Deep Mountain High (with The Supremes) (04:32)
23. A Simple Game (02:56)
24. Keeper Of The Castle (02:57)
25. Ain't No Woman (Like The One I've Got) (03:06)

Exact Audio Copy V1.3 from 2. September 2016

EAC extraction logfile from 3. December 2017, 17:37

The Four Tops / Shake Me, Wake Me - 25 Greatest Hits 1964-1973

Used drive : PIONEER BD-RW BDR-208D Adapter: 1 ID: 0

Read mode : Secure
Utilize accurate stream : Yes
Defeat audio cache : Yes
Make use of C2 pointers : No

Read offset correction : 667
Overread into Lead-In and Lead-Out : No
Fill up missing offset samples with silence : Yes
Delete leading and trailing silent blocks : No
Null samples used in CRC calculations : Yes
Used interface : Native Win32 interface for Win NT & 2000

Used output format : Internal WAV Routines
Sample format : 44.100 Hz; 16 Bit; Stereo


TOC of the extracted CD

Track | Start | Length | Start sector | End sector
––––––––––––––––––––––––––––-
1 | 0:00.33 | 2:51.07 | 33 | 12864
2 | 2:51.40 | 2:56.00 | 12865 | 26064
3 | 5:47.40 | 3:01.03 | 26065 | 39642
4 | 8:48.43 | 2:45.52 | 39643 | 52069
5 | 11:34.20 | 2:50.10 | 52070 | 64829
6 | 14:24.30 | 2:44.70 | 64830 | 77199
7 | 17:09.25 | 2:42.23 | 77200 | 89372
8 | 19:51.48 | 2:54.02 | 89373 | 102424
9 | 22:45.50 | 2:50.65 | 102425 | 115239
10 | 25:36.40 | 3:02.35 | 115240 | 128924
11 | 28:39.00 | 2:40.55 | 128925 | 140979
12 | 31:19.55 | 3:05.00 | 140980 | 154854
13 | 34:24.55 | 2:36.60 | 154855 | 166614
14 | 37:01.40 | 2:28.18 | 166615 | 177732
15 | 39:29.58 | 2:50.65 | 177733 | 190547
16 | 42:20.48 | 2:46.45 | 190548 | 203042
17 | 45:07.18 | 2:50.50 | 203043 | 215842
18 | 47:57.68 | 2:57.10 | 215843 | 229127
19 | 50:55.03 | 4:02.35 | 229128 | 247312
20 | 54:57.38 | 2:45.57 | 247313 | 259744
21 | 57:43.20 | 3:07.13 | 259745 | 273782
22 | 60:50.33 | 4:31.45 | 273783 | 294152
23 | 65:22.03 | 2:55.40 | 294153 | 307317
24 | 68:17.43 | 2:57.05 | 307318 | 320597
25 | 71:14.48 | 3:06.22 | 320598 | 334569


Range status and errors

Selected range

Filename D:\BlondStyle\Shake Me, Wake Me - 25 Greatest Hits 1964-1973.wav

Peak level 99.9 %
Extraction speed 7.6 X
Range quality 100.0 %
Test CRC E71E3BAC
Copy CRC E71E3BAC
Copy OK

No errors occurred


AccurateRip summary

Track 1 accurately ripped (confidence 1) [6B05A326] (AR v1)
Track 2 accurately ripped (confidence 1) [BD76992E] (AR v1)
Track 3 accurately ripped (confidence 1) [9FC848A3] (AR v1)
Track 4 accurately ripped (confidence 1) [EBCC9F83] (AR v1)
Track 5 accurately ripped (confidence 1) [94325890] (AR v1)
Track 6 accurately ripped (confidence 1) [EED2C6F7] (AR v1)
Track 7 accurately ripped (confidence 1) [EB524A26] (AR v1)
Track 8 accurately ripped (confidence 1) [42AF0167] (AR v1)
Track 9 accurately ripped (confidence 1) [BE8D4DAB] (AR v1)
Track 10 accurately ripped (confidence 1) [6B0D82AC] (AR v1)
Track 11 accurately ripped (confidence 1) [4209EFD4] (AR v1)
Track 12 accurately ripped (confidence 1) [D52207A8] (AR v1)
Track 13 accurately ripped (confidence 1) [EEBA7718] (AR v1)
Track 14 accurately ripped (confidence 1) [797C17BF] (AR v1)
Track 15 accurately ripped (confidence 1) [BE6F09D9] (AR v1)
Track 16 accurately ripped (confidence 1) [81284B94] (AR v1)
Track 17 accurately ripped (confidence 1) [956704EA] (AR v1)
Track 18 accurately ripped (confidence 1) [392502FA] (AR v1)
Track 19 accurately ripped (confidence 1) [9802CADC] (AR v1)
Track 20 accurately ripped (confidence 1) [8D46A287] (AR v1)
Track 21 accurately ripped (confidence 1) [94EB18E7] (AR v1)
Track 22 accurately ripped (confidence 1) [5A64647C] (AR v1)
Track 23 accurately ripped (confidence 1) [4C02C3C7] (AR v1)
Track 24 accurately ripped (confidence 1) [41A0C476] (AR v1)
Track 25 accurately ripped (confidence 1) [A7F49E0D] (AR v1)

All tracks accurately ripped

End of status report

–– CUETools DB Plugin V2.1.6

[CTDB TOCID: 27NoaNxFPl.T1t37NLYDOuSVfR4-] found
Submit result: 27NoaNxFPl.T1t37NLYDOuSVfR4- has been confirmed
Track | CTDB Status
1 | (5/5) Accurately ripped
2 | (5/5) Accurately ripped
3 | (5/5) Accurately ripped
4 | (5/5) Accurately ripped
5 | (5/5) Accurately ripped
6 | (5/5) Accurately ripped
7 | (5/5) Accurately ripped
8 | (5/5) Accurately ripped
9 | (5/5) Accurately ripped
10 | (5/5) Accurately ripped
11 | (5/5) Accurately ripped
12 | (5/5) Accurately ripped
13 | (5/5) Accurately ripped
14 | (5/5) Accurately ripped
15 | (5/5) Accurately ripped
16 | (5/5) Accurately ripped
17 | (5/5) Accurately ripped
18 | (5/5) Accurately ripped
19 | (5/5) Accurately ripped
20 | (5/5) Accurately ripped
21 | (5/5) Accurately ripped
22 | (5/5) Accurately ripped
23 | (5/5) Accurately ripped
24 | (5/5) Accurately ripped
25 | (5/5) Accurately ripped


==== Log checksum 2E7D6832D5CBE83DBE3190806D6A68B677BAC07C96B9C5BA2BAA99186B4CE96C ====

––––––––––––––––––––––––––––––––––––––––
Analyzed: The Four Tops / Shake Me, Wake Me - 25 Greatest Hits 1964-1973
––––––––––––––––––––––––––––––––––––––––

DR Peak RMS Duration Track
––––––––––––––––––––––––––––––––––––––––
DR11 -1.41 dB -14.44 dB 2:51 01-Baby I Need Your Loving
DR12 -2.51 dB -16.33 dB 2:56 02-Without The One You Love (Life's Not Worth While)
DR13 -1.15 dB -15.85 dB 3:01 03-Ask The Lonely
DR12 -1.86 dB -15.28 dB 2:46 04-I Can't Help My Self (Sugar Pie, Honey Bunch)
DR12 -0.73 dB -14.94 dB 2:50 05-It's The Same Old Song
DR12 0.00 dB -15.31 dB 2:45 06-Something About You
DR11 -1.53 dB -15.02 dB 2:42 07-Shake Me, Wake Me (When It's Over)
DR12 -3.49 dB -18.02 dB 2:54 08-I Got A Feeling
DR12 -1.60 dB -17.02 dB 2:51 09-Loving You Is Sweeter Than Ever
DR12 -0.34 dB -15.00 dB 3:02 10-Reach Out I'll Be There
DR13 -1.61 dB -16.55 dB 2:41 11-Standing In The Shadows Of Love
DR12 -0.60 dB -15.65 dB 3:05 12-Bernadette
DR13 -1.99 dB -16.44 dB 2:37 13-7 Rooms Of Gloom
DR11 -2.58 dB -17.58 dB 2:28 14-I'll Turn To Stone
DR12 -4.54 dB -18.93 dB 2:51 15-You Keep Running Away
DR10 -4.09 dB -16.10 dB 2:47 16-Walk Away Renee
DR12 -4.23 dB -18.61 dB 2:51 17-If I Were A Carpenter
DR13 -0.35 dB -17.29 dB 2:57 18-I'm In A Different World
DR12 -0.28 dB -16.70 dB 4:02 19-Do What You Gotta Do
DR13 -5.09 dB -22.07 dB 2:46 20-It's All In The Game
DR11 -7.20 dB -21.30 dB 3:07 21-Still Water (Love)
DR11 -1.47 dB -16.57 dB 4:32 22-River Deep Mountain High (with The Supremes)
DR12 -3.08 dB -18.58 dB 2:56 23-A Simple Game
DR13 -2.33 dB -16.86 dB 2:57 24-Keeper Of The Castle
DR13 -2.30 dB -17.64 dB 3:06 25-Ain't No Woman (Like The One I've Got)
––––––––––––––––––––––––––––––––––––––––

Number of tracks: 25
Official DR value: DR12

Samplerate: 44100 Hz
Channels: 2
Bits per sample: 16
Bitrate: 788 kbps
Codec: FLAC
================================================================================

password: BlondStyle