Subcategories

The Jackson 5 - Live At The Forum [2CD] (2010) {1972 Rec.} *Re-Up*

Posted By: BlondStyle
The Jackson 5 - Live At The Forum [2CD] (2010) {1972 Rec.} *Re-Up*

The Jackson 5 - Live At The Forum [2CD] (2010) {1972 Rec.}
R&B, Soul/Funk, Pop/Rock | EAC Rip | FLAC, Img+CUE+LOG+Scans (TIF) | 02:08:08 h. | 1,05 Gb
Label: Motown Records / Hip-O Select (USA) | Cat.# B0014405-02 | Released: 2010-06-29
The Jackson 5 - Live At The Forum [2CD] (2010) {1972 Rec.} *Re-Up*

The Jackson 5: Live At The Forum is a 2-CD set released June 29, 2010 that uncovers an amazing chapter from the phenomenal career of Michael Jackson and his brothers in the J5: their extraordinary performances from the Los Angeles Forum, recorded in June 1970 and August 1972--the first at the start of their rapid ascent to stardom, the second when they became established icons. These brilliant shows have not been released in any form until now, the 40th anniversary of the 1970 show. Live At The Forum features earth-shaking live performances of the group's best-known hits - "I Want You Back," "ABC," "The Love You Save," "I'll Be There," "Never Can Say Goodbye" and more. Single B-sides "I Found That Girl" and "I'm So Happy" and such surprises as album cuts "Bridge Over Troubled Water" and "Zip A Dee Do Dah," plus songs not released by the J5, including covers of James Brown's "There Was a Time" and the Isley Brothers' "It's Your Thing," are part of the shows. The 1972 show also features a full, fantastic set of Michael's solo hits, including "Got To Be There" and "Ben," his brand new single at the time, as well as a solo spot by Jermaine. Disc 1 includes the Forum show recorded June 20, 1970, when the group broke existing box office records at the venue. The J5 were on their first national tour, and the show is a unique document of the growing "Jacksonmania" gripping the globe. Disc 2 is the complete show from August 26, 1972, just three days before Michael's 14th birthday. Each disc includes a bonus track: an unreleased full live version of "Mama's Pearl," from the concert that became part of the 1971 TV special Goin' Back To Indiana, closes Disc 1; "I Wanna Be Where You Are," from the soundtrack album to Save The Children, makes its CD debut at the end of Disc 2.
Live at the Forum contains two previously unissued performances from the Jackson 5. On June 20, 1970, the brothers were popular enough to attract well over 18,000 people -- many of whom screamed, some of whom rushed the stage -- to the Inglewood, CA venue. They had two albums to draw upon but threw in some covers, like a somewhat ragged version of Traffic’s “Feelin’ Alright” and a loose take on Sly & the Family Stone's “Thank You Falettinme Be Mice Elf Agin.” Unsurprisingly, the dynamically performed hits generate the loudest response. Given the hysteria from note one of “The Love You Save,” which had just hit number one on the soul chart, the group could have been forgiven for spinning out of control, but they fed off the energy of their fans, awestruck yet realizing their power. When the Jacksons returned on August 26, 1972, they were a full-blown pop culture phenomenon and had released four additional albums. There is not much overlap with the 1970 show; some of the older material is incorporated into medleys and they roll through everything with professional finesse without losing their connection to the crowd. The scripted banter sounds more natural, too. Michael, who gets a significant chunk of the set for his solo material, struggles a little with his changing voice, but those who know the studio versions inside-out will find the issue more charming than awkward. Also containing an additional live cut at the end of each disc, Live at the Forum is a treat for J5 fans, essential for those who picked up Hip-O Select's In Japan! (the first U.S. release of a 1974 Osaka gig). The packaging here is more elaborate, featuring in-depth liner notes from professor and author Mark Anthony Neal, several photos, and a set of detachable black-and-white photo cards.
~Review by Andy Kellman

The Jackson 5 - Live At The Forum [2CD] (2010) {1972 Rec.} *Re-Up*




Credits:

Art Direction – Michele Horie, Vartan
Design – Oddopolis, Ryan Rogers
Mixed By, Mastered By – Kevin Reeves
Producer – Harry Weinger
Research – Andy Skurow


Release of this 2CD-Set: 2010, June, 29 [CDs Hip-O Select (USA), Cat.# B0014405-02 / UPC: 602527407609]
A UNIVERSAL MUSIC COMPANY
℗&© 2010 Motown Records, a Division of UMG Recordings, Inc.
Distributed by Universal Music Distribution

Tracklist:

Disc One:

~June 20, 1970 Record-Breaking Show!~


01. Introduction (00:42)
02. I Want You Back (03:08)
(Berry Gordy, Deke Richards, Alphonso Mizell, Freddie Perren)
03. Feelin' Alright (04:51)
(Dave Mason)
04. Who's Lovin' You (04:56)
(William Robinson)
05. Walk On (02:22)
(The Jackson 5, Suzanne DePasse)
06. Don't Know Why I Love You (03:41)
(Don Hunter, Lula Hardaway, Paul Riser, Stevie Wonder)
07. Zip-A-Dee-Doo-Dah (02:55)
(Allie Wrubel, Ray Gilbert)
08. ABC (03:33)
(Berry Gordy, Deke Richards, Alphonso Mizell, Freddie Perren)
09. It's Your Thing (04:55)
(O'Kelly Isley, Ronald Isley, Rudolph Isley)
10. I Found That Girl (04:46)
(Berry Gordy, Deke Richards, Alphonso Mizell, Freddie Perren)
11. There Was A Time (03:15)
(James Brown)
12. Thank You Falettinme Be Mice Elf Agin (07:08)
(Sylvester Stewart)
13. The Love You Save (03:36)
(Berry Gordy, Deke Richards, Alphonso Mizell, Freddie Perren)
14. Mama's Pearl (Live In Indiana) (Bonus Track) (03:10)
(Berry Gordy, Deke Richards, Alphonso Mizell, Freddie Perren)

~August 26, 1972 Return Engagement!~

01. Brand New Thing (03:01)
(The Jackson 5)
02. Medley: I Want You Back / ABC / Mama's Pearl (04:51)
(Berry Gordy, Deke Richards, Alphonso Mizell, Freddie Perren)
03. Sugar Daddy (02:57)
(Berry Gordy, Deke Richards, Alphonso Mizell, Freddie Perren)
04. I'll Be There (04:03)
(Berry Gordy, Bob West, Hal Davis, Willie Hutch)
05. Introduction By Michael (01:56)
06. Goin' Back To Indiana / Brand New Thing / Goin' Back To Indiana (03:55)
(Berry Gordy, Deke Richards, Alphonso Mizell, Freddie Perren, The Jackson 5)
07. Bridge Over Troubled Water (02:21)
(Paul Simon)
08. I Found That Girl (03:40)
(Berry Gordy, Deke Richards, Alphonso Mizell, Freddie Perren)
09. I'm So Happy (02:59)
(Berry Gordy, Deke Richards, Alphonso Mizell, Freddie Perren)
10. Lookin' Through The Windows (03:53)
(Clifton Davis)
11. Ain't Nothing Like The Real Thing (02:35)
(Nickolas Ashford, Valerie Simpson)
12. Introduction By Jackie (00:22)
13. Ben (02:39)
(Don Black, Walter Scharf)
14. Rockin' Robin (02:30)
(Jimmie Thomas)
15. Got To Be There (02:11)
(Elliot Willensky)
16. You've Got A Friend (02:21)
(Carole King)
17. Ain't No Sunshine (05:29)
(Bill Withers)
18. I Wanna Be Where You Are (03:42
(Arthur T-Boy Ross, Leon Ware)
19. Introduction By Jermaine (01:09)
20. That's How Love Goes (03:15)
(David H. Jones Jr., John Bristol, Wade Brown Jr.)
21. Never Can Say Goodbye (04:43)
(Clifton Davis)
22. Walk On (02:22)
(The Jackson 5, Suzanne DePasse)
23. The Love You Save (03:53)
(Berry Gordy, Deke Richards, Alphonso Mizell, Freddie Perren)
24. I Wanna Be Where You Are (From "Save The Children") (Bonus Track) (04:13)
(Arthur T-Boy Ross, Leon Ware)

Notes:

Tracks 1-1 to 2-23 previously unreleased
Tracks 1-1 to 1-13 recorded at the Los Angeles Forum, Inglewood, California, Saturday, June 20, 1970
Track 1-14 recorded at the Market Square Arena, Indianapolis, IN, Sunday, May 29, 1971
Tracks 2-1 to 2-23 recorded at the Los Angeles Forum, Inglewood, California, Saturday, August 26, 1972, except track 17, recorded the next night, at the International Sports Center (now Sports Arena), San Diego, CA
Track 2-24 recorded at [venue missing] Chicago, IL, Saturday, September 30, 1972
Introduction by Don Cornelius
Originally issued on Save The Children original motion picture soundtrack, Motown M-800R2, April 1974

Further Notes:
- The last track on this compilation, "I Wanna Be Where You Are," was the final of two songs following a medley of "I Want You Back" and "ABC", performed at the Black Expo, at the International Amphitheatre, Chicago, Illinois. It was later released on the Save the Children documentary soundtrack.
- Save the Children (Original Motion Picture Soundtrack) was actually released in 1973.
- In 1972, the San Diego International Sports Center was already called San Diego Sports Arena (now Valley View Casino Center).
- I wonder how "Mama's Pearl" was recorded at the Market Square Arena in 1971 when the venue didn't even exist before 1974!

Exact Audio Copy V1.0 beta 2 from 29. April 2011

EAC extraction logfile from 6. March 2012, 17:25

The Jackson 5 / Live at the Forum Disc 1

Used drive : PLDS DVD+-RW DS-8A5SH Adapter: 0 ID: 0

Read mode : Secure
Utilize accurate stream : Yes
Defeat audio cache : Yes
Make use of C2 pointers : No

Read offset correction : 6
Overread into Lead-In and Lead-Out : No
Fill up missing offset samples with silence : Yes
Delete leading and trailing silent blocks : No
Null samples used in CRC calculations : Yes
Used interface : Native Win32 interface for Win NT & 2000
Gap handling : Appended to previous track

Used output format : User Defined Encoder
Selected bitrate : 256 kBit/s
Quality : High
Add ID3 tag : No
Command line compressor : C:\Program Files (x86)\FLAC\flac.exe
Additional command line options : -8 -V -T "ARTIST=%artist%" -T "TITLE=%title%" -T "ALBUM=%albumtitle%" -T "DATE=%year%" -T "TRACKNUMBER=%tracknr%" -T "TOTALTRACKS=%numtracks%" -T "GENRE=%genre%" -T "ALBUMARTIST=%albumartist%" -T "ALBUM ARTIST=%albumartist%


TOC of the extracted CD

Track | Start | Length | Start sector | End sector
––––––––––––––––––––––––––––-
1 | 0:00.00 | 0:41.43 | 0 | 3117
2 | 0:41.43 | 3:08.08 | 3118 | 17225
3 | 3:49.51 | 4:50.66 | 17226 | 39041
4 | 8:40.42 | 4:56.20 | 39042 | 61261
5 | 13:36.62 | 2:21.48 | 61262 | 71884
6 | 15:58.35 | 3:40.44 | 71885 | 88428
7 | 19:39.04 | 2:55.27 | 88429 | 101580
8 | 22:34.31 | 3:32.72 | 101581 | 117552
9 | 26:07.28 | 4:55.28 | 117553 | 139705
10 | 31:02.56 | 4:45.44 | 139706 | 161124
11 | 35:48.25 | 3:14.49 | 161125 | 175723
12 | 39:02.74 | 7:07.47 | 175724 | 207795
13 | 46:10.46 | 3:36.35 | 207796 | 224030
14 | 49:47.06 | 3:10.19 | 224031 | 238299


Track 1

Filename C:\Users\porcupine\Desktop\EAC\01 - Introduction.wav

Pre-gap length 0:00:02.00

Peak level 53.9 %
Extraction speed 1.7 X
Track quality 100.0 %
Test CRC 6E221B68
Copy CRC 6E221B68
Accurately ripped (confidence 3) [B8F592D4] (AR v1)
Copy OK

Track 2

Filename C:\Users\porcupine\Desktop\EAC\02 - I Want You Back.wav

Peak level 99.9 %
Extraction speed 2.8 X
Track quality 100.0 %
Test CRC FAB8EFBE
Copy CRC FAB8EFBE
Accurately ripped (confidence 3) [36AF0687] (AR v1)
Copy OK

Track 3

Filename C:\Users\porcupine\Desktop\EAC\03 - Feelin' Alright.wav

Peak level 100.0 %
Extraction speed 3.3 X
Track quality 100.0 %
Test CRC 631CB0A2
Copy CRC 631CB0A2
Accurately ripped (confidence 3) [FA25E145] (AR v1)
Copy OK

Track 4

Filename C:\Users\porcupine\Desktop\EAC\04 - Who's Lovin' You.wav

Peak level 99.9 %
Extraction speed 3.6 X
Track quality 100.0 %
Test CRC E49DD835
Copy CRC E49DD835
Accurately ripped (confidence 3) [72E479AE] (AR v1)
Copy OK

Track 5

Filename C:\Users\porcupine\Desktop\EAC\05 - Walk On.wav

Peak level 99.8 %
Extraction speed 3.3 X
Track quality 100.0 %
Test CRC 11D960D2
Copy CRC 11D960D2
Accurately ripped (confidence 3) [EC05613C] (AR v1)
Copy OK

Track 6

Filename C:\Users\porcupine\Desktop\EAC\06 - Don't Know Why I Love You.wav

Peak level 99.9 %
Extraction speed 3.9 X
Track quality 100.0 %
Test CRC 350B37FE
Copy CRC 350B37FE
Accurately ripped (confidence 3) [ACBE5984] (AR v1)
Copy OK

Track 7

Filename C:\Users\porcupine\Desktop\EAC\07 - Zip-a-Dee-Doo-Dah.wav

Peak level 100.0 %
Extraction speed 3.9 X
Track quality 100.0 %
Test CRC C3F18AB5
Copy CRC C3F18AB5
Accurately ripped (confidence 3) [D051F81A] (AR v1)
Copy OK

Track 8

Filename C:\Users\porcupine\Desktop\EAC\08 - ABC.wav

Peak level 99.9 %
Extraction speed 4.2 X
Track quality 100.0 %
Test CRC D8F2AB8D
Copy CRC D8F2AB8D
Accurately ripped (confidence 3) [3C67021E] (AR v1)
Copy OK

Track 9

Filename C:\Users\porcupine\Desktop\EAC\09 - It's Your Thing.wav

Peak level 100.0 %
Extraction speed 4.3 X
Track quality 100.0 %
Test CRC B6C696E7
Copy CRC B6C696E7
Accurately ripped (confidence 3) [E8A37DB5] (AR v1)
Copy OK

Track 10

Filename C:\Users\porcupine\Desktop\EAC\10 - I Found That Girl.wav

Peak level 98.2 %
Extraction speed 4.8 X
Track quality 100.0 %
Test CRC 14030CF3
Copy CRC 14030CF3
Accurately ripped (confidence 3) [7C589A10] (AR v1)
Copy OK

Track 11

Filename C:\Users\porcupine\Desktop\EAC\11 - There Was a Time.wav

Peak level 99.9 %
Extraction speed 4.7 X
Track quality 100.0 %
Test CRC 6F76F9D0
Copy CRC 6F76F9D0
Accurately ripped (confidence 3) [F3BB2D41] (AR v1)
Copy OK

Track 12

Filename C:\Users\porcupine\Desktop\EAC\12 - Thank You Falettinme Be Mice Elf Agin.wav

Peak level 99.9 %
Extraction speed 4.8 X
Track quality 99.9 %
Test CRC CE8B2DB4
Copy CRC CE8B2DB4
Accurately ripped (confidence 3) [990B389F] (AR v1)
Copy OK

Track 13

Filename C:\Users\porcupine\Desktop\EAC\13 - The Love You Save.wav

Peak level 100.0 %
Extraction speed 4.2 X
Track quality 99.9 %
Test CRC F7CCA325
Copy CRC F7CCA325
Accurately ripped (confidence 3) [48E3DD43] (AR v1)
Copy OK

Track 14

Filename C:\Users\porcupine\Desktop\EAC\14 - Mama's Pearl.wav

Pre-gap length 0:00:04.36

Peak level 99.9 %
Extraction speed 4.2 X
Track quality 99.9 %
Test CRC 018FAD71
Copy CRC 018FAD71
Accurately ripped (confidence 3) [49A59959] (AR v1)
Copy OK


All tracks accurately ripped

No errors occurred

End of status report

==== Log checksum 08F93B63311906DCF11E576E54E58C5133D3F376702480BDEEE2FB0B3941B8C5 ====

Exact Audio Copy V1.0 beta 2 from 29. April 2011

EAC extraction logfile from 6. March 2012, 18:49

The Jackson 5 / Live at the Forum Disc 2

Used drive : PLDS DVD+-RW DS-8A5SH Adapter: 0 ID: 0

Read mode : Secure
Utilize accurate stream : Yes
Defeat audio cache : Yes
Make use of C2 pointers : No

Read offset correction : 6
Overread into Lead-In and Lead-Out : No
Fill up missing offset samples with silence : Yes
Delete leading and trailing silent blocks : No
Null samples used in CRC calculations : Yes
Used interface : Native Win32 interface for Win NT & 2000
Gap handling : Appended to previous track

Used output format : User Defined Encoder
Selected bitrate : 256 kBit/s
Quality : High
Add ID3 tag : No
Command line compressor : C:\Program Files (x86)\FLAC\flac.exe
Additional command line options : -8 -V -T "ARTIST=%artist%" -T "TITLE=%title%" -T "ALBUM=%albumtitle%" -T "DATE=%year%" -T "TRACKNUMBER=%tracknr%" -T "TOTALTRACKS=%numtracks%" -T "GENRE=%genre%" -T "ALBUMARTIST=%albumartist%" -T "ALBUM ARTIST=%albumartist%


TOC of the extracted CD

Track | Start | Length | Start sector | End sector
––––––––––––––––––––––––––––-
1 | 0:00.00 | 3:01.04 | 0 | 13578
2 | 3:01.04 | 4:51.22 | 13579 | 35425
3 | 7:52.26 | 2:57.32 | 35426 | 48732
4 | 10:49.58 | 4:03.61 | 48733 | 67018
5 | 14:53.44 | 1:56.46 | 67019 | 75764
6 | 16:50.15 | 3:55.40 | 75765 | 93429
7 | 20:45.55 | 2:21.01 | 93430 | 104005
8 | 23:06.56 | 3:40.74 | 104006 | 120579
9 | 26:47.55 | 2:59.11 | 120580 | 134015
10 | 29:46.66 | 3:53.17 | 134016 | 151507
11 | 33:40.08 | 2:35.49 | 151508 | 163181
12 | 36:15.57 | 0:22.27 | 163182 | 164858
13 | 36:38.09 | 2:39.11 | 164859 | 176794
14 | 39:17.20 | 2:30.51 | 176795 | 188095
15 | 41:47.71 | 2:11.57 | 188096 | 197977
16 | 43:59.53 | 2:21.23 | 197978 | 208575
17 | 46:21.01 | 5:29.16 | 208576 | 233266
18 | 51:50.17 | 3:42.11 | 233267 | 249927
19 | 55:32.28 | 1:09.44 | 249928 | 255146
20 | 56:41.72 | 3:15.73 | 255147 | 269844
21 | 59:57.70 | 4:43.02 | 269845 | 291071
22 | 64:40.72 | 2:22.23 | 291072 | 301744
23 | 67:03.20 | 3:53.42 | 301745 | 319261
24 | 70:56.62 | 4:13.64 | 319262 | 338300


Track 1

Filename C:\Users\porcupine\Desktop\EAC\01 - Brand New Thing.wav

Pre-gap length 0:00:02.00

Peak level 100.0 %
Extraction speed 1.1 X
Track quality 100.0 %
Test CRC B1D90040
Copy CRC B1D90040
Accurately ripped (confidence 3) [E3F79AC4] (AR v1)
Copy OK

Track 2

Filename C:\Users\porcupine\Desktop\EAC\02 - Medley- I Want You Back-ABC-Mama's Pearl.wav

Peak level 100.0 %
Extraction speed 1.3 X
Track quality 100.0 %
Test CRC 7A0D19B1
Copy CRC 7A0D19B1
Accurately ripped (confidence 3) [134C0A25] (AR v1)
Copy OK

Track 3

Filename C:\Users\porcupine\Desktop\EAC\03 - Sugar Daddy.wav

Peak level 100.0 %
Extraction speed 1.3 X
Track quality 100.0 %
Test CRC 8F7B0636
Copy CRC 8F7B0636
Accurately ripped (confidence 3) [04CF196C] (AR v1)
Copy OK

Track 4

Filename C:\Users\porcupine\Desktop\EAC\04 - I'll Be There.wav

Peak level 100.0 %
Extraction speed 1.5 X
Track quality 100.0 %
Test CRC 893DA188
Copy CRC 893DA188
Accurately ripped (confidence 3) [53FA16DE] (AR v1)
Copy OK

Track 5

Filename C:\Users\porcupine\Desktop\EAC\05 - Introduction by Michael.wav

Peak level 95.1 %
Extraction speed 1.3 X
Track quality 100.0 %
Test CRC B405EF1B
Copy CRC B405EF1B
Accurately ripped (confidence 3) [072C57A1] (AR v1)
Copy OK

Track 6

Filename C:\Users\porcupine\Desktop\EAC\06 - Goin' Back to Indiana-Brand New Thing-Goin' Back to Indiana.wav

Peak level 94.4 %
Extraction speed 1.6 X
Track quality 100.0 %
Test CRC FCEBCCF6
Copy CRC FCEBCCF6
Accurately ripped (confidence 3) [00F21747] (AR v1)
Copy OK

Track 7

Filename C:\Users\porcupine\Desktop\EAC\07 - Bridge Over Troubled Water.wav

Peak level 84.1 %
Extraction speed 1.5 X
Track quality 100.0 %
Test CRC 6D06C6FE
Copy CRC 6D06C6FE
Accurately ripped (confidence 3) [6D105305] (AR v1)
Copy OK

Track 8

Filename C:\Users\porcupine\Desktop\EAC\08 - I Found That Girl.wav

Peak level 84.1 %
Extraction speed 1.7 X
Track quality 100.0 %
Test CRC 0EE4DEF4
Copy CRC 0EE4DEF4
Accurately ripped (confidence 3) [0713AC7E] (AR v1)
Copy OK

Track 9

Filename C:\Users\porcupine\Desktop\EAC\09 - I'm So Happy.wav

Peak level 81.0 %
Extraction speed 1.7 X
Track quality 100.0 %
Test CRC 89929ADA
Copy CRC 89929ADA
Accurately ripped (confidence 3) [2284288B] (AR v1)
Copy OK

Track 10

Filename C:\Users\porcupine\Desktop\EAC\10 - Lookin' Through the Windows.wav

Peak level 79.4 %
Extraction speed 1.9 X
Track quality 100.0 %
Test CRC D6404CF1
Copy CRC D6404CF1
Accurately ripped (confidence 3) [D7D6F737] (AR v1)
Copy OK

Track 11

Filename C:\Users\porcupine\Desktop\EAC\11 - Ain't Nothing Like the Real Thing.wav

Peak level 79.4 %
Extraction speed 1.8 X
Track quality 100.0 %
Test CRC C481547F
Copy CRC C481547F
Accurately ripped (confidence 3) [9AACE484] (AR v1)
Copy OK

Track 12

Filename C:\Users\porcupine\Desktop\EAC\12 - Introduction by Jackie.wav

Peak level 76.5 %
Extraction speed 0.8 X
Track quality 100.0 %
Test CRC AF4C6ED6
Copy CRC AF4C6ED6
Accurately ripped (confidence 3) [6D75D096] (AR v1)
Copy OK

Track 13

Filename C:\Users\porcupine\Desktop\EAC\13 - Ben.wav

Peak level 79.4 %
Extraction speed 1.9 X
Track quality 100.0 %
Test CRC 8DFF04F9
Copy CRC 8DFF04F9
Accurately ripped (confidence 3) [FC601E88] (AR v1)
Copy OK

Track 14

Filename C:\Users\porcupine\Desktop\EAC\14 - Rockin' Robin.wav

Peak level 99.4 %
Extraction speed 1.9 X
Track quality 100.0 %
Test CRC CF9A66BD
Copy CRC CF9A66BD
Accurately ripped (confidence 3) [C563F26B] (AR v1)
Copy OK

Track 15

Filename C:\Users\porcupine\Desktop\EAC\15 - Got to Be There.wav

Peak level 100.0 %
Extraction speed 1.8 X
Track quality 100.0 %
Test CRC 1D7055BA
Copy CRC 1D7055BA
Accurately ripped (confidence 3) [CB047734] (AR v1)
Copy OK

Track 16

Filename C:\Users\porcupine\Desktop\EAC\16 - You've Got a Friend.wav

Peak level 100.0 %
Extraction speed 1.9 X
Track quality 100.0 %
Test CRC 629F1CD3
Copy CRC 629F1CD3
Accurately ripped (confidence 3) [B81AC715] (AR v1)
Copy OK

Track 17

Filename C:\Users\porcupine\Desktop\EAC\17 - Ain't No Sunshine.wav

Peak level 100.0 %
Extraction speed 2.2 X
Track quality 100.0 %
Test CRC 11BF250D
Copy CRC 11BF250D
Accurately ripped (confidence 3) [427A22A7] (AR v1)
Copy OK

Track 18

Filename C:\Users\porcupine\Desktop\EAC\18 - I Wanna Be Where You Are.wav

Peak level 100.0 %
Extraction speed 2.2 X
Track quality 100.0 %
Test CRC 61818912
Copy CRC 61818912
Accurately ripped (confidence 3) [29C8C4C7] (AR v1)
Copy OK

Track 19

Filename C:\Users\porcupine\Desktop\EAC\19 - Introduction by Jermaine.wav

Peak level 99.4 %
Extraction speed 1.7 X
Track quality 100.0 %
Test CRC 8D27A8CE
Copy CRC 8D27A8CE
Accurately ripped (confidence 3) [5E997F67] (AR v1)
Copy OK

Track 20

Filename C:\Users\porcupine\Desktop\EAC\20 - That's How Love Goes.wav

Peak level 100.0 %
Extraction speed 2.2 X
Track quality 100.0 %
Test CRC 25CB9EF1
Copy CRC 25CB9EF1
Accurately ripped (confidence 3) [99857528] (AR v1)
Copy OK

Track 21

Filename C:\Users\porcupine\Desktop\EAC\21 - Never Can Say Goodbye.wav

Peak level 100.0 %
Extraction speed 2.4 X
Track quality 100.0 %
Test CRC CAA1A829
Copy CRC CAA1A829
Accurately ripped (confidence 3) [05F57F7D] (AR v1)
Copy OK

Track 22

Filename C:\Users\porcupine\Desktop\EAC\22 - Walk On.wav

Peak level 100.0 %
Extraction speed 2.2 X
Track quality 100.0 %
Test CRC AEBA1BE5
Copy CRC AEBA1BE5
Accurately ripped (confidence 3) [D735CB7C] (AR v1)
Copy OK

Track 23

Filename C:\Users\porcupine\Desktop\EAC\23 - The Love You Save.wav

Peak level 100.0 %
Extraction speed 2.4 X
Track quality 100.0 %
Test CRC 67C7A87A
Copy CRC 67C7A87A
Accurately ripped (confidence 3) [07DEEE75] (AR v1)
Copy OK

Track 24

Filename C:\Users\porcupine\Desktop\EAC\24 - I Wanna Be Where You Are.wav

Pre-gap length 0:00:04.71

Peak level 85.3 %
Extraction speed 2.5 X
Track quality 100.0 %
Test CRC BA124F76
Copy CRC BA124F76
Accurately ripped (confidence 3) [44448A97] (AR v1)
Copy OK


All tracks accurately ripped

No errors occurred

End of status report

==== Log checksum 59709527ACF7989B140F788C8C06CC46E6D287AFA0FE0C71BE2A22660EAC2263 ====

––––––––––––––––––––––––––––––––––––––––
Analyzed: The Jackson 5 / Live at the Forum Disc 1
––––––––––––––––––––––––––––––––––––––––

DR Peak RMS Duration Track
––––––––––––––––––––––––––––––––––––––––
DR9 -5.41 dB -20.37 dB 0:42 01-Introduction
DR10 0.00 dB -11.99 dB 3:08 02-I Want You Back
DR9 0.00 dB -10.22 dB 4:51 03-Feelin' Alright
DR11 0.00 dB -13.88 dB 4:56 04-Who's Lovin' You
DR13 -0.02 dB -14.32 dB 2:22 05-Walk On
DR9 0.00 dB -10.57 dB 3:41 06-Don't Know Why I Love You
DR12 0.00 dB -13.52 dB 2:55 07-Zip-a-Dee-Doo-Dah
DR11 0.00 dB -12.30 dB 3:33 08-ABC
DR9 0.00 dB -11.48 dB 4:55 09-It's Your Thing
DR10 -0.15 dB -12.05 dB 4:46 10-I Found That Girl
DR10 0.00 dB -12.64 dB 3:15 11-There Was a Time
DR11 0.00 dB -13.55 dB 7:08 12-Thank You Falettinme Be Mice Elf Agin
DR10 0.00 dB -11.80 dB 3:36 13-The Love You Save
DR10 0.00 dB -10.86 dB 3:10 14-Mama's Pearl
––––––––––––––––––––––––––––––––––––––––

Number of tracks: 14
Official DR value: DR10

Samplerate: 44100 Hz
Channels: 2
Bits per sample: 16
Bitrate: 902 kbps
Codec: FLAC
================================================================================

––––––––––––––––––––––––––––––––––––––––
Analyzed: The Jackson 5 / Live at the Forum Disc 2
––––––––––––––––––––––––––––––––––––––––

DR Peak RMS Duration Track
––––––––––––––––––––––––––––––––––––––––
DR8 0.00 dB -9.64 dB 3:01 01-Brand New Thing
DR9 0.00 dB -9.64 dB 4:51 02-Medley- I Want You Back-ABC-Mama's Pearl
DR9 0.00 dB -9.97 dB 2:57 03-Sugar Daddy
DR8 0.00 dB -9.95 dB 4:04 04-I'll Be There
DR13 -0.43 dB -18.30 dB 1:57 05-Introduction by Michael
DR6 -0.50 dB -8.83 dB 3:56 06-Goin' Back to Indiana-Brand New Thing-Goin' Back to Indiana
DR6 -1.50 dB -9.18 dB 2:21 07-Bridge Over Troubled Water
DR6 -1.50 dB -9.71 dB 3:41 08-I Found That Girl
DR7 -1.82 dB -10.07 dB 2:59 09-I'm So Happy
DR5 -2.00 dB -9.19 dB 3:53 10-Lookin' Through the Windows
DR6 -2.00 dB -10.56 dB 2:36 11-Ain't Nothing Like the Real Thing
DR10 -2.32 dB -19.97 dB 0:22 12-Introduction by Jackie
DR9 -2.00 dB -14.07 dB 2:39 13-Ben
DR4 -0.05 dB -7.54 dB 2:31 14-Rockin' Robin
DR9 0.00 dB -11.74 dB 2:12 15-Got to Be There
DR7 0.00 dB -8.90 dB 2:21 16-You've Got a Friend
DR8 0.00 dB -10.56 dB 5:29 17-Ain't No Sunshine
DR8 0.00 dB -9.93 dB 3:42 18-I Wanna Be Where You Are
DR13 -0.05 dB -16.96 dB 1:10 19-Introduction by Jermaine
DR7 0.00 dB -9.02 dB 3:16 20-That's How Love Goes
DR7 0.00 dB -8.96 dB 4:43 21-Never Can Say Goodbye
DR9 0.00 dB -10.18 dB 2:22 22-Walk On
DR8 0.00 dB -9.72 dB 3:54 23-The Love You Save
DR7 -1.37 dB -10.34 dB 4:14 24-I Wanna Be Where You Are
––––––––––––––––––––––––––––––––––––––––

Number of tracks: 24
Official DR value: DR8

Samplerate: 44100 Hz
Channels: 2
Bits per sample: 16
Bitrate: 961 kbps
Codec: FLAC
================================================================================

All thanks to porcupine & kurgudu

password: BlondStyle