Tags
Language
Tags
November 2022
Su Mo Tu We Th Fr Sa
30 31 1 2 3 4 5
6 7 8 9 10 11 12
13 14 15 16 17 18 19
20 21 22 23 24 25 26
27 28 29 30 1 2 3

Thelma Houston - The MoWest Album (1972/1973) [2012, Remastered & Expanded Edition]

Posted By: BlondStyle
Thelma Houston - The MoWest Album (1972/1973) [2012, Remastered & Expanded Edition]

Thelma Houston - The MoWest Album (1972/1973) [2012, Remastered & Expanded Edition]
R&B, Soul/Funk, Pop-Soul, Country | EAC Rip | FLAC, Img+CUE+LOG+Scans (PNG) | 01:02:58 | 689,09 Mb
Label: UMG Recordings, Inc./SoulMusic Records (UK) | Cat.# SMCR 5072 | Released: 2012-10-15 (1972/1973)
Thelma Houston - The MoWest Album (1972/1973) [2012, Remastered & Expanded Edition]

"Thelma Houston" is the 2nd album by American Soul and R&B singer Thelma Houston, recorded in 1972. The album includes the single, "Me and Bobby McGee". This is her first album recorded with Motown Records under the Mowest label. The album was arranged by Artie Butler, Michael Omartian, Gene Page, James Anthony Carmichael and John Myles. Two versions of the album were issued, a ten track version in the US in 1972 and a fourteen track version in the UK and Germany in 1973. The album was later reissued on CD in an expanded edition by Soulmusic Records in 2012.
~Wikipedia

Thelma Houston - The MoWest Album (1972/1973) [2012, Remastered & Expanded Edition]

Smoldering & passionate gorgeous cover photo tell the story about the blistering content contained throughout mesmerizing "Thelma Houston" masterpiece, following Jimmy Webb produced & composed glorious "Sunshower" masterpiece, these tremendous master-class vocal collections should have sold millions while winning numerous Grammy Awards, yet the Music Industry for some strange reason didn't give push and promotion to these phenomenal works, so except for us extremely lucky hardcore music lovers, these classic soul-deep hypnotic gems sadly went unnoticed by the masses, this sublime Motown Records debut Lp strangely went unreleased on Compact Disc close to forty years! "Thelma Houston" like luminous predecessor "Sunshower" is timeless in its appeal, showcasing one of the greatest and most glorious voices in music over the past fifty years, thankfully legendary lady still in magnificent form and anyone lucky to be around when the amazing lady is performing live, don't miss the opportunity to see a gifted artist in concert who is a totally mesmerizing musical experience beyond compare. Original "Thelma Houston" LP release features amazing variety with great songs like haunting & mesmerizing "I'm Letting Go", stunning passionate performance alone worth price of entire collection...unforgettable songs composed by a first-rate range of composers such as Patti Dahlstrom, Anthony Newley, Kris Kristofferson, Gloria Jones, Al Cooper, legendary team Barry Mann/Cynthia Weil while incredible bonus tracks feature composing masters Michael Masser/Pam Sawyer/Gloria Jones and Berry Gordy, yet with all this diversity songs flow like honey throughout this brilliant collection that has got to be best ever vocal collection on classic Motown Records...Bravo Thelma Houston, you're a peerless & magnificent original!
~Review by Bradly Briggs

Thelma Houston - The MoWest Album (1972/1973) [2012, Remastered & Expanded Edition]

Thelma Houston - The MoWest Album (1972/1973) [2012, Remastered & Expanded Edition]


Release of the album: 1972 [LP MoWest, Cat.# MW 102L, USA] / 1973 [LP MoWest, Cat.# MWS 7003, UK]
Release of this CD: 2012, October, 15 [CD UMG Recordings, Inc./SoulMusic Records (UK), Cat.# SMCR 5072 / UPC: 5013929077232]
℗ 1971-1973 UMG Recordings, Inc.
©&℗ 2012 SoulMusic Records.
Marketed and Distributed by Cherry Red Records, Ltd.
Made in EU/MCPS


Notes:

Tracks 01-10 (from US version of the LP "Thelma Houston" released in 1972);
Tracks 11-15 (from UK version of the LP "Thelma Houston" released in 1973);
Track 16 (US MoWest single 5013 "B" side);
Track 17 (US MoWest single 5008 "B" side);
Track 18 (US MoWest single 5050);
Track 19 (US MoWest single 5050 "B" side)
Tracks 1, 4, 6, 10, 12, 13, 15-19, published by EMI Music/Jobete Music


Credits:

Design – Roger Williams
Liner Notes – Sharon Davis
Produced by:
Tracks 1, 4, 6, 8 & 10, produced by Joe Porter and arranged by Artie Butler;
Tracks 2, 5 & 7, produced by Joe Porter and arranged by Michael O'Martian;
Track 3, produced by Mel Larson & Jerry Marcellino, arranged by John Myles & Gene Page;
Track 9, produced by Al Cleveland & Eddie Langford, arranged by Gene Page;
Track 11, 13, 17, produced by Mel Larson & Jerry Marcellino, arranged by James Carmichael;
Track 12, 15, produced by Gloria Jones & Pam Sawyer, arranged by James Carmichael;
Track 14, produced by Hal Davis;
Track 16, produced by Hal Davis, arranged by James Carmichael;
Tracks 18 & 19, produced by Michael Masser;
Reissue Producer – David Nathan
Remastered By – Alan Wilson


Tracklist:

01. What If (02:58)
(P. Dalhstrom)
02. There's No Such Thing As Love (03:02)
(I. Frasier / A. Newley)
03. Me And Bobby McGee (03:24)
(K. Kristofferson / F. Foster)
04. I'm Letting Go (03:41)
(S. Browne / P. Dalhstrom)
05. Do Something About It (02:26)
(B. Peters)
06. There Is A God (04:57)
(A. Cooper)
07. Black California (03:02)
(B. Mann / C. Weil)
08. And I Never Did (03:02)
(P. Dalhstrom)
09. Blackberries (03:06)
(B. White)
10. And I Thought You Loved Me (02:50)
(N. Zesses / D. Fekaris)

Bonus Tracks:

11. No One's Gonna Be A Fool Forever (03:18)
(M. Masser / P. Sawyer)
12. I Ain't Going Nowhere (03:19)
(G. Jones / P. Sawyer)
13. Nothing Left To Give (03:24)
(M. Larson / J. Marcellino)
14. Stealing In The Name Of The Lord (03:51)
(P. Kelly)
15. I Ain't That Easy To Lose (04:23)
(G. Jones / P. Sawyer)
16. I Want To Go Back There Again (02:32)
(B. Gordy Jr.)
17. Pick Of The Week (03:04)
(M. Larson / J. Marcellino)
18. Piano Man (03:30)
(M. Masser / K. Dunham)
19. I'm Just A Part Of Yesterday (03:09)
(M. Masser / P. Sawyer)

Exact Audio Copy V1.3 from 2. September 2016

EAC extraction logfile from 4. April 2020, 21:16

Thelma Houston / The MoWest Album (Thelma Houston)

Used drive : PIONEER BD-RW BDR-208D Adapter: 1 ID: 0

Read mode : Secure
Utilize accurate stream : Yes
Defeat audio cache : Yes
Make use of C2 pointers : No

Read offset correction : 667
Overread into Lead-In and Lead-Out : No
Fill up missing offset samples with silence : Yes
Delete leading and trailing silent blocks : No
Null samples used in CRC calculations : Yes
Used interface : Native Win32 interface for Win NT & 2000

Used output format : Internal WAV Routines
Sample format : 44.100 Hz; 16 Bit; Stereo


TOC of the extracted CD

Track | Start | Length | Start sector | End sector
––––––––––––––––––––––––––––-
1 | 0:00.00 | 2:58.24 | 0 | 13373
2 | 2:58.24 | 3:02.03 | 13374 | 27026
3 | 6:00.27 | 3:24.50 | 27027 | 42376
4 | 9:25.02 | 3:41.17 | 42377 | 58968
5 | 13:06.19 | 2:26.70 | 58969 | 69988
6 | 15:33.14 | 4:57.44 | 69989 | 92307
7 | 20:30.58 | 3:02.70 | 92308 | 106027
8 | 23:33.53 | 3:02.38 | 106028 | 119715
9 | 26:36.16 | 3:06.30 | 119716 | 133695
10 | 29:42.46 | 2:50.46 | 133696 | 146491
11 | 32:33.17 | 3:18.08 | 146492 | 161349
12 | 35:51.25 | 3:19.58 | 161350 | 176332
13 | 39:11.08 | 3:24.35 | 176333 | 191667
14 | 42:35.43 | 3:51.69 | 191668 | 209061
15 | 46:27.37 | 4:23.23 | 209062 | 228809
16 | 50:50.60 | 2:32.38 | 228810 | 240247
17 | 53:23.23 | 3:04.26 | 240248 | 254073
18 | 56:27.49 | 3:30.62 | 254074 | 269885
19 | 59:58.36 | 3:09.66 | 269886 | 284126


Range status and errors

Selected range

Filename D:\BlondStyle\The MoWest Album (Thelma Houston).wav

Peak level 100.0 %
Extraction speed 7.0 X
Range quality 100.0 %
Test CRC 614103B2
Copy CRC 614103B2
Copy OK

No errors occurred


AccurateRip summary

Track 1 accurately ripped (confidence 8) [3A90548A] (AR v2)
Track 2 accurately ripped (confidence 8) [76EDB65A] (AR v2)
Track 3 accurately ripped (confidence 8) [832C8370] (AR v2)
Track 4 accurately ripped (confidence 8) [6FB49544] (AR v2)
Track 5 accurately ripped (confidence 8) [DF169D50] (AR v2)
Track 6 accurately ripped (confidence 8) [3E6850BF] (AR v2)
Track 7 accurately ripped (confidence 8) [AC70A623] (AR v2)
Track 8 accurately ripped (confidence 8) [E8207EBB] (AR v2)
Track 9 accurately ripped (confidence 8) [AFB277BA] (AR v2)
Track 10 accurately ripped (confidence 8) [E3AEC3E5] (AR v2)
Track 11 accurately ripped (confidence 8) [6D8D9B3F] (AR v2)
Track 12 accurately ripped (confidence 8) [8DFB9837] (AR v2)
Track 13 accurately ripped (confidence 8) [93893919] (AR v2)
Track 14 accurately ripped (confidence 8) [3DC6E674] (AR v2)
Track 15 accurately ripped (confidence 8) [8AF28DAC] (AR v2)
Track 16 accurately ripped (confidence 8) [72F3EA38] (AR v2)
Track 17 accurately ripped (confidence 8) [5E00DFC3] (AR v2)
Track 18 accurately ripped (confidence 8) [2F1E6047] (AR v2)
Track 19 accurately ripped (confidence 8) [CDF8B2D8] (AR v2)

All tracks accurately ripped

End of status report

–– CUETools DB Plugin V2.1.6

[CTDB TOCID: Lz8FhGArR5bt2tCObjVm3J7q8vI-] found
Submit result: Lz8FhGArR5bt2tCObjVm3J7q8vI- has been confirmed
Track | CTDB Status
1 | (6/6) Accurately ripped
2 | (6/6) Accurately ripped
3 | (6/6) Accurately ripped
4 | (6/6) Accurately ripped
5 | (6/6) Accurately ripped
6 | (6/6) Accurately ripped
7 | (6/6) Accurately ripped
8 | (6/6) Accurately ripped
9 | (6/6) Accurately ripped
10 | (6/6) Accurately ripped
11 | (6/6) Accurately ripped
12 | (6/6) Accurately ripped
13 | (6/6) Accurately ripped
14 | (6/6) Accurately ripped
15 | (6/6) Accurately ripped
16 | (6/6) Accurately ripped
17 | (6/6) Accurately ripped
18 | (6/6) Accurately ripped
19 | (6/6) Accurately ripped


==== Log checksum 0C8CC24A9B48C8CE05505385B2569E7A01CA620F9EC9EBFFBC58DFBC4F646867 ====

[Disc ID: 002b1d3e-025d9b2e-1c0ecc13]
Track [ CRC ] Status
01 [c8292d3d] (02/10) Accurately ripped as in pressing(s) #2
02 [405bf144] (02/10) Accurately ripped as in pressing(s) #2
03 [2415baeb] (02/10) Accurately ripped as in pressing(s) #2
04 [322e3451] (02/10) Accurately ripped as in pressing(s) #2
05 [65f2a78f] (02/10) Accurately ripped as in pressing(s) #2
06 [8609773b] (02/10) Accurately ripped as in pressing(s) #2
07 [5f9f4eec] (02/10) Accurately ripped as in pressing(s) #2
08 [1cf350c6] (02/10) Accurately ripped as in pressing(s) #2
09 [d1364864] (02/10) Accurately ripped as in pressing(s) #2
10 [6f550549] (02/10) Accurately ripped as in pressing(s) #2
11 [dcc29546] (02/10) Accurately ripped as in pressing(s) #2
12 [bf9ad40e] (02/10) Accurately ripped as in pressing(s) #2
13 [10487787] (02/10) Accurately ripped as in pressing(s) #2
14 [4e4e6c85] (02/10) Accurately ripped as in pressing(s) #2
15 [ad753580] (02/10) Accurately ripped as in pressing(s) #2
16 [5c277a7f] (02/10) Accurately ripped as in pressing(s) #2
17 [a66df69f] (02/10) Accurately ripped as in pressing(s) #2
18 [2fa42a5b] (02/10) Accurately ripped as in pressing(s) #2
19 [f2c04931] (02/10) Accurately ripped as in pressing(s) #2

––––––––––––––––––––––––––––––––––––––––
Analyzed: Thelma Houston / The MoWest Album (Thelma Houston)
––––––––––––––––––––––––––––––––––––––––

DR Peak RMS Duration Track
––––––––––––––––––––––––––––––––––––––––
DR12 0.00 dB -16.02 dB 2:58 01-What If
DR11 0.00 dB -15.19 dB 3:02 02-There's No Such Thing As Love
DR14 0.00 dB -16.25 dB 3:25 03-Me And Bobby McGee
DR13 0.00 dB -18.02 dB 3:41 04-I'm Letting Go
DR13 0.00 dB -16.04 dB 2:27 05-Do Something About It
DR12 0.00 dB -14.74 dB 4:58 06-There Is A God
DR12 -0.18 dB -14.69 dB 3:03 07-Black California
DR12 0.00 dB -16.12 dB 3:03 08-And I Never Did
DR13 0.00 dB -14.90 dB 3:06 09-Blackberries
DR12 0.00 dB -14.54 dB 2:51 10-And I Thought You Loved Me
DR13 0.00 dB -14.92 dB 3:18 11-No One's Gonna Be A Fool Forever (Bonus Track)
DR12 0.00 dB -12.92 dB 3:20 12-I Ain't Going Nowhere (Bonus Track)
DR12 0.00 dB -14.59 dB 3:24 13-Nothing Left To Give (Bonus Track)
DR12 0.00 dB -14.24 dB 3:52 14-Stealing In The Name Of The Lord (Bonus Track)
DR11 0.00 dB -13.01 dB 4:23 15-I Ain't That Easy To Lose (Bonus Track)
DR9 0.00 dB -11.41 dB 2:33 16-I Want To Go Back There Again (Bonus Track)
DR12 0.00 dB -14.03 dB 3:04 17-Pick Of The Week (Bonus Track)
DR11 0.00 dB -13.75 dB 3:31 18-Piano Man (Bonus Track)
DR8 0.00 dB -11.56 dB 3:10 19-I'm Just A Part Of Yesterday (Bonus Track)
––––––––––––––––––––––––––––––––––––––––

Number of tracks: 19
Official DR value: DR12

Samplerate: 44100 Hz
Channels: 2
Bits per sample: 16
Bitrate: 818 kbps
Codec: FLAC
================================================================================

See also:
Ride To The Rainbow (1979) [2005, Japan]
A Woman's Touch (2007)

♫~Welcome To My Blog~♫

password: BlondStyle