Tags
Language
Tags

Tom Tom Club - The Good, The Bad And The Funky (2000)

Posted By: Designol
Tom Tom Club - The Good, The Bad And The Funky (2000)

Tom Tom Club - The Good, The Bad And The Funky (2000)
EAC | FLAC | Tracks (Cue&Log) ~ 450 Mb | Mp3 (CBR320) ~ 148 Mb | Scans ~ 61 Mb
Label: Rykodisc/Tip Top | # RCD 10603 | Time: 01:04:34
Electronic, Dub, New Wave, Dance-Rock

This aptly titled release from '80s art rockers and Talking Heads side project Tom Tom Club is indeed good, bad, and funky. Tina Weymouth and Chris Frantz have explored a stunning amount of musical styles within the confines of this album, with every song sounding like it was produced by a different group. The use of a variety of vocalists, including Weymouth, who at times sounds like a 16-year-old Japanese girl instead of her more mature self, as well as Mystic Bowie and Charles Pettigrew only seems to heighten the variety of sounds offered. The lyrics are simple, yet clever, and laid over a variety of sampled tracks, scratching, and other turntablism and live instrumentation. The resulting sound ranges from dub to dance-pop to spacy funk. The variety does allow for some unevenness, however, though duds like the repetitive and spare "Time to Bounce" are more than balanced by gems like "Happiness Can't Buy Money" and the instrumental cleverness of "Lesbians by the Lake," among others.

Review by Stacia Proefrock, Allmusic.com

Tom Tom Club - The Good, The Bad And The Funky (2000)



Tracklist:

01. Time to Bounce (04:07)
02. Who Feelin' It (05:56)
03. Happiness Can't Buy Money (05:42)
04. Holy Water (03:59)
05. Soul Fire (03:38)
06. She's Dangerous (04:24)
07. She's a Freak (03:52)
08. (C'Mon) Surrender (05:03)
09. Love To Love You Baby (04:34)
10. Superdreaming (04:43)
11. Lesbians by the Lake (04:17)
12. Let There Be Love (05:43)
13. Time to Bounce Dub (04:07)
14. Dangerous Dub (04:24)


Exact Audio Copy V1.0 beta 6 from 9. April 2015

EAC extraction logfile from 10. August 2015, 19:55

Tom Tom Club / The Good, The Bad And The Funky

Used drive : HL-DT-STBD-RE GGW-H20L Adapter: 1 ID: 0

Read mode : Secure
Utilize accurate stream : Yes
Defeat audio cache : Yes
Make use of C2 pointers : No

Read offset correction : 667
Overread into Lead-In and Lead-Out : No
Fill up missing offset samples with silence : Yes
Delete leading and trailing silent blocks : No
Null samples used in CRC calculations : Yes
Used interface : Native Win32 interface for Win NT & 2000
Gap handling : Appended to previous track

Used output format : User Defined Encoder
Selected bitrate : 1024 kBit/s
Quality : High
Add ID3 tag : No
Command line compressor : C:\Program Files (x86)\Exact Audio Copy\Flac\flac.exe
Additional command line options : -8 -V -T "ARTIST=%artist%" -T "TITLE=%title%" -T "ALBUM=%albumtitle%" -T "DATE=%year%" -T "TRACKNUMBER=%tracknr%" -T "GENRE=%genre%" -T "PERFORMER=%albuminterpret%" -T "COMPOSER=%composer%" %haslyrics%–tag-from-file=LYRICS="%lyricsfile%"%haslyrics% -T "ALBUMARTIST=%albumartist%" -T "ALBUM ARTIST=%albumartist%" -T "DISCNUMBER=%cdnumber%" -T "TOTALDISCS=%totalcds%" -T "TOTALTRACKS=%numtracks%" -T "COMMENT=EAC V1.0 beta 6, Secure Mode, Test & Copy, AccurateRip, FLAC - 8 - oneanight oan" %source%


TOC of the extracted CD

Track | Start | Length | Start sector | End sector
––––––––––––––––––––––––––––-
1 | 0:00.00 | 4:07.52 | 0 | 18576
2 | 4:07.52 | 5:56.68 | 18577 | 45344
3 | 10:04.45 | 5:42.67 | 45345 | 71061
4 | 15:47.37 | 4:00.73 | 71062 | 89134
5 | 19:48.35 | 3:38.15 | 89135 | 105499
6 | 23:26.50 | 4:24.00 | 105500 | 125299
7 | 27:50.50 | 3:52.05 | 125300 | 142704
8 | 31:42.55 | 5:03.17 | 142705 | 165446
9 | 36:45.72 | 4:34.03 | 165447 | 185999
10 | 41:20.00 | 4:43.50 | 186000 | 207274
11 | 46:03.50 | 4:17.02 | 207275 | 226551
12 | 50:20.52 | 5:45.28 | 226552 | 252454
13 | 56:06.05 | 4:07.60 | 252455 | 271039
14 | 60:13.65 | 4:24.40 | 271040 | 290879


Track 1

Filename C:\oneanight\01 - Time to Bounce.wav

Pre-gap length 0:00:02.00

Peak level 98.8 %
Extraction speed 4.5 X
Track quality 100.0 %
Test CRC 5A6F30C5
Copy CRC 5A6F30C5
Accurately ripped (confidence 4) [821525B8] (AR v2)
Copy OK

Track 2

Filename C:\oneanight\02 - Who Feelin' It.wav

Peak level 100.0 %
Extraction speed 4.7 X
Track quality 99.9 %
Test CRC 77B0448C
Copy CRC 77B0448C
Accurately ripped (confidence 4) [6EF7DB26] (AR v2)
Copy OK

Track 3

Filename C:\oneanight\03 - Happiness Can't Buy Money.wav

Peak level 98.8 %
Extraction speed 5.9 X
Track quality 100.0 %
Test CRC 892E4544
Copy CRC 892E4544
Accurately ripped (confidence 4) [3B7C61F8] (AR v2)
Copy OK

Track 4

Filename C:\oneanight\04 - Holy Water.wav

Peak level 98.8 %
Extraction speed 6.0 X
Track quality 100.0 %
Test CRC 6910D4AA
Copy CRC 6910D4AA
Accurately ripped (confidence 4) [30FAE63B] (AR v2)
Copy OK

Track 5

Filename C:\oneanight\05 - Soul Fire.wav

Pre-gap length 0:00:01.29

Peak level 100.0 %
Extraction speed 6.5 X
Track quality 100.0 %
Test CRC 39167D24
Copy CRC 39167D24
Accurately ripped (confidence 4) [4C588036] (AR v2)
Copy OK

Track 6

Filename C:\oneanight\06 - She's Dangerous.wav

Peak level 98.8 %
Extraction speed 7.0 X
Track quality 100.0 %
Test CRC 361D698A
Copy CRC 361D698A
Accurately ripped (confidence 4) [6A78CA55] (AR v2)
Copy OK

Track 7

Filename C:\oneanight\07 - She's a Freak.wav

Peak level 98.8 %
Extraction speed 5.8 X
Track quality 99.9 %
Test CRC 95D6D45D
Copy CRC 95D6D45D
Accurately ripped (confidence 4) [952AF388] (AR v2)
Copy OK

Track 8

Filename C:\oneanight\08 - (C'Mon) Surrender.wav

Peak level 100.0 %
Extraction speed 7.7 X
Track quality 100.0 %
Test CRC CA41051C
Copy CRC CA41051C
Accurately ripped (confidence 4) [06E38869] (AR v2)
Copy OK

Track 9

Filename C:\oneanight\09 - Love To Love You Baby.wav

Peak level 98.8 %
Extraction speed 7.9 X
Track quality 100.0 %
Test CRC 2F9D3264
Copy CRC 2F9D3264
Accurately ripped (confidence 4) [4D955013] (AR v2)
Copy OK

Track 10

Filename C:\oneanight\10 - Superdreaming.wav

Peak level 100.0 %
Extraction speed 8.3 X
Track quality 100.0 %
Test CRC C635FBA3
Copy CRC C635FBA3
Accurately ripped (confidence 4) [B85887C8] (AR v2)
Copy OK

Track 11

Filename C:\oneanight\11 - Lesbians by the Lake.wav

Peak level 98.8 %
Extraction speed 8.5 X
Track quality 100.0 %
Test CRC 95EE9390
Copy CRC 95EE9390
Accurately ripped (confidence 4) [80CB00BE] (AR v2)
Copy OK

Track 12

Filename C:\oneanight\12 - Let There Be Love.wav

Peak level 98.8 %
Extraction speed 9.1 X
Track quality 100.0 %
Test CRC 3AED354E
Copy CRC 3AED354E
Accurately ripped (confidence 4) [5C923019] (AR v2)
Copy OK

Track 13

Filename C:\oneanight\13 - Time to Bounce Dub.wav

Pre-gap length 0:00:02.24

Peak level 100.0 %
Extraction speed 9.0 X
Track quality 100.0 %
Test CRC D07F1D68
Copy CRC D07F1D68
Accurately ripped (confidence 4) [D5288A77] (AR v2)
Copy OK

Track 14

Filename C:\oneanight\14 - Dangerous Dub.wav

Peak level 98.8 %
Extraction speed 9.3 X
Track quality 100.0 %
Test CRC 9B57438B
Copy CRC 9B57438B
Accurately ripped (confidence 4) [A93351D8] (AR v2)
Copy OK


All tracks accurately ripped

No errors occurred

End of status report

–– CUETools DB Plugin V2.1.6

[CTDB TOCID: YMQrVN7Pw4SEKGukT1Qe7Uixm_E-] found
Submit result: YMQrVN7Pw4SEKGukT1Qe7Uixm_E- has been confirmed
Track | CTDB Status
1 | (3/3) Accurately ripped
2 | (3/3) Accurately ripped
3 | (3/3) Accurately ripped
4 | (3/3) Accurately ripped
5 | (3/3) Accurately ripped
6 | (3/3) Accurately ripped
7 | (3/3) Accurately ripped
8 | (3/3) Accurately ripped
9 | (3/3) Accurately ripped
10 | (3/3) Accurately ripped
11 | (3/3) Accurately ripped
12 | (3/3) Accurately ripped
13 | (3/3) Accurately ripped
14 | (3/3) Accurately ripped


==== Log checksum 35B8843B7BB911DA23EBC84A68FB509B36109BD2BAE4352A6004947504032591 ====

foobar2000 1.2 / Dynamic Range Meter 1.1.1
log date: 2015-08-21 23:09:38

––––––––––––––––––––––––––––––––––––––––
Analyzed: Tom Tom Club / The Good, The Bad And The Funky
––––––––––––––––––––––––––––––––––––––––

DR Peak RMS Duration Track
––––––––––––––––––––––––––––––––––––––––
DR9 -0.10 dB -9.63 dB 4:08 01-Time to Bounce
DR8 0.00 dB -9.35 dB 5:57 02-Who Feelin' It
DR8 -0.10 dB -8.84 dB 5:43 03-Happiness Can't Buy Money
DR7 -0.10 dB -8.13 dB 4:01 04-Holy Water
DR8 0.00 dB -9.12 dB 3:38 05-Soul Fire
DR9 -0.10 dB -9.80 dB 4:24 06-She's Dangerous
DR7 -0.10 dB -8.49 dB 3:52 07-She's a Freak
DR9 0.00 dB -9.64 dB 5:03 08-(C'Mon) Surrender
DR9 -0.10 dB -10.05 dB 4:34 09-Love To Love You Baby
DR9 0.00 dB -9.82 dB 4:44 10-Superdreaming
DR9 -0.10 dB -11.75 dB 4:17 11-Lesbians by the Lake
DR9 -0.10 dB -10.63 dB 5:45 12-Let There Be Love
DR8 0.00 dB -9.85 dB 4:08 13-Time to Bounce Dub
DR9 -0.10 dB -11.31 dB 4:25 14-Dangerous Dub
––––––––––––––––––––––––––––––––––––––––

Number of tracks: 14
Official DR value: DR8

Samplerate: 44100 Hz
Channels: 2
Bits per sample: 16
Bitrate: 985 kbps
Codec: FLAC
================================================================================

Tom Tom Club - The Good, The Bad And The Funky (2000)

Tom Tom Club - The Good, The Bad And The Funky (2000)

All thanks to original releaser - oneanight

More interesting music in My Blog