Subcategories

Tony Joe White - The Heroines (2004) [Repost, New Rip]

Posted By: Designol
Tony Joe White - The Heroines (2004) [Repost, New Rip]

Tony Joe White - The Heroines (2004)
EAC | FLAC | Image (Cue&Log) ~ 263 Mb (incl 5%) | Mp3 (CBR320) ~ 119 Mb (incl 5%) | Scans ~ 140 Mb
Genre: Singer/Songwriter, Swamp Blues, Country Blues | Label: Sanctuary | # SANCD301 | Time: 00:49:43

Tony Joe White, aka the Swamp Fox, has been on a roll these past few years, issuing album after self-released album of quality original material full of deep, dark, blues-flavored Florida vintage roots music.Heroines is no exception, but it is a record with a twist. First, it's on the Sanctuary label. Secondly, five of the record's 12 tracks are recorded with female vocalists in duet. They include the great Jessi Colter, Shelby Lynne, Emmylou Harris, Lucinda Williams, and Michelle White. The set opens with "Gabriella," a brief, jazzy flamenco-kissed instrumental, played on a pair of acoustic guitars. "Can't Go Back Home" stars Lynne. A true laid-back Tony Joe nocturnal swamp blues, it nonetheless carries within it that slightly menacing tension. Lynne's voice, which is well known for its power, showcases its other side here, one that is expressive, soulful and sensual even on slow burn. White's vocal whispers its edgy truth, underscored by his signature guitar sound. "Closing in the Fire," with Williams, is a steamy, R&B growler with horns. The riff is a mid-tempo take-off from her own "Hot Blood," and this tune feels as if it is an update of hers. "Playa del Carmen Night," with its Spanish folk overtones, is a duet between White and his daughter Michelle. It's a whispering love ballad, one that shimmers with acoustic guitars and hand percussion. Michelle White, a fine country and blues singer in her own right, brings the notion of memory inherent in the song's body full-force to the front line. It's bittersweet and beautiful. "Wild Wolf Calling Me" features Harris in fine voice at her country gospel best. White's baritone snakes around her plaintive wail and moan and brings a hint of the foreboding eternal to her testament. Colter is a country music legend, and this track's the evidence as to why. Her subdued, deeply expressive, reedy croon goes up against the fuzzed-up blues guitars, while White's ominous baritone adds depth, and an otherworldly dimension, to his song. The rest of the cuts here, with White taking the vocals on his own, are fine as well. They simmer, just below the boiling point, touching on everything from backwoods life, love, politics, and spirituality, to the chaos in a country where firearms do more talking than at any time since the Old West, as in "Chaos Boogie." Tony Joe's writing is flawless, his guitar playing is phenomenal; he gets more creative, funky expression from his minimal, fluid approach than many players who use a lot more notes. Heroines is another winner in the Swamp Fox catalog that once more proves not only is he a vital artist 35 years after his first big hit, but one whose consistency is remarkable and unsullied.

Review by Thom Jurek, Allmusic.com

Tony Joe White - The Heroines (2004) [Repost, New Rip]



Tracklist:

01. Gabriella (01:49)
02. Can't Go Back Home [w. Shelby Lynne] (04:23)
03. Ice Cream Man (04:28)
04. Closing In on the Fire [w. Lucinda Williams] (04:29)
05. Black Porch Therapy (04:17)
06. Playa del Carmen Nights [w. Michelle White] (04:37)
07. Wild Wolf Calling Me [w. Emmylou Harris] (04:08)
08. Rich Woman Blues (04:56)
09. Robbin' My Honeycomb (05:10)
10. Fire Flies in the Storm [w. Jessi Colter] (04:18)
11. Chaos Boogie (05:38)
12. Gabriella's Affair (01:26)


Exact Audio Copy V1.0 beta 6 from 9. April 2015

EAC extraction logfile from 15. December 2015, 19:00

Tony Joe White / The Heroines

Used drive : PLEXTOR DVDR PX-891SA Adapter: 0 ID: 2

Read mode : Secure
Utilize accurate stream : Yes
Defeat audio cache : Yes
Make use of C2 pointers : No

Read offset correction : 6
Overread into Lead-In and Lead-Out : No
Fill up missing offset samples with silence : Yes
Delete leading and trailing silent blocks : No
Null samples used in CRC calculations : Yes
Used interface : Installed external ASPI interface

Used output format : User Defined Encoder
Selected bitrate : 320 kBit/s
Quality : High
Add ID3 tag : No
Command line compressor : C:\Program Files\Exact Audio Copy 1.0 b6\Exact Audio Copy\Flac\flac.exe
Additional command line options : -V -8 -T "Date=%year%" -T "Genre=%genre%" %source%


TOC of the extracted CD

Track | Start | Length | Start sector | End sector
––––––––––––––––––––––––––––-
1 | 0:00.00 | 1:49.22 | 0 | 8196
2 | 1:49.22 | 4:23.50 | 8197 | 27971
3 | 6:12.72 | 4:28.21 | 27972 | 48092
4 | 10:41.18 | 4:29.26 | 48093 | 68293
5 | 15:10.44 | 4:17.17 | 68294 | 87585
6 | 19:27.61 | 4:37.28 | 87586 | 108388
7 | 24:05.14 | 4:08.36 | 108389 | 127024
8 | 28:13.50 | 4:56.68 | 127025 | 149292
9 | 33:10.43 | 5:10.09 | 149293 | 172551
10 | 38:20.52 | 4:18.14 | 172552 | 191915
11 | 42:38.66 | 5:38.04 | 191916 | 217269
12 | 48:16.70 | 1:26.41 | 217270 | 223760


Range status and errors

Selected range

Filename L:\Lossless Temp\Tony Joe White\2004. Tony Joe White - The Heroines (2004 Sanctuary Records, SANCD301, E.U.)\Tony Joe White - The Heroines.wav

Peak level 99.9 %
Extraction speed 8.1 X
Range quality 100.0 %
Test CRC 1BF84359
Copy CRC 1BF84359
Copy OK

No errors occurred


AccurateRip summary

Track 1 accurately ripped (confidence 3) [01E20F9A] (AR v2)
Track 2 accurately ripped (confidence 3) [7D268E09] (AR v2)
Track 3 accurately ripped (confidence 3) [B12ACB99] (AR v2)
Track 4 accurately ripped (confidence 3) [6055EBFA] (AR v2)
Track 5 accurately ripped (confidence 3) [E47F435A] (AR v2)
Track 6 accurately ripped (confidence 3) [9DA3FE6F] (AR v2)
Track 7 accurately ripped (confidence 3) [9F9DDA2A] (AR v2)
Track 8 accurately ripped (confidence 3) [FEC989E2] (AR v2)
Track 9 accurately ripped (confidence 3) [A1059CC8] (AR v2)
Track 10 accurately ripped (confidence 3) [9CA9EF89] (AR v2)
Track 11 accurately ripped (confidence 3) [E478BBE4] (AR v2)
Track 12 accurately ripped (confidence 3) [18C4A18F] (AR v2)

All tracks accurately ripped

End of status report

==== Log checksum CBF27DD9104CEC3D8E0BAFC8CB5279E4B99E2660E00AC74CFC35A813193B2323 ====

foobar2000 1.2 / Dynamic Range Meter 1.1.1
log date: 2015-12-16 15:35:40

––––––––––––––––––––––––––––––––––––––––
Analyzed: Tony Joe White / The Heroines
––––––––––––––––––––––––––––––––––––––––

DR Peak RMS Duration Track
––––––––––––––––––––––––––––––––––––––––
DR13 0.00 dB -17.07 dB 1:49 01-Gabriella
DR10 -0.30 dB -12.11 dB 4:24 02-Can't Go Back Home [w. Shelby Lynne]
DR9 -0.10 dB -11.46 dB 4:28 03-Ice Cream Man
DR10 -0.07 dB -11.67 dB 4:29 04-Closing In on the Fire [w. Lucinda Williams]
DR12 -0.10 dB -14.60 dB 4:17 05-Black Porch Therapy
DR13 -0.10 dB -14.77 dB 4:37 06-Playa del Carmen Nights [w. Michelle White]
DR11 -0.10 dB -12.95 dB 4:08 07-Wild Wolf Calling Me [w. Emmylou Harris]
DR10 -0.41 dB -11.54 dB 4:57 08-Rich Woman Blues
DR10 -0.10 dB -11.38 dB 5:10 09-Robbin' My Honeycomb
DR10 -0.10 dB -11.69 dB 4:18 10-Fire Flies in the Storm [w. Jessi Colter]
DR11 -0.10 dB -13.01 dB 5:38 11-Chaos Boogie
DR14 -0.13 dB -18.09 dB 1:27 12-Gabriella's Affair
––––––––––––––––––––––––––––––––––––––––

Number of tracks: 12
Official DR value: DR11

Samplerate: 44100 Hz
Channels: 2
Bits per sample: 16
Bitrate: 706 kbps
Codec: FLAC
================================================================================

Tony Joe White - The Heroines (2004) [Repost, New Rip]

Tony Joe White - The Heroines (2004) [Repost, New Rip]