Tags
Language
Tags

Tori Amos - Welcome To Sunny Florida + Scarlet's Hidden Treasures EP (2004) DVD9 + CD

Posted By: Designol
Tori Amos - Welcome To Sunny Florida + Scarlet's Hidden Treasures EP (2004) DVD9 + CD

Tori Amos - Welcome To Sunny Florida + Scarlet's Hidden Treasures EP (2004) DVD9 + CD
EAC | FLAC | Image (Cue&Log) ~ 241 Mb | Mp3 (CBR320) ~ 126 Mb | Time: 00:33:47
DVD9 | NTSC | 4:3 (720x480) VBR | LPCM, 2 ch, 1536 kbps / AC3, 6ch, 448 Kbps | 02:19:18 | ~ 7.7 Gb
Adult Alternative Pop/Rock, Piano Rock | Label: Epic | Scans included

Welcome To Sunny Florida was released by Epic Records on May 18, 2004 in North America (U.S. and Canada). The DVD includes live footage from the final show of Tori’s Lottapianos tour, which took place on September 4, 2003 at the Sound Advice Theatre in West Palm Beach, FL. Also included with the DVD is a six song bonus CD of previously unreleased songs called Scarlet’s Hidden Treasures.

Released a year and a half after Tori Amos' Epic debut Scarlet's Walk, 2004's Welcome to Sunny Florida is a DVD/CD set that documents her 2003 supporting tour for the album. The CD is called "Scarlet's Hidden Treasures" and, as its title suggests, it rounds up outtakes from the previous album and a few newer tunes, most moody piano-and-voice affairs, but the bossa nova "Bug a Martini" and "Tombigbee" are memorable, largely because they're the only ones that break from the long, languid ballad template. They're interesting, as is the anti-George W. Bush stance she takes on several songs, but ultimately this EP-length six-track CD is a sideshow to the full-length concert on the DVD. Running nearly three hours total (including bonus special features, such as "Full Length Interviews" and "Tour Yearbook"), the concert contains no surprises – especially to those fans who claim to have seen her 75-100 times at the beginning of the program – but it's a strong performance, and the video is crisp and clean, as is the 5.1 mix. It's not especially a noteworthy performance, but it's a good one, one that's likely to satisfy the hardcore fans it's targeted to.

Review by Stephen Thomas Erlewine, Allmusic.com

Tori Amos at Allmusic
Tori Amos Website
Tori Amos at Wiki

Tori Amos - Welcome To Sunny Florida + Scarlet's Hidden Treasures EP (2004) DVD9 + CD


CD Tracklist:

01. Ruby Through the Looking-Glass (4:55)
02. Seaside (3:25)
03. Bug a Martini (5:04)
04. Apollo's Frock (8:14)
05. Tombigbee (4:27)
06. Indian Summer (7:43)


Exact Audio Copy V0.99 prebeta 3 from 28. July 2007

EAC extraction logfile from 11. February 2008, 16:12

Tori Amos / Scarlet's Hidden Treasures

Used drive : _NEC DVD_RW ND-3550A Adapter: 1 ID: 0

Read mode : Secure
Utilize accurate stream : Yes
Defeat audio cache : Yes
Make use of C2 pointers : No

Read offset correction : 48
Overread into Lead-In and Lead-Out : No
Fill up missing offset samples with silence : Yes
Delete leading and trailing silent blocks : No
Null samples used in CRC calculations : Yes
Used interface : Installed external ASPI interface

Used output format : Monkey's Audio Lossless Encoder v3.99 DLL
Sample format : Normal Lossless Compression


TOC of the extracted CD

Track | Start | Length | Start sector | End sector
––––––––––––––––––––––––––––-
1 | 0:00.00 | 4:54.48 | 0 | 22097
2 | 4:54.48 | 3:24.45 | 22098 | 37442
3 | 8:19.18 | 5:03.41 | 37443 | 60208
4 | 13:22.59 | 8:13.65 | 60209 | 97248
5 | 21:36.49 | 4:27.29 | 97249 | 117302
6 | 26:04.03 | 7:42.56 | 117303 | 152008


Range status and errors

Selected range

Filename E:\!tracker\!2release\Tori Amos\2004 - Scarlet's Hidden Treasures\Tori Amos - Scarlet's Hidden Treasures.ape

Peak level 99.8 %
Range quality 100.0 %
Test CRC 36540706
Copy CRC 36540706
Copy OK

No errors occurred


AccurateRip summary

Track 1 accurately ripped (confidence 22) [BB947C49]
Track 2 accurately ripped (confidence 22) [2DA0B27F]
Track 3 accurately ripped (confidence 21) [6D094FA1]
Track 4 accurately ripped (confidence 21) [C7CDADE6]
Track 5 accurately ripped (confidence 20) [20C4136D]
Track 6 accurately ripped (confidence 21) [0221C264]

All tracks accurately ripped

End of status report

[CUETools log; Date: 29.03.2019 17:56:42; Version: 2.1.4]
[CTDB TOCID: 22361XT2UKifLJFXdA4BG5mSaIU-] found.
Track | CTDB Status
1 | (174/181) Accurately ripped
2 | (177/181) Accurately ripped
3 | (176/181) Accurately ripped
4 | (177/181) Accurately ripped
5 | (177/181) Accurately ripped
6 | (177/181) Accurately ripped
[AccurateRip ID: 00076ba7-00287560-4b07ea06] found.
Track [ CRC | V2 ] Status
01 [bb947c49|662d7f6e] (070+091/212) Accurately ripped
02 [2da0b27f|183a8839] (071+090/213) Accurately ripped
03 [6d094fa1|5867cd33] (070+091/213) Accurately ripped
04 [c7cdade6|f5662ca1] (071+090/213) Accurately ripped
05 [20c4136d|07089b31] (070+089/211) Accurately ripped
06 [0221c264|4a35dc9e] (071+090/214) Accurately ripped
Offsetted by -1281:
01 [4c0b009c] (021/212) Accurately ripped
02 [8f39c0d2] (021/213) Accurately ripped
03 [73cc6419] (021/213) Accurately ripped
04 [70bf5c9f] (021/213) Accurately ripped
05 [c16ab2a3] (021/211) Accurately ripped
06 [b589df79] (022/214) Accurately ripped
Offsetted by -849:
01 [e2f8048c] (002/212) Accurately ripped
02 [c83de4c2] (002/213) Accurately ripped
03 [f80947a6] (002/213) Accurately ripped
04 [0fdc01e4] (002/213) Accurately ripped
05 [54abbeb9] (002/211) Accurately ripped
06 [3549fc09] (002/214) Accurately ripped

Track Peak [ CRC32 ] [W/O NULL] [ LOG ]
– 99,8 [36540706] [FF9E49C5] CRC32
01 99,8 [58F2B06B] [AD4C9BCE]
02 93,1 [6E648771] [885499CC]
03 99,8 [564A6B07] [E24FA891]
04 99,8 [D5596F94] [10DD74C3]
05 99,8 [86DC608E] [7FADFA64]
06 99,8 [03B80C50] [2267A1B8]

foobar2000 1.2 / Dynamic Range Meter 1.1.1
log date: 2019-03-29 17:33:21

––––––––––––––––––––––––––––––––––––––––
Analyzed: Tori Amos / Scarlet's Hidden Treasures (EP)
––––––––––––––––––––––––––––––––––––––––

DR Peak RMS Duration Track
––––––––––––––––––––––––––––––––––––––––
DR8 -0.01 dB -9.87 dB 4:55 01-Ruby Through the Looking-Glass
DR8 -0.61 dB -10.82 dB 3:25 02-Seaside
DR8 -0.01 dB -9.59 dB 5:04 03-Bug a Martini
DR10 -0.01 dB -12.72 dB 8:14 04-Apollo's Frock
DR8 -0.01 dB -8.49 dB 4:27 05-Tombigbee
DR8 -0.01 dB -9.60 dB 7:43 06-Indian Summer
––––––––––––––––––––––––––––––––––––––––

Number of tracks: 6
Official DR value: DR8

Samplerate: 44100 Hz
Channels: 2
Bits per sample: 16
Bitrate: 794 kbps
Codec: FLAC
================================================================================




Tori Amos - Welcome To Sunny Florida + Scarlet's Hidden Treasures EP (2004) DVD9 + CD

Tori Amos - Welcome To Sunny Florida + Scarlet's Hidden Treasures EP (2004) DVD9 + CD

Tori Amos - Welcome To Sunny Florida + Scarlet's Hidden Treasures EP (2004) DVD9 + CD

Tori Amos - Welcome To Sunny Florida + Scarlet's Hidden Treasures EP (2004) DVD9 + CD

Tori Amos - Welcome To Sunny Florida + Scarlet's Hidden Treasures EP (2004) DVD9 + CD

Tori Amos - Welcome To Sunny Florida + Scarlet's Hidden Treasures EP (2004) DVD9 + CD


DVD Content:

Welcome:

A sorta fairytale
Sugar
Crucify
Interlude #1
Cornflake Girl
Bells for Her
Concertina
Interlude# 2
Take to the Sky
Leather
Cloud on my Tongue
Cooling
Interlude #3
Your cloud
Father Lucifer
Professional Widow
I can't see New York
Precious Things

Encore:

Tombigbee
Amber Waves
Hey Jupiter
Credits & Vignettes




All thanks to Caker for lossless and stickt for video

More interesting music in My Blog