Subcategories
Tags
Language
Tags

Townes Van Zandt - Texas Troubadour (2005) 4 CD Box Set

Posted By: Designol
Townes Van Zandt - Texas Troubadour (2005) 4 CD Box Set

Townes Van Zandt - Texas Troubadour (2005) 4 CD Box Set
EAC | FLAC | Image (Cue&Log) ~ 1.47 Gb | Mp3 (CBR320) ~ 655 Mb | Scans ~ 549 Mb
Label: Charly Records | # SNAJ 729 CD | Time: 04:45:44
Singer/Songwriter, Country, Country-Folk, Country-Rock

Texas Troubadour is a four-disc box set that packages the late songwriter Townes Van Zandt's first seven studio albums for the Poppy and Tomato labels: For the Sake of the Song (1968); Our Mother the Mountain (1969); Townes Van Zandt (1970); Delta Momma Blues (1971); High, Low and In Between (1972); The Late Great Townes Van Zandt (1972), and Flyin' Shoes (1978). In addition, there are four studio outtakes from 1972-73 and a decent portion of Live at the Old Quarter, Houston issued in 1973. Charly reproduces the original cover art in miniature, two covers to each CD. Sound is the same as on the original CD issues, so fans who already own these albums will not be served by purchasing them again in this format. Musically, the work is superb, and since many of Van Zandt's recordings are out of print, this is a fine argument for getting them altogether. Another plus is Adam Komorowski's extensive biographical essay included in the 36-page color booklet that's loaded with photos.

Review by Thom Jurek, Allmusic.com

Townes Van Zandt - Texas Troubadour (2005) 4 CD Box Set



Tracklist:

CD1:

01. For The Sake Of The Song [Album: For Sake Of The Song] (04:45)
02. Tecumseh Valley [Album: For Sake Of The Song] (02:41)
03. Many A Fine Lady [Album: For Sake Of The Song] (03:51)
04. Quicksilver Daydreams Of Maria [Album: For Sake Of The Song] (03:39)
05. Waitin' Around To Die [Album: For Sake Of The Song] (02:23)
06. I'll Be Here In The Morning [Album: For Sake Of The Song] (02:44)
07. Sad Cinderella [Album: For Sake Of The Song] (04:40)
08. The Velvet Voices [Album: For Sake Of The Song] (03:13)
09. All Your Young Servants [Album: For Sake Of The Song] (02:57)
10. Talkin' Karate Blues [Album: For Sake Of The Song] (03:05)
11. Sixteen Summers, Fifteen Falls [Album: For Sake Of The Song] (02:36)
12. Be Here To Love Me [Album: Our Mother The Mountain] (02:36)
13. Kathleen [Album: Our Mother The Mountain] (02:45)
14. She Came And She Touched Me [Album: Our Mother The Mountain] (04:01)
15. Like A Summer Thursday [Album: Our Mother The Mountain] (03:02)
16. Our Mother The Mountain [Album: Our Mother The Mountain] (04:20)
17. Second Lover's Song [Album: Our Mother The Mountain] (02:14)
18. St. John The Gambler [Album: Our Mother The Mountain] (03:03)
19. Tecumseh Valley [Album: Our Mother The Mountain] (04:53)
20. Snake Mountain Blues [Album: Our Mother The Mountain] (02:37)
21. My Proud Mountains [Album: Our Mother The Mountain] (05:02)
22. Whe She's Acting This Way [Album: Our Mother The Mountain] (05:23)


CD2:

01. For The Sake Of The Song [Album: Townes Van Zandt] (05:18)
02. Columbine [Album: Townes Van Zandt] (02:30)
03. Waitin' Around To Die [Album: Townes Van Zandt] (02:41)
04. Don't Take It Too Bad [Album: Townes Van Zandt] (02:50)
05. Colorado Girl [Album: Townes Van Zandt] (03:15)
06. Lungs [Album: Townes Van Zandt] (02:25)
07. I'll Be Here In The Morning [Album: Townes Van Zandt] (02:57)
08. Fare Thee Well, Miss Carousel [Album: Townes Van Zandt] (05:17)
09. (Quicksilver Daydreams Of) Maria [Album: Townes Van Zandt] (04:41)
10. None But The Rain [Album: Townes Van Zandt] (02:23)
11. F.F.V. [Album: Delta Momma Blues] (03:32)
12. Delta Momma Blues [Album: Delta Momma Blues] (03:56)
13. Only Him Or Me [Album: Delta Momma Blues] (02:27)
14. Turnstyled, Junkpiled [Album: Delta Momma Blues] (03:20)
15. Tower Song [Album: Delta Momma Blues] (04:07)
16. Come Tomorrow [Album: Delta Momma Blues] (02:54)
17. Brand New Companion [Album: Delta Momma Blues] (04:41)
18. Where I Lead Me [Album: Delta Momma Blues] (02:47)
19. Rake [Album: Delta Momma Blues] (04:01)
20. Nothin' [Album: Delta Momma Blues] (02:46)

CD3:

01. Two Hands [Album: High, Low And In Between] (02:34)
02. You Are Not Needed Now [Album: High, Low And In Between] (04:15)
03. Greensboro Woman [Album: High, Low And In Between] (02:21)
04. Highway Kind [Album: High, Low And In Between] (02:15)
05. Standin' [Album: High, Low And In Between] (03:23)
06. No Deal [Album: High, Low And In Between] (03:13)
07. To Live Is To Fly [Album: High, Low And In Between] (03:15)
08. When He Offers His Hand [Album: High, Low And In Between] (03:00)
09. Mr. Mudd And Mr. Gold [Album: High, Low And In Between] (02:22)
10. Blue Ridge Mountains [Album: High, Low And In Between] (02:10)
11. High, Low And In Between [Album: High, Low And In Between] (03:13)
12. No Lonesome Tune [Album: The Late Great Townes Van Zandt] (04:20)
13. Sad Cinderella [Album: The Late Great Townes Van Zandt] (04:15)
14. German Mustard (A Clapalong) [Album: The Late Great Townes Van Zandt] (02:55)
15. Don't Let The Sunshine Fool Ya' [Album: The Late Great Townes Van Zandt] (02:26)
16. Honky Tonkin' [Album: The Late Great Townes Van Zandt] (03:43)
17. Snow Don't Fall [Album: The Late Great Townes Van Zandt] (02:42)
18. Fraulein [Album: The Late Great Townes Van Zandt] (02:43)
19. Pancho And Lefty [Album: The Late Great Townes Van Zandt] (03:40)
20. If I Needed You [Album: The Late Great Townes Van Zandt] (03:44)
21. Silver Ships Of Andilar [Album: The Late Great Townes Van Zandt] (05:08)
22. Heavenly Houseboat Blues [Album: The Late Great Townes Van Zandt] (02:40)

CD4:

01. Loretta [Album: Flyin' Shoes] (03:50)
02. No Place To Fall [Album: Flyin' Shoes] (03:29)
03. Flyin' Shoes [Album: Flyin' Shoes] (04:23)
04. Who Do You Love [Album: Flyin' Shoes] (04:00)
05. When She Don't Need Me [Album: Flyin' Shoes] (03:11)
06. Dollar Bill Blues [Album: Flyin' Shoes] (03:00)
07. Rex's Blues [Album: Flyin' Shoes] (02:29)
08. Pueblo Waltz [Album: Flyin' Shoes] (03:01)
09. Brother Flower [Album: Flyin' Shoes] (02:55)
10. Snake Song [Album: Flyin' Shoes] (02:35)
11. The Spider Song [studio outtake] (02:04)
12. Upon My Soul [studio outtake] (01:51)
13. Buckskin Stallion Blues [studio outtake] (02:57)
14. At My Window [studio outtake] (03:43)
15. Two Girls [live] (03:48)
16. Fraternity Blues [live] (02:51)
17. White Freight Liner Blues [live] (03:11)
18. Talking Thunderbird Blues [live] (02:35)
19. Nine Pound Hammer [live] (03:10)
20. Chauffeur's Blues [live] (04:35)
21. Cocaine Blues [live] (03:17)
22. Only Him Or Me [live] (02:32)


Exact Audio Copy V1.0 beta 6 from 9. April 2015

EAC extraction logfile from 15. May 2016, 14:52

Townes Van Zandt / Texas Troubadour [remastered 2005] (Disc 1)

Used drive : PLEXTOR DVDR PX-891SA Adapter: 0 ID: 2

Read mode : Secure
Utilize accurate stream : Yes
Defeat audio cache : Yes
Make use of C2 pointers : No

Read offset correction : 6
Overread into Lead-In and Lead-Out : No
Fill up missing offset samples with silence : Yes
Delete leading and trailing silent blocks : No
Null samples used in CRC calculations : Yes
Used interface : Installed external ASPI interface

Used output format : User Defined Encoder
Selected bitrate : 320 kBit/s
Quality : High
Add ID3 tag : No
Command line compressor : C:\Program Files\Exact Audio Copy 1.0 b6\Exact Audio Copy\Flac\flac.exe
Additional command line options : -V -8 -T "Date=%year%" -T "Genre=%genre%" %source%


TOC of the extracted CD

Track | Start | Length | Start sector | End sector
––––––––––––––––––––––––––––-
1 | 0:00.00 | 4:45.37 | 0 | 21411
2 | 4:45.37 | 2:41.00 | 21412 | 33486
3 | 7:26.37 | 3:51.00 | 33487 | 50811
4 | 11:17.37 | 3:39.20 | 50812 | 67256
5 | 14:56.57 | 2:23.43 | 67257 | 78024
6 | 17:20.25 | 2:44.55 | 78025 | 90379
7 | 20:05.05 | 4:40.50 | 90380 | 111429
8 | 24:45.55 | 3:13.15 | 111430 | 125919
9 | 27:58.70 | 2:57.20 | 125920 | 139214
10 | 30:56.15 | 3:05.37 | 139215 | 153126
11 | 34:01.52 | 2:36.53 | 153127 | 164879
12 | 36:38.30 | 2:36.37 | 164880 | 176616
13 | 39:14.67 | 2:45.33 | 176617 | 189024
14 | 42:00.25 | 4:01.50 | 189025 | 207149
15 | 46:02.00 | 3:02.17 | 207150 | 220816
16 | 49:04.17 | 4:20.23 | 220817 | 240339
17 | 53:24.40 | 2:14.25 | 240340 | 250414
18 | 55:38.65 | 3:03.70 | 250415 | 264209
19 | 58:42.60 | 4:53.07 | 264210 | 286191
20 | 63:35.67 | 2:37.18 | 286192 | 297984
21 | 66:13.10 | 5:02.35 | 297985 | 320669
22 | 71:15.45 | 5:23.72 | 320670 | 344966


Range status and errors

Selected range

Filename L:\Lossless Temp\Townes Van Zandt\2005. Townes Van Zandt - Texas Troubadour (2005 Charly, SNAJ 729 CD, UK)\Disc One\Townes Van Zandt - Texas Troubadour [remastered 2005] (Disc 1).wav

Peak level 91.0 %
Extraction speed 9.4 X
Range quality 99.9 %
Test CRC 383615B5
Copy CRC 383615B5
Copy OK

No errors occurred


AccurateRip summary

Track 1 accurately ripped (confidence 66) [0EDB2DA0] (AR v2)
Track 2 accurately ripped (confidence 67) [26B6ED6F] (AR v2)
Track 3 accurately ripped (confidence 67) [2E900F6B] (AR v2)
Track 4 accurately ripped (confidence 67) [1D0C2BCE] (AR v2)
Track 5 accurately ripped (confidence 67) [1A7C5A38] (AR v2)
Track 6 accurately ripped (confidence 66) [71F82475] (AR v2)
Track 7 accurately ripped (confidence 67) [DE1E8283] (AR v2)
Track 8 accurately ripped (confidence 68) [D91542D6] (AR v2)
Track 9 accurately ripped (confidence 68) [25ACAD78] (AR v2)
Track 10 accurately ripped (confidence 67) [E6D8EAD7] (AR v2)
Track 11 accurately ripped (confidence 68) [06493BD3] (AR v2)
Track 12 accurately ripped (confidence 67) [F7C1C5A7] (AR v2)
Track 13 accurately ripped (confidence 66) [A6F69304] (AR v2)
Track 14 accurately ripped (confidence 66) [EE634AB4] (AR v2)
Track 15 accurately ripped (confidence 67) [BED4A611] (AR v2)
Track 16 accurately ripped (confidence 67) [1711AE5A] (AR v2)
Track 17 accurately ripped (confidence 67) [7A3F9DBA] (AR v2)
Track 18 accurately ripped (confidence 67) [B546257A] (AR v2)
Track 19 accurately ripped (confidence 66) [68F11457] (AR v2)
Track 20 accurately ripped (confidence 67) [890734D4] (AR v2)
Track 21 accurately ripped (confidence 67) [8EFB92FF] (AR v2)
Track 22 accurately ripped (confidence 65) [04AFB559] (AR v2)

All tracks accurately ripped

End of status report

==== Log checksum 3B16C63607F45304B2682EA0731A0CB3314FF1A43993076E638C9FB327033B4E ====

foobar2000 1.2 / Dynamic Range Meter 1.1.1
log date: 2016-06-08 17:07:11

––––––––––––––––––––––––––––––––––––––––
Analyzed: Townes Van Zandt / Texas Troubadour [remastered 2005] (Disc 1)
––––––––––––––––––––––––––––––––––––––––

DR Peak RMS Duration Track
––––––––––––––––––––––––––––––––––––––––
DR13 -1.03 dB -17.04 dB 4:45 01-For The Sake Of The Song [Album: For Sake Of The Song]
DR13 -1.04 dB -16.24 dB 2:41 02-Tecumseh Valley [Album: For Sake Of The Song]
DR13 -0.93 dB -16.75 dB 3:51 03-Many A Fine Lady [Album: For Sake Of The Song]
DR12 -1.07 dB -16.24 dB 3:39 04-Quicksilver Daydreams Of Maria [Album: For Sake Of The Song]
DR12 -0.95 dB -14.84 dB 2:24 05-Waitin' Around To Die [Album: For Sake Of The Song]
DR12 -0.86 dB -15.58 dB 2:45 06-I'll Be Here In The Morning [Album: For Sake Of The Song]
DR12 -0.88 dB -16.34 dB 4:41 07-Sad Cinderella [Album: For Sake Of The Song]
DR11 -0.93 dB -14.92 dB 3:13 08-The Velvet Voices [Album: For Sake Of The Song]
DR12 -0.99 dB -17.59 dB 2:57 09-All Your Young Servants [Album: For Sake Of The Song]
DR13 -0.99 dB -16.44 dB 3:05 10-Talkin' Karate Blues [Album: For Sake Of The Song]
DR12 -1.06 dB -15.87 dB 2:37 11-Sixteen Summers, Fifteen Falls [Album: For Sake Of The Song]
DR12 -0.99 dB -14.92 dB 2:36 12-Be Here To Love Me [Album: Our Mother The Mountain]
DR13 -0.92 dB -19.56 dB 2:45 13-Kathleen [Album: Our Mother The Mountain]
DR12 -0.82 dB -15.75 dB 4:02 14-She Came And She Touched Me [Album: Our Mother The Mountain]
DR13 -1.01 dB -16.76 dB 3:02 15-Like A Summer Thursday [Album: Our Mother The Mountain]
DR13 -1.09 dB -17.25 dB 4:20 16-Our Mother The Mountain [Album: Our Mother The Mountain]
DR12 -1.02 dB -15.99 dB 2:14 17-Second Lover's Song [Album: Our Mother The Mountain]
DR12 -1.05 dB -16.46 dB 3:04 18-St. John The Gambler [Album: Our Mother The Mountain]
DR14 -1.08 dB -18.15 dB 4:53 19-Tecumseh Valley [Album: Our Mother The Mountain]
DR12 -1.08 dB -16.06 dB 2:37 20-Snake Mountain Blues [Album: Our Mother The Mountain]
DR13 -1.08 dB -17.98 dB 5:02 21-My Proud Mountains [Album: Our Mother The Mountain]
DR12 -1.05 dB -16.76 dB 5:24 22-Whe She's Acting This Way [Album: Our Mother The Mountain]
––––––––––––––––––––––––––––––––––––––––

Number of tracks: 22
Official DR value: DR12

Samplerate: 44100 Hz
Channels: 2
Bits per sample: 16
Bitrate: 748 kbps
Codec: FLAC
================================================================================


Exact Audio Copy V1.0 beta 6 from 9. April 2015

EAC extraction logfile from 15. May 2016, 13:56

Townes Van Zandt / Texas Troubadour [remastered 2005] (Disc 2)

Used drive : PLEXTOR DVDR PX-891SA Adapter: 0 ID: 2

Read mode : Secure
Utilize accurate stream : Yes
Defeat audio cache : Yes
Make use of C2 pointers : No

Read offset correction : 6
Overread into Lead-In and Lead-Out : No
Fill up missing offset samples with silence : Yes
Delete leading and trailing silent blocks : No
Null samples used in CRC calculations : Yes
Used interface : Installed external ASPI interface

Used output format : User Defined Encoder
Selected bitrate : 320 kBit/s
Quality : High
Add ID3 tag : No
Command line compressor : C:\Program Files\Exact Audio Copy 1.0 b6\Exact Audio Copy\Flac\flac.exe
Additional command line options : -V -8 -T "Date=%year%" -T "Genre=%genre%" %source%


TOC of the extracted CD

Track | Start | Length | Start sector | End sector
––––––––––––––––––––––––––––-
1 | 0:00.00 | 5:18.10 | 0 | 23859
2 | 5:18.10 | 2:30.37 | 23860 | 35146
3 | 7:48.47 | 2:41.38 | 35147 | 47259
4 | 10:30.10 | 2:50.42 | 47260 | 60051
5 | 13:20.52 | 3:15.35 | 60052 | 74711
6 | 16:36.12 | 2:25.50 | 74712 | 85636
7 | 19:01.62 | 2:57.08 | 85637 | 98919
8 | 21:58.70 | 5:17.65 | 98920 | 122759
9 | 27:16.60 | 4:41.42 | 122760 | 143876
10 | 31:58.27 | 2:23.48 | 143877 | 154649
11 | 34:22.00 | 3:32.60 | 154650 | 170609
12 | 37:54.60 | 3:56.72 | 170610 | 188381
13 | 41:51.57 | 2:27.25 | 188382 | 199431
14 | 44:19.07 | 3:20.40 | 199432 | 214471
15 | 47:39.47 | 4:07.15 | 214472 | 233011
16 | 51:46.62 | 2:54.73 | 233012 | 246134
17 | 54:41.60 | 4:41.52 | 246135 | 267261
18 | 59:23.37 | 2:47.53 | 267262 | 279839
19 | 62:11.15 | 4:01.60 | 279840 | 297974
20 | 66:13.00 | 2:46.65 | 297975 | 310489


Range status and errors

Selected range

Filename L:\Lossless Temp\Townes Van Zandt\2005. Townes Van Zandt - Texas Troubadour (2005 Charly, SNAJ 729 CD, UK)\Disc Two\Townes Van Zandt - Texas Troubadour [remastered 2005] (Disc 2).wav

Peak level 92.4 %
Extraction speed 9.0 X
Range quality 100.0 %
Test CRC FD7111EE
Copy CRC FD7111EE
Copy OK

No errors occurred


AccurateRip summary

Track 1 accurately ripped (confidence 70) [17869E32] (AR v2)
Track 2 accurately ripped (confidence 71) [FA7F5DC3] (AR v2)
Track 3 accurately ripped (confidence 71) [9C8EE6A1] (AR v2)
Track 4 accurately ripped (confidence 71) [4B60EFC2] (AR v2)
Track 5 accurately ripped (confidence 70) [2129719F] (AR v2)
Track 6 accurately ripped (confidence 69) [36946E26] (AR v2)
Track 7 accurately ripped (confidence 71) [268D1423] (AR v2)
Track 8 accurately ripped (confidence 71) [101E507F] (AR v2)
Track 9 accurately ripped (confidence 71) [97E9222E] (AR v2)
Track 10 accurately ripped (confidence 71) [B2BDA36B] (AR v2)
Track 11 accurately ripped (confidence 70) [ADCBC6BB] (AR v2)
Track 12 accurately ripped (confidence 71) [2E7DF81D] (AR v2)
Track 13 accurately ripped (confidence 71) [2EBF29F5] (AR v2)
Track 14 accurately ripped (confidence 70) [82ADAC3A] (AR v2)
Track 15 accurately ripped (confidence 70) [D92C0C35] (AR v2)
Track 16 accurately ripped (confidence 71) [91F71246] (AR v2)
Track 17 accurately ripped (confidence 69) [C69343D9] (AR v2)
Track 18 accurately ripped (confidence 71) [4DFF121D] (AR v2)
Track 19 accurately ripped (confidence 71) [9EEF3CF1] (AR v2)
Track 20 accurately ripped (confidence 70) [F2B02243] (AR v2)

All tracks accurately ripped

End of status report

==== Log checksum 0C8CEC909B583B40017D8E138B02FD9643CC64D0A06D6844A293C1B9061A5561 ====

foobar2000 1.2 / Dynamic Range Meter 1.1.1
log date: 2016-06-08 17:07:30

––––––––––––––––––––––––––––––––––––––––
Analyzed: Townes Van Zandt / Texas Troubadour [remastered 2005] (Disc 2)
––––––––––––––––––––––––––––––––––––––––

DR Peak RMS Duration Track
––––––––––––––––––––––––––––––––––––––––
DR13 -1.05 dB -17.68 dB 5:18 01-For The Sake Of The Song [Album: Townes Van Zandt]
DR12 -1.09 dB -15.96 dB 2:30 02-Columbine [Album: Townes Van Zandt]
DR12 -1.02 dB -16.06 dB 2:42 03-Waitin' Around To Die [Album: Townes Van Zandt]
DR13 -1.00 dB -16.26 dB 2:51 04-Don't Take It Too Bad [Album: Townes Van Zandt]
DR12 -1.01 dB -17.18 dB 3:15 05-Colorado Girl [Album: Townes Van Zandt]
DR12 -0.87 dB -16.30 dB 2:26 06-Lungs [Album: Townes Van Zandt]
DR12 -1.05 dB -15.54 dB 2:57 07-I'll Be Here In The Morning [Album: Townes Van Zandt]
DR12 -0.90 dB -14.93 dB 5:18 08-Fare Thee Well, Miss Carousel [Album: Townes Van Zandt]
DR12 -1.01 dB -16.65 dB 4:42 09-(Quicksilver Daydreams Of) Maria [Album: Townes Van Zandt]
DR12 -1.01 dB -16.32 dB 2:24 10-None But The Rain [Album: Townes Van Zandt]
DR12 -1.01 dB -16.21 dB 3:33 11-F.F.V. [Album: Delta Momma Blues]
DR12 -0.95 dB -15.62 dB 3:57 12-Delta Momma Blues [Album: Delta Momma Blues]
DR13 -1.09 dB -17.33 dB 2:27 13-Only Him Or Me [Album: Delta Momma Blues]
DR12 -1.01 dB -15.04 dB 3:21 14-Turnstyled, Junkpiled [Album: Delta Momma Blues]
DR13 -1.04 dB -17.43 dB 4:07 15-Tower Song [Album: Delta Momma Blues]
DR10 -1.06 dB -15.94 dB 2:55 16-Come Tomorrow [Album: Delta Momma Blues]
DR13 -1.08 dB -19.53 dB 4:42 17-Brand New Companion [Album: Delta Momma Blues]
DR14 -1.00 dB -17.71 dB 2:48 18-Where I Lead Me [Album: Delta Momma Blues]
DR12 -0.68 dB -16.76 dB 4:02 19-Rake [Album: Delta Momma Blues]
DR12 -0.89 dB -16.58 dB 2:47 20-Nothin' [Album: Delta Momma Blues]
––––––––––––––––––––––––––––––––––––––––

Number of tracks: 20
Official DR value: DR12

Samplerate: 44100 Hz
Channels: 2
Bits per sample: 16
Bitrate: 753 kbps
Codec: FLAC
================================================================================


Exact Audio Copy V1.0 beta 6 from 9. April 2015

EAC extraction logfile from 15. May 2016, 14:18

Townes Van Zandt / Texas Troubadour [remastered 2005] (Disc 3)

Used drive : PLEXTOR DVDR PX-891SA Adapter: 0 ID: 2

Read mode : Secure
Utilize accurate stream : Yes
Defeat audio cache : Yes
Make use of C2 pointers : No

Read offset correction : 6
Overread into Lead-In and Lead-Out : No
Fill up missing offset samples with silence : Yes
Delete leading and trailing silent blocks : No
Null samples used in CRC calculations : Yes
Used interface : Installed external ASPI interface

Used output format : User Defined Encoder
Selected bitrate : 320 kBit/s
Quality : High
Add ID3 tag : No
Command line compressor : C:\Program Files\Exact Audio Copy 1.0 b6\Exact Audio Copy\Flac\flac.exe
Additional command line options : -V -8 -T "Date=%year%" -T "Genre=%genre%" %source%


TOC of the extracted CD

Track | Start | Length | Start sector | End sector
––––––––––––––––––––––––––––-
1 | 0:00.00 | 2:34.12 | 0 | 11561
2 | 2:34.12 | 4:15.40 | 11562 | 30726
3 | 6:49.52 | 2:21.05 | 30727 | 41306
4 | 9:10.57 | 2:15.18 | 41307 | 51449
5 | 11:26.00 | 3:23.70 | 51450 | 66744
6 | 14:49.70 | 3:13.20 | 66745 | 81239
7 | 18:03.15 | 3:15.30 | 81240 | 95894
8 | 21:18.45 | 3:00.10 | 95895 | 109404
9 | 24:18.55 | 2:22.02 | 109405 | 120056
10 | 26:40.57 | 2:10.50 | 120057 | 129856
11 | 28:51.32 | 3:13.63 | 129857 | 144394
12 | 32:05.20 | 4:20.72 | 144395 | 163966
13 | 36:26.17 | 4:15.65 | 163967 | 183156
14 | 40:42.07 | 2:55.30 | 183157 | 196311
15 | 43:37.37 | 2:26.03 | 196312 | 207264
16 | 46:03.40 | 3:43.52 | 207265 | 224041
17 | 49:47.17 | 2:42.60 | 224042 | 236251
18 | 52:30.02 | 2:43.15 | 236252 | 248491
19 | 55:13.17 | 3:40.58 | 248492 | 265049
20 | 58:54.00 | 3:44.57 | 265050 | 281906
21 | 62:38.57 | 5:08.33 | 281907 | 305039
22 | 67:47.15 | 2:40.10 | 305040 | 317049


Range status and errors

Selected range

Filename L:\Lossless Temp\Townes Van Zandt\2005. Townes Van Zandt - Texas Troubadour (2005 Charly, SNAJ 729 CD, UK)\Disc Three\Townes Van Zandt - Texas Troubadour [remastered 2005] (Disc 3).wav

Peak level 92.9 %
Extraction speed 9.0 X
Range quality 99.9 %
Test CRC 11540BE9
Copy CRC 11540BE9
Copy OK

No errors occurred


AccurateRip summary

Track 1 accurately ripped (confidence 67) [0EA1D896] (AR v2)
Track 2 accurately ripped (confidence 68) [9F2F5744] (AR v2)
Track 3 accurately ripped (confidence 66) [AE905F66] (AR v2)
Track 4 accurately ripped (confidence 67) [0B91E89A] (AR v2)
Track 5 accurately ripped (confidence 68) [DCE81B1F] (AR v2)
Track 6 accurately ripped (confidence 67) [13FFD3C5] (AR v2)
Track 7 accurately ripped (confidence 67) [5F01A893] (AR v2)
Track 8 accurately ripped (confidence 67) [68CD9870] (AR v2)
Track 9 accurately ripped (confidence 67) [557F9D41] (AR v2)
Track 10 accurately ripped (confidence 67) [6E88C3B8] (AR v2)
Track 11 accurately ripped (confidence 68) [921D8BBF] (AR v2)
Track 12 accurately ripped (confidence 68) [C5D51928] (AR v2)
Track 13 accurately ripped (confidence 68) [CC0A33F9] (AR v2)
Track 14 accurately ripped (confidence 67) [442CDF53] (AR v2)
Track 15 accurately ripped (confidence 68) [B3415ECB] (AR v2)
Track 16 accurately ripped (confidence 66) [276D117D] (AR v2)
Track 17 accurately ripped (confidence 67) [5208F9B0] (AR v2)
Track 18 accurately ripped (confidence 67) [1677407F] (AR v2)
Track 19 accurately ripped (confidence 68) [8887CFF8] (AR v2)
Track 20 accurately ripped (confidence 67) [1F059AD0] (AR v2)
Track 21 accurately ripped (confidence 66) [092D9B81] (AR v2)
Track 22 accurately ripped (confidence 63) [AD0D202E] (AR v2)

All tracks accurately ripped

End of status report

==== Log checksum A13F2EDC561B7C8D261ECD87DF0D323ACD71F7861DE0A6548DDD4C74655DF793 ====

foobar2000 1.2 / Dynamic Range Meter 1.1.1
log date: 2016-06-08 17:07:50

––––––––––––––––––––––––––––––––––––––––
Analyzed: Townes Van Zandt / Texas Troubadour [remastered 2005] (Disc 3)
––––––––––––––––––––––––––––––––––––––––

DR Peak RMS Duration Track
––––––––––––––––––––––––––––––––––––––––
DR12 -1.05 dB -16.30 dB 2:34 01-Two Hands [Album: High, Low And In Between]
DR13 -1.02 dB -16.46 dB 4:16 02-You Are Not Needed Now [Album: High, Low And In Between]
DR14 -1.01 dB -19.25 dB 2:21 03-Greensboro Woman [Album: High, Low And In Between]
DR13 -1.01 dB -17.12 dB 2:15 04-Highway Kind [Album: High, Low And In Between]
DR11 -1.00 dB -15.90 dB 3:24 05-Standin' [Album: High, Low And In Between]
DR13 -1.08 dB -16.98 dB 3:13 06-No Deal [Album: High, Low And In Between]
DR12 -0.64 dB -17.36 dB 3:15 07-To Live Is To Fly [Album: High, Low And In Between]
DR13 -1.04 dB -15.85 dB 3:00 08-When He Offers His Hand [Album: High, Low And In Between]
DR12 -1.02 dB -16.04 dB 2:22 09-Mr. Mudd And Mr. Gold [Album: High, Low And In Between]
DR11 -1.09 dB -15.57 dB 2:11 10-Blue Ridge Mountains [Album: High, Low And In Between]
DR12 -1.05 dB -17.23 dB 3:14 11-High, Low And In Between [Album: High, Low And In Between]
DR13 -1.01 dB -16.11 dB 4:21 12-No Lonesome Tune [Album: The Late Great Townes Van Zandt]
DR12 -1.05 dB -17.37 dB 4:16 13-Sad Cinderella [Album: The Late Great Townes Van Zandt]
DR15 -1.08 dB -21.30 dB 2:55 14-German Mustard (A Clapalong) [Album: The Late Great Townes Van Zandt]
DR12 -1.09 dB -16.40 dB 2:26 15-Don't Let The Sunshine Fool Ya' [Album: The Late Great Townes Van Zandt]
DR13 -0.84 dB -17.46 dB 3:44 16-Honky Tonkin' [Album: The Late Great Townes Van Zandt]
DR13 -1.07 dB -18.23 dB 2:43 17-Snow Don't Fall [Album: The Late Great Townes Van Zandt]
DR13 -1.04 dB -17.20 dB 2:43 18-Fraulein [Album: The Late Great Townes Van Zandt]
DR12 -1.04 dB -16.36 dB 3:41 19-Pancho And Lefty [Album: The Late Great Townes Van Zandt]
DR13 -0.92 dB -17.14 dB 3:45 20-If I Needed You [Album: The Late Great Townes Van Zandt]
DR11 -0.83 dB -15.04 dB 5:08 21-Silver Ships Of Andilar [Album: The Late Great Townes Van Zandt]
DR11 -0.77 dB -14.58 dB 2:40 22-Heavenly Houseboat Blues [Album: The Late Great Townes Van Zandt]
––––––––––––––––––––––––––––––––––––––––

Number of tracks: 22
Official DR value: DR12

Samplerate: 44100 Hz
Channels: 2
Bits per sample: 16
Bitrate: 769 kbps
Codec: FLAC
================================================================================


Exact Audio Copy V1.0 beta 6 from 9. April 2015

EAC extraction logfile from 12. May 2016, 15:29

Townes Van Zandt / Texas Troubadour [remastered 2005] (Disc 4)

Used drive : PLEXTOR DVDR PX-891SA Adapter: 0 ID: 2

Read mode : Secure
Utilize accurate stream : Yes
Defeat audio cache : Yes
Make use of C2 pointers : No

Read offset correction : 6
Overread into Lead-In and Lead-Out : No
Fill up missing offset samples with silence : Yes
Delete leading and trailing silent blocks : No
Null samples used in CRC calculations : Yes
Used interface : Installed external ASPI interface

Used output format : User Defined Encoder
Selected bitrate : 320 kBit/s
Quality : High
Add ID3 tag : No
Command line compressor : C:\Program Files\Exact Audio Copy 1.0 b6\Exact Audio Copy\Flac\flac.exe
Additional command line options : -V -8 -T "Date=%year%" -T "Genre=%genre%" %source%


TOC of the extracted CD

Track | Start | Length | Start sector | End sector
––––––––––––––––––––––––––––-
1 | 0:00.00 | 3:50.03 | 0 | 17252
2 | 3:50.03 | 3:29.58 | 17253 | 32985
3 | 7:19.61 | 4:23.15 | 32986 | 52725
4 | 11:43.01 | 4:00.52 | 52726 | 70777
5 | 15:43.53 | 3:11.31 | 70778 | 85133
6 | 18:55.09 | 3:00.42 | 85134 | 98675
7 | 21:55.51 | 2:29.46 | 98676 | 109896
8 | 24:25.22 | 3:01.24 | 109897 | 123495
9 | 27:26.46 | 2:55.10 | 123496 | 136630
10 | 30:21.56 | 2:35.07 | 136631 | 148262
11 | 32:56.63 | 2:04.68 | 148263 | 157630
12 | 35:01.56 | 1:51.42 | 157631 | 165997
13 | 36:53.23 | 2:57.40 | 165998 | 179312
14 | 39:50.63 | 3:43.69 | 179313 | 196106
15 | 43:34.57 | 3:48.56 | 196107 | 213262
16 | 47:23.38 | 2:51.20 | 213263 | 226107
17 | 50:14.58 | 3:11.22 | 226108 | 240454
18 | 53:26.05 | 2:35.63 | 240455 | 252142
19 | 56:01.68 | 3:10.05 | 252143 | 266397
20 | 59:11.73 | 4:35.13 | 266398 | 287035
21 | 63:47.11 | 3:17.63 | 287036 | 301873
22 | 67:04.74 | 2:32.22 | 301874 | 313295


Range status and errors

Selected range

Filename L:\Lossless Temp\Townes Van Zandt\2005. Townes Van Zandt - Texas Troubadour (2005 Charly, SNAJ 729 CD, UK)\Disc Four\Townes Van Zandt - Texas Troubadour [remastered 2005] (Disc 4).wav

Peak level 99.8 %
Extraction speed 9.0 X
Range quality 100.0 %
Test CRC E40F9C38
Copy CRC E40F9C38
Copy OK

No errors occurred


AccurateRip summary

Track 1 accurately ripped (confidence 64) [F40F335C] (AR v2)
Track 2 accurately ripped (confidence 65) [17798FE2] (AR v2)
Track 3 accurately ripped (confidence 65) [C282CC92] (AR v2)
Track 4 accurately ripped (confidence 64) [65945BDF] (AR v2)
Track 5 accurately ripped (confidence 64) [A78AE169] (AR v2)
Track 6 accurately ripped (confidence 64) [AF28E7DF] (AR v2)
Track 7 accurately ripped (confidence 64) [26D52E2C] (AR v2)
Track 8 accurately ripped (confidence 65) [6BBDF25A] (AR v2)
Track 9 accurately ripped (confidence 65) [0E7FAF56] (AR v2)
Track 10 accurately ripped (confidence 65) [FEA62FB9] (AR v2)
Track 11 accurately ripped (confidence 65) [6469AA68] (AR v2)
Track 12 accurately ripped (confidence 65) [1E62237D] (AR v2)
Track 13 accurately ripped (confidence 66) [9BDA348A] (AR v2)
Track 14 accurately ripped (confidence 66) [10A0D714] (AR v2)
Track 15 accurately ripped (confidence 61) [8B98C84C] (AR v2)
Track 16 accurately ripped (confidence 62) [A55A7A9F] (AR v2)
Track 17 accurately ripped (confidence 62) [FF1C71D2] (AR v2)
Track 18 accurately ripped (confidence 62) [C8DC4A22] (AR v2)
Track 19 accurately ripped (confidence 62) [C35B1197] (AR v2)
Track 20 accurately ripped (confidence 62) [F71C7604] (AR v2)
Track 21 accurately ripped (confidence 60) [BE059A8D] (AR v2)
Track 22 accurately ripped (confidence 61) [23175079] (AR v2)

All tracks accurately ripped

End of status report

==== Log checksum 09B74C7752BD5CE0AAE0FAE9DA1A0DDC399CF9F4677D396F3EA603808C58C17C ====

foobar2000 1.2 / Dynamic Range Meter 1.1.1
log date: 2016-06-08 17:08:11

––––––––––––––––––––––––––––––––––––––––
Analyzed: Townes Van Zandt / Texas Troubadour [remastered 2005] (Disc 4)
––––––––––––––––––––––––––––––––––––––––

DR Peak RMS Duration Track
––––––––––––––––––––––––––––––––––––––––
DR15 -2.74 dB -20.40 dB 3:50 01-Loretta [Album: Flyin' Shoes]
DR14 -1.99 dB -20.38 dB 3:30 02-No Place To Fall [Album: Flyin' Shoes]
DR14 -1.63 dB -20.38 dB 4:23 03-Flyin' Shoes [Album: Flyin' Shoes]
DR14 -3.78 dB -20.41 dB 4:01 04-Who Do You Love [Album: Flyin' Shoes]
DR13 -3.97 dB -20.39 dB 3:11 05-When She Don't Need Me [Album: Flyin' Shoes]
DR14 -3.75 dB -20.44 dB 3:01 06-Dollar Bill Blues [Album: Flyin' Shoes]
DR13 -3.57 dB -20.40 dB 2:30 07-Rex's Blues [Album: Flyin' Shoes]
DR13 -2.97 dB -20.42 dB 3:01 08-Pueblo Waltz [Album: Flyin' Shoes]
DR12 -5.17 dB -20.43 dB 2:55 09-Brother Flower [Album: Flyin' Shoes]
DR13 -3.18 dB -20.42 dB 2:35 10-Snake Song [Album: Flyin' Shoes]
DR12 -5.66 dB -20.44 dB 2:05 11-The Spider Song [studio outtake]
DR11 -7.13 dB -20.51 dB 1:52 12-Upon My Soul [studio outtake]
DR11 -6.89 dB -20.44 dB 2:58 13-Buckskin Stallion Blues [studio outtake]
DR12 -6.00 dB -20.39 dB 3:44 14-At My Window [studio outtake]
DR13 -2.61 dB -20.41 dB 3:49 15-Two Girls [live]
DR15 -3.14 dB -20.45 dB 2:51 16-Fraternity Blues [live]
DR12 -4.38 dB -20.40 dB 3:11 17-White Freight Liner Blues [live]
DR15 -1.75 dB -20.40 dB 2:36 18-Talking Thunderbird Blues [live]
DR14 -1.00 dB -20.42 dB 3:10 19-Nine Pound Hammer [live]
DR16 -0.88 dB -20.38 dB 4:35 20-Chauffeur's Blues [live]
DR15 -0.01 dB -20.38 dB 3:18 21-Cocaine Blues [live]
DR15 -1.95 dB -20.38 dB 2:32 22-Only Him Or Me [live]
––––––––––––––––––––––––––––––––––––––––

Number of tracks: 22
Official DR value: DR13

Samplerate: 44100 Hz
Channels: 2
Bits per sample: 16
Bitrate: 668 kbps
Codec: FLAC
================================================================================

Townes Van Zandt - Texas Troubadour (2005) 4 CD Box Set