Tags
Language
Tags

Trettioåriga Kriget - Glorious War (Recordings from 1970-1971) (2004)

Posted By: gribovar
Trettioåriga Kriget - Glorious War (Recordings from 1970-1971) (2004)

Trettioariga Kriget - Glorious War (Recordings from 1970-1971) (2004)
EAC Rip | FLAC (image+.cue+log) - 301 MB | MP3 CBR 320 kbps (LAME 3.93) - 125 MB | Covers - 28 MB
Genre: Progressive/Psychedelic Rock | RAR 3% Rec. | Label: Mellotronen (MELLOCD 015)

Trettioåriga Kriget is a Swedish progressive rock band that was formed in Saltsjöbaden outside Stockholm in 1970. They released their s/t debut album in 1974. They have earned critical acclaim from critics and fellow musicians, developed a cult following, and became an influence for a new generation of Swedish and Scandinavian progressive rock bands.
Considering that this pre-debut album actually saw the light of day as a result of using a 2-track tape recorder to document the collective thoughts and ideas of these aspiring lads, one cannot really complain about the obviously inferior sound quality.
The sound is often slightly dissonant and unnerving; given the prehistoric age of the original recordings but enables the band to pull off a pretty convincing attempt at emulating what Pink Floyd so admirably did in their prime…

Tracklist:
01. Intro
02. Amassilations
03. Konserten
04. Ontro I
05. Ontro II
06. Thirty Years War
07. From your Streets
08. Outro

Total time: 53:10

Exact Audio Copy V1.0 beta 3 from 29. August 2011

Отчёт EAC об извлечении, выполненном 15. января 2014, 11:27

Trettioåriga Kriget / Glorious War: Recordings from 1970-1971

Дисковод: ASUS BW-12D1S-U Adapter: 0 ID: 0

Режим чтения : Достоверность
Использование точного потока : Да
Отключение кэша аудио : Да
Использование указателей C2 : Нет

Коррекция смещения при чтении : 667
Способность читать области Lead-in и Lead-out : Нет
Заполнение пропущенных сэмплов тишиной : Да
Удаление блоков с тишиной в начале и конце : Нет
При вычислениях CRC использовались нулевые сэмплы : Да
Интерфейс : Установленный внешний ASPI-интерфейс

Выходной формат : Пользовательский кодировщик
Выбранный битрейт : 1024 kBit/s
Качество : Высокий
Добавление ID3-тега : Нет
Утилита сжатия : C:\Program Files (x86)\Exact Audio Copy\Flac\flac.exe
Дополнительные параметры : -V -8 -T "Date=%year%" -T "Genre=%genre%" %source%


TOC извлечённого CD

Трек | Старт | Длительность | Начальный сектор | Конечный сектор
––––––––––––––––––––––––––––––––––-
1 | 0:00.00 | 0:37.30 | 0 | 2804
2 | 0:37.30 | 8:56.15 | 2805 | 43019
3 | 9:33.45 | 18:13.62 | 43020 | 125056
4 | 27:47.32 | 1:12.68 | 125057 | 130524
5 | 29:00.25 | 1:03.12 | 130525 | 135261
6 | 30:03.37 | 5:18.35 | 135262 | 159146
7 | 35:21.72 | 16:44.45 | 159147 | 234491
8 | 52:06.42 | 1:03.55 | 234492 | 239271


Характеристики диапазона извлечения и сообщения об ошибках

Выбранный диапазон

Имя файла F:\Pasheka-Pacheka#rutracker.org\Trettioariga Kriget (S&LD)\Trettioariga Kriget (1970-1971) - Glorious War (2004)\Trettioåriga Kriget - Glorious War- Recordings from 1970-1971.wav

Пиковый уровень 97.7 %
Скорость извлечения 7.3 X
Качество диапазона 100.0 %
CRC теста B5B97D73
CRC копии B5B97D73
Копирование… OK

Ошибок не произошло


AccurateRip: сводка

Трек 1 : извлечено точно (доверие 3) [C13795B8] (AR v2)
Трек 2 : извлечено точно (доверие 3) [2D58D31B] (AR v2)
Трек 3 : извлечено точно (доверие 3) [5F284EA9] (AR v2)
Трек 4 : извлечено точно (доверие 3) [1D9CE5AF] (AR v2)
Трек 5 : извлечено точно (доверие 3) [FCB19FE1] (AR v2)
Трек 6 : извлечено точно (доверие 3) [2DE5C87C] (AR v2)
Трек 7 : извлечено точно (доверие 3) [C8E33D73] (AR v2)
Трек 8 : извлечено точно (доверие 3) [1A0E06FC] (AR v2)

Все треки извлечены точно

Конец отчёта

==== Контрольная сумма отчёта BCB7F5581166ED74C7BDE4B28E2B951D4A0AC6C0B43585023B05127892AC8C6E ====

[CUETools log; Date: 08.06.2021 20:21:22; Version: 2.1.4]
[CTDB TOCID: IEvI_OYEiG_utcpHxWn6MPHRiLs-] found.
Track | CTDB Status
1 | (5/5) Accurately ripped
2 | (5/5) Accurately ripped
3 | (5/5) Accurately ripped
4 | (5/5) Accurately ripped
5 | (5/5) Accurately ripped
6 | (5/5) Accurately ripped
7 | (5/5) Accurately ripped
8 | (5/5) Accurately ripped
[AccurateRip ID: 0010520c-006e830d-670c7608] found.
Track [ CRC | V2 ] Status
01 [26cd2451|c13795b8] (0+6/6) Accurately ripped
02 [ee342b11|2d58d31b] (0+6/6) Accurately ripped
03 [60a16599|5f284ea9] (0+6/6) Accurately ripped
04 [b3d49139|1d9ce5af] (0+6/6) Accurately ripped
05 [ec756135|fcb19fe1] (0+6/6) Accurately ripped
06 [5d2468cd|2de5c87c] (0+6/6) Accurately ripped
07 [d3823d38|c8e33d73] (0+6/6) Accurately ripped
08 [2c2d9faf|1a0e06fc] (0+6/6) Accurately ripped

Track Peak [ CRC32 ] [W/O NULL] [ LOG ]
– 97,7 [B5B97D73] [EB016FE7] CRC32
01 53,6 [AD1E0E4E] [C1A7A7BB]
02 97,7 [CD9F8810] [2A3B6819]
03 82,2 [0128344D] [C6EE2D9B]
04 52,0 [6ED54484] [0E5955DD]
05 50,2 [BB36EFA4] [ABBBC1F3]
06 97,7 [CC118A56] [05D94FD0]
07 97,7 [22183C3A] [027221BF]
08 42,1 [734F2BDE] [01CCEDB2]

Thanks to Pasheka-Pacheka

See also:
Trettioåriga Kriget - 7 Studio Albums (1974-2011)
Trettioåriga Kriget - War Diaries Vol. 1: 1974 (2018)